#TITLE:天空脳番長危機十六連打;
#SUBTITLE:;
#ARTIST:D.J. SETUP;
#TITLETRANSLIT:Tenkuu Nou Banchou Kiki Juuroku Renda;
#SUBTITLETRANSLIT:;
#ARTISTTRANSLIT:;
#GENRE:;
#CREDIT:Telperion;
#BANNER:tnbkjr-bn.png;
#BACKGROUND:tnbkjr-bg.png;
#LYRICSPATH:;
#CDTITLE:;
#MUSIC:tnbkjr.ogg;
#OFFSET:-0.377982;
#SAMPLESTART:19.577999;
#SAMPLELENGTH:12.759999;
#SELECTABLE:YES;
#DISPLAYBPM:150.000000;
#BPMS:0.000000=150.000000;
#STOPS:;
#DELAYS:;
#TIMESIGNATURES:0.000000=4=4
;
#BGCHANGES:0.000=tnbkjr-bg.png=1.000=0=0=1=====,
1.104=[Week 4] - Tenkuu nou banchou kiki juuroku renda.avi=1.000=0=0=1=====,
99999=-nosongbg-=1.000=0=0=0 // don't automatically add -songbackground-
;
#KEYSOUNDS:;
#ATTACKS:;

//---------------dance-single - Telperion----------------
#NOTES:
     dance-single:
     Telperion:
     Hard:
     8:
     0.470,0.580,0.147,0.217,0.342,338.000,17.000,25.000,0.000,0.000,0.000,0.000,0.470,0.580,0.147,0.217,0.342,338.000,17.000,25.000,0.000,0.000,0.000,0.000:
0000
0000
0000
0000
,
0000
0000
0000
0000
,
0000
0000
0000
0000
,
0000
0000
0000
0000
,
0000
0000
0000
0000
,
0000
0000
0000
0000
,
0000
0000
0000
0000
,
0000
0000
0000
0000
,
0000
0000
0011
0010
,
0100
0000
0010
0000
0000
0100
0000
1000
0000
0010
0000
0000
0010
0000
0000
0000
,
0100
0000
0001
0000
0000
0100
0000
0010
0000
1000
0000
0000
1000
0000
0000
0000
,
0001
0000
1000
0000
0000
0100
0000
0010
0000
0001
0000
0000
0001
0000
0000
0000
,
0010
0000
0001
0100
0000
0010
0000
0100
0000
0001
0000
0000
0001
0000
0000
0000
,
1000
0000
0100
1000
0000
0001
0000
0100
0000
0010
0000
0000
0010
0000
0000
0000
,
0100
0000
0001
1000
0000
0100
0000
1000
0000
0010
0000
0000
0010
0000
0000
0000
,
0100
0000
0001
0010
0000
0100
0000
1000
0000
0010
0000
0000
0010
0000
0000
0000
,
0010
0000
0000
0000
0010
0100
0010
0100
0010
0000
1000
0000
0010
0000
0100
0000
,
0010
0000
0000
1000
0000
0100
0000
0010
0000
0001
0000
0000
0010
0000
0100
0000
,
0010
0000
0000
0001
0000
0100
0000
0010
0000
1000
0000
0000
0010
0000
0100
0000
,
0010
0000
0000
1000
0000
0001
0000
0010
0000
0100
0000
0000
0100
0000
0000
0000
,
1000
0100
0010
0001
1000
0010
1000
0000
,
0001
0010
1000
0010
0100
1000
0100
0000
,
0010
0001
0100
1000
0100
0010
0100
0000
,
0001
0000
0010
0000
1000
0000
0010
0000
0100
0000
0000
0100
1000
0000
0000
0001
,
0100
0000
0000
0010
0100
0010
0100
0010
0000
0000
0000
0000
0000
0000
0000
0000
,
0000
0000
0000
0000
,
0000
0000
0000
0000
0000
0000
0000
0000
1000
0000
0001
0000
0020
0030
0000
0000
,
0000
0000
0000
0000
0000
0000
0000
0000
1000
0000
0001
0000
0020
0030
0000
0000
,
0002
0003
0000
0000
2000
0000
0000
0000
3001
0000
0010
0000
0002
0000
0000
0000
,
1000
0000
0000
0000
0100
0000
0000
0000
1003
0000
0010
0000
2000
0000
0000
0001
,
0000
0001
0000
0000
0100
0000
0000
0000
3010
0000
0100
0000
0020
0000
0000
0000
,
0001
0000
0000
0000
1000
0000
0000
0000
0130
0000
0010
0000
2000
0000
0000
0100
,
0000
0001
0000
0000
0100
0000
0000
0000
3010
0000
0100
0000
0010
0000
0000
0000
,
0001
0000
0010
0000
2000
0000
0000
0000
3100
0000
0010
0000
0100
0000
0000
0001
,
0000
0100
0000
0000
2000
0000
0000
0000
3010
0000
0100
0000
0010
0000
0000
0000
,
2000
3002
0013
0010
,
0010
0000
0010
0000
0100
0010
0100
0010
0200
0000
0000
0000
0301
0000
0100
0000
,
1000
0001
0000
1000
0010
0000
0000
0000
0200
0000
0000
0000
1300
0000
0100
0000
,
0001
1000
0000
1000
0100
0000
0000
0000
0020
0000
0000
0000
1030
0000
0010
0000
,
0001
0100
0000
0100
0010
0000
0000
0000
1000
0000
0010
0000
0001
0000
0010
0000
,
1000
0001
0010
0010
0100
0000
0010
0000
,
1001
0100
0110
0010
,
1001
0010
1100
0101
,
1010
0000
0011
0000
1000
0010
0100
0001
,
0010
0100
0001
1000
0200
0000
0000
0000
,
0000
0000
0000
0000
,
0000
0000
0000
0000
,
0000
0000
0000
0000
,
0000
0000
0000
0000
,
0000
0000
0000
0000
,
0000
0000
0310
0000
,
0000
0000
0001
0000
,
0000
0000
1000
0000
,
0000
0000
0010
0000
,
0002
0000
0000
0000
0103
0010
0100
0002
,
0000
0000
1003
0010
0000
0000
0100
0000
0010
0000
0100
0000
0001
0000
2000
0000
,
0000
0000
3001
0010
0000
0000
0001
0000
1000
0000
0010
0000
0100
0000
0002
0000
,
0000
0000
0103
0010
0000
0000
1000
0000
0100
0000
0001
0000
0100
0000
2000
0000
,
0000
0000
3001
0100
0000
0000
0001
0000
0011
0000
0010
0000
0100
0000
1000
0000
,
0001
0000
0100
0020
0000
0030
0100
0000
0001
0000
0100
0000
0010
0000
1000
0000
,
0001
0000
0010
0200
0000
0300
0010
0000
0001
0000
1000
0000
0010
0000
0100
0000
,
1000
0000
0100
0002
0000
0003
0010
0000
0100
0000
0010
0000
1000
0000
0010
0100
,
1000
0000
0100
0000
0010
0000
0001
0000
0100
0000
0000
0110
0000
0000
1010
0000
,
0000
0000
0001
0000
0010
0001
0000
0010
0100
0000
0000
1100
0000
0000
1010
0000
,
0000
0000
0001
0000
1000
0010
0000
1000
0100
0000
0000
0110
0000
0000
0011
0000
,
0000
0000
1000
0000
0001
0010
0000
0001
0100
0000
0010
0000
1000
0000
0010
0000
,
0001
0000
0010
0000
1000
0000
0100
0000
0010
0000
0000
0100
0000
0000
1000
0000
,
0000
0000
0001
0000
0100
0010
0000
0100
0001
0000
0000
0100
0000
0000
0010
0000
,
0000
1000
0000
1000
0001
0010
0011
0000
,
1000
0001
0011
0000
1000
0010
0001
0010
,
1000
0001
0010
2000
3000
0000
0000
0000
;

//---------------dance-single - Telperion----------------
#NOTES:
     dance-single:
     Telperion:
     Medium:
     6:
     0.401,0.458,0.312,0.208,0.061,264.000,36.000,24.000,0.000,0.000,0.000,0.000,0.401,0.458,0.312,0.208,0.061,264.000,36.000,24.000,0.000,0.000,0.000,0.000:
0000
0000
0000
0000
,
0000
0000
0000
0000
,
0000
0000
0000
0000
,
0000
0000
0000
0000
,
0000
0000
0000
0000
,
0000
0000
0000
0000
,
0000
0000
0000
0000
,
0000
0000
0000
0000
,
0000
0000
0001
0011
,
1000
0000
0000
0000
0010
1000
0000
0000
0001
0000
0000
0000
0011
0000
0000
0000
,
1000
0000
0000
0000
0100
1000
0000
0000
0001
0000
0000
0000
0101
0000
0000
0000
,
1000
0000
0000
0000
0010
0100
0000
0000
0010
0000
0000
0000
1010
0000
0000
0000
,
1000
0001
1000
0000
0100
0000
0110
0000
,
0010
0001
0010
0000
0100
0000
1100
0000
,
1000
0010
1000
0000
0001
0000
0101
0000
,
0100
0000
0010
0000
0100
0000
0000
0000
0001
0000
0000
0001
1000
0000
0000
1000
,
0100
0100
0010
0100
1000
0000
1000
0000
,
0001
0100
0001
0100
0010
0000
0010
0000
,
1000
0001
1000
0001
0010
0000
0010
0000
,
0100
1000
0100
1000
0010
0000
0010
0000
,
0100
0001
1000
0100
0010
0000
0010
0000
,
0100
1000
0001
1000
0010
0000
0010
0000
,
0100
0001
1000
0001
0010
0000
0010
0000
,
0100
0000
1000
0000
0001
0000
1000
0000
0010
0000
0000
0010
0100
0000
0000
0100
,
0010
0010
1000
1000
0000
0000
0000
0000
,
0000
0000
0000
0000
,
0000
0000
0002
0003
,
0000
0000
2000
3000
,
0020
0030
0100
0110
,
0101
0011
0100
1100
,
1010
0110
0001
0011
,
0110
1100
1000
1010
,
0110
0000
0101
0001
1000
0000
1100
0000
,
0010
0101
1000
0011
,
0100
1100
0001
1010
,
0100
0000
0000
0000
0011
0000
0000
0000
1000
0000
0000
1000
0001
0000
0000
0001
,
0010
0010
0100
0100
0020
0000
2030
0000
,
3010
0001
0100
0000
0020
0000
0032
0000
,
0013
0100
0001
0000
0020
0000
2030
0000
,
3010
0100
1000
0100
0020
0000
2030
0000
,
3010
0001
0100
0010
1000
0000
1000
0000
,
0011
1000
0001
0001
,
1010
0001
0011
0110
,
1010
0000
0110
0000
0001
0010
0100
1000
,
0001
0010
0100
1000
0020
0000
0000
0000
,
0000
0000
0000
0000
,
0000
0000
0000
0000
,
0000
0000
0000
0000
,
0000
0000
0000
0000
,
0000
0000
0000
0000
,
0000
0000
0130
0000
,
0000
0000
0100
0000
,
0000
0000
0100
0000
,
0000
0000
0100
0000
,
0002
0000
0000
0000
1003
0000
0001
0020
,
0100
0000
0031
0000
1000
0000
0001
0020
,
0100
0000
0031
0200
0010
0000
0301
0020
,
0100
0000
0031
0000
0001
0000
1000
0020
,
0100
0000
1030
0200
0010
0000
1300
0020
,
0100
0000
1030
0000
1000
0000
0001
2000
,
0010
0000
3001
2000
0010
0000
3100
0020
,
0001
0000
0130
0000
0100
0000
1000
0010
,
0100
0000
0100
0000
0010
0000
0000
0000
1001
0000
0000
0001
0000
0000
0100
0000
,
0000
0000
0000
0000
0010
0000
0000
0000
1001
0000
0000
1000
0000
0000
0100
0000
,
0000
0000
0000
0000
0010
0000
0000
0000
0011
0000
0000
0001
0000
0000
0100
0000
,
0000
0010
1000
0010
,
0100
0000
0001
0000
1000
0000
0100
0000
0010
0000
0000
0010
0000
0000
0010
0000
,
0000
0000
0000
0000
0100
0000
0000
0000
0010
0000
0000
0010
0000
0000
0010
0000
,
0000
0001
0000
1000
0010
0000
1001
0000
,
0100
0000
1001
0000
0010
0001
1000
0010
,
0100
0010
1000
0200
0300
0000
0000
0000
;

//---------------dance-single - Telperion----------------
#NOTES:
     dance-single:
     Telperion:
     Easy:
     4:
     0.262,0.365,0.069,0.217,0.000,179.000,8.000,25.000,0.000,0.000,0.000,0.000,0.262,0.365,0.069,0.217,0.000,179.000,8.000,25.000,0.000,0.000,0.000,0.000:
0000
0000
0000
0000
,
0000
0000
0000
0000
,
0000
0000
0000
0000
,
0000
0000
0000
0000
,
0000
0000
0000
0000
,
0000
0000
0000
0000
,
0000
0000
0000
0000
,
0000
0000
0000
0000
,
0000
0000
1000
1000
,
0001
0001
1000
0010
,
1000
1000
0001
0001
,
0010
0010
0001
1000
,
0100
0010
0001
0001
,
1000
1000
0010
0100
,
0010
0010
1000
1000
,
0001
0001
0010
0010
,
0010
0010
0100
1000
,
0000
1000
0001
1000
,
0000
1000
0010
1000
,
0000
1000
0001
1000
,
0000
0001
0100
0001
,
0000
0001
1000
0001
,
0000
0001
0010
0001
,
0000
0001
1000
0001
,
0100
0010
0100
0000
,
0000
0000
0000
0000
,
0000
0000
0020
0030
,
0000
0000
0020
0030
,
0020
0030
2000
3000
,
0002
0003
0020
0030
,
0200
0300
2000
3000
,
0020
0030
0200
0300
,
0002
0003
0020
0030
,
0002
0003
2000
3000
,
0002
0003
0020
0030
,
0200
0300
1000
0100
,
0010
0001
0200
0310
,
0002
1003
0020
0130
,
0002
1003
0020
0130
,
2000
3001
0200
0310
,
1000
0001
0011
0001
,
1010
1000
0101
0001
,
1100
1000
0001
0010
,
0100
0010
1000
0010
,
0100
0010
0002
0000
,
0000
0000
0000
0000
,
0000
0000
0000
0000
,
0000
0000
0000
0000
,
0000
0000
0000
0000
,
0000
0000
0000
0000
,
0000
0000
1003
0000
,
0000
0000
1000
0000
,
0000
0000
1000
0000
,
0000
0000
1000
0000
,
0001
0000
0010
0010
,
0100
0010
0001
0001
,
1000
0010
1000
1000
,
0010
0100
0010
0010
,
1000
0001
0010
0010
,
0100
1000
0001
0001
,
1000
0010
0100
0100
,
0001
0010
0100
0010
,
0100
0000
1001
0001
,
1000
0010
1001
1000
,
0001
0010
1001
0001
,
1000
0100
1001
0001
,
1000
0001
0010
0001
,
0100
1000
0100
0010
,
1000
0000
0010
1000
,
0100
0001
0100
1000
,
0010
0001
0000
0000
;

//---------------dance-single - Telperion----------------
#NOTES:
     dance-single:
     Telperion:
     Beginner:
     1:
     0.066,0.060,0.000,0.009,0.000,52.000,0.000,1.000,0.000,0.000,0.000,0.000,0.066,0.060,0.000,0.009,0.000,52.000,0.000,1.000,0.000,0.000,0.000,0.000: // measure 1
0000
0000
0000
0000
,  // measure 2
0000
0000
0000
0000
,  // measure 3
0000
0000
0000
0000
,  // measure 4
0000
0000
0000
0000
,  // measure 5
0000
0000
0000
0000
,  // measure 6
0000
0000
0000
0000
,  // measure 7
0000
0000
0000
0000
,  // measure 8
0000
0000
0000
0000
,  // measure 9
0000
0000
0001
0000
,  // measure 10
0000
0000
0001
0000
,  // measure 11
0000
0000
0001
0000
,  // measure 12
0000
0000
0001
0000
,  // measure 13
0000
0000
1000
0000
,  // measure 14
0000
0000
1000
0000
,  // measure 15
0000
0000
1000
0000
,  // measure 16
0000
0000
1000
0000
,  // measure 17
0000
0000
0010
0000
,  // measure 18
0000
0000
0100
0000
,  // measure 19
0000
0000
0010
0000
,  // measure 20
0000
0000
0100
0000
,  // measure 21
0000
0000
0001
0000
,  // measure 22
0000
0000
1000
0000
,  // measure 23
0000
0000
0001
0000
,  // measure 24
0000
0000
0010
0000
,  // measure 25
0000
0000
0100
0000
,  // measure 26
0000
0000
0000
0000
,  // measure 27
0000
0000
0100
0000
,  // measure 28
0000
0000
0100
0000
,  // measure 29
0000
0000
0010
0000
,  // measure 30
0000
0000
0010
0000
,  // measure 31
0000
0000
0100
0000
,  // measure 32
0000
0000
0100
0000
,  // measure 33
0000
0000
1000
0000
,  // measure 34
0000
0000
0001
0000
,  // measure 35
0000
0000
0100
0000
,  // measure 36
0000
0000
0001
0000
,  // measure 37
0000
0000
0010
0000
,  // measure 38
0000
0000
0100
0000
,  // measure 39
0000
0000
1000
0000
,  // measure 40
0000
0000
0100
0000
,  // measure 41
0000
0000
0010
0000
,  // measure 42
0000
0000
0010
0000
,  // measure 43
0000
0000
0010
0000
,  // measure 44
0000
0000
0010
0000
,  // measure 45
0000
0000
0020
0000
,  // measure 46
0000
0000
0000
0000
,  // measure 47
0000
0000
0000
0000
,  // measure 48
0000
0000
0000
0000
,  // measure 49
0000
0000
0000
0000
,  // measure 50
0000
0000
0000
0000
,  // measure 51
0000
0000
0030
0000
,  // measure 52
0000
0000
0000
0000
,  // measure 53
0000
0000
0000
0000
,  // measure 54
0000
0000
0000
0000
,  // measure 55
0000
0000
0001
0000
,  // measure 56
0000
0000
1000
0000
,  // measure 57
0000
0000
0010
0000
,  // measure 58
0000
0000
0100
0000
,  // measure 59
0000
0000
0001
0000
,  // measure 60
0000
0000
1000
0000
,  // measure 61
0000
0000
0100
0000
,  // measure 62
0000
0000
0010
0000
,  // measure 63
0000
0000
0100
0000
,  // measure 64
0000
0000
0100
0000
,  // measure 65
0000
0000
0100
0000
,  // measure 66
0000
0000
0100
0000
,  // measure 67
0000
0000
0010
0000
,  // measure 68
0000
0000
0001
0000
,  // measure 69
0000
0000
1000
0000
,  // measure 70
0000
0000
0010
0000
;

//---------------dance-single - Telperion----------------
#NOTES:
     dance-single:
     Telperion:
     Challenge:
     10:
     0.584,0.793,0.095,0.407,0.693,414.000,11.000,47.000,0.000,0.000,0.000,0.000,0.584,0.793,0.095,0.407,0.693,414.000,11.000,47.000,0.000,0.000,0.000,0.000:
0000
0000
0000
0000
,
0000
0000
0000
0000
,
0000
0000
0000
0000
,
0000
0000
0000
0000
,
0000
0000
0000
0000
,
0000
0000
0000
0000
,
0000
0000
0000
0000
,
0000
0000
0000
0000
,
0000
0000
0000
0000
0110
0000
0010
0100
,
0010
0000
1000
0100
0000
1000
0000
0002
0000
0003
0000
0000
0010
0000
0100
0000
,
1000
0000
0001
0100
0000
0001
0000
2000
0000
3000
0000
0000
0010
0000
0100
0000
,
0010
0000
0001
0010
0000
1000
0000
0200
0000
0300
0000
0000
0010
0000
0001
0000
,
0010
0100
0010
0001
0000
1000
0000
0010
0000
0100
0000
0000
0010
0000
1000
0000
,
0001
0000
0010
0001
0000
1000
0000
0020
0000
0030
0000
0000
0100
0000
0010
0000
,
1000
0100
0010
0001
0000
0010
0000
0100
0000
0001
0000
0000
0100
0000
0010
0000
,
0001
0000
1000
0001
0000
1000
0000
0020
0000
0030
0000
0100
0010
0000
0000
0010
,
1000
0000
0000
1000
0001
0010
0001
0010
0100
0000
0000
1000
0001
1000
0000
0001
,
0010
0001
0000
1000
0000
0001
0000
0200
0000
0300
0000
0001
0010
0001
0000
1000
,
0001
1000
0000
0001
0000
0100
0000
0020
0000
0030
0000
1000
0010
1000
0000
0001
,
1000
0001
0000
0100
0000
1000
0000
0200
0000
0300
0000
0010
0100
0010
0000
1000
,
0001
1000
0000
0001
0000
1000
0000
0001
0010
0000
0000
0000
0110
0000
0000
0000
,
0001
0010
0001
1000
0001
0100
0000
0020
0000
0030
0000
0000
0010
0000
0000
0000
,
1000
0010
1000
0001
1000
0100
0000
0020
0000
0030
0000
0000
0100
0000
0000
0000
,
0010
0001
1000
0100
0010
0100
0000
2000
0000
3000
0000
0010
0100
0000
0000
0010
,
1000
0000
0000
0001
1000
0001
1000
0002
0000
0003
0000
0000
0000
0000
0000
0000
,
0000
0000
0000
0000
,
0000
0000
0000
0000
0000
0000
0000
0000
0001
0000
0010
0000
0200
0300
0000
0000
,
0000
0000
0000
0000
0000
0000
0000
0000
0001
0000
0010
0000
0200
0300
0000
0000
,
2000
0000
0000
3000
0002
0000
0000
0003
0100
0000
0010
0000
1000
0001
0000
0000
,
0001
0020
0000
0000
0230
0000
0000
0000
0310
0000
0001
0000
1000
0001
0000
1000
,
0000
0020
0000
0000
0230
0000
0000
0000
0301
0000
1000
0000
0001
0010
0000
0000
,
0100
0020
0000
0000
0230
0000
0000
0000
1300
0000
0001
0000
0100
0010
0000
1000
,
0000
0020
0000
0000
0230
0000
0000
0000
0301
0000
2000
0000
0000
3010
0000
0000
,
0110
0000
0000
0000
0101
0000
0000
0000
1000
0000
0002
0000
0000
0013
0000
0001
,
0000
1000
0000
0000
1010
0000
0000
0000
0001
0000
2000
0000
0000
3010
0000
0000
,
0101
1001
1100
0011
,
0101
0000
0001
0000
1000
0001
1000
0001
0020
0000
0000
0000
1030
0000
0010
0000
,
0001
1000
0000
0001
0100
0000
0000
0000
0020
0000
0000
0000
0031
0000
0010
0000
,
1000
0001
0000
1000
0100
0000
0000
0000
1000
0000
0100
0000
0001
0000
0100
0000
,
1000
0010
0000
0010
0200
0000
0000
0000
0301
0000
0100
0000
1000
0000
0100
0000
,
0001
1000
0000
1000
0200
0000
0000
0000
1300
0000
0001
0100
0010
0100
0000
0001
,
1000
0000
0001
0100
0010
0100
0000
0100
0001
0000
1000
0100
0010
0100
0000
1000
,
0001
0000
1000
0100
0010
0001
0000
0001
0010
0000
0001
1000
0010
0000
1000
0010
,
0100
0000
0010
0100
1000
0000
0100
1000
0100
0010
0100
0001
0100
0010
0100
1000
,
0100
0010
1000
0001
1000
0100
0010
0100
0002
0000
0000
0000
0000
0000
0000
0000
,
0000
0000
0000
0000
,
0000
0000
0000
0000
,
0000
0000
0000
0000
,
0000
0000
0000
0000
,
0000
0000
0000
0000
,
0000
0000
0103
0000
,
0000
0000
0100
0000
,
0000
0000
0010
0000
,
0000
0000
0010
0000
,
0002
0000
0000
0000
0000
0000
0000
0000
1000
0000
0000
0000
0100
0003
0002
0000
,
1000
0000
0010
0000
0100
0000
0010
2003
,
0001
0000
0010
3200
1000
0000
0001
2300
,
0001
0000
0010
0000
0001
0000
0100
3002
,
0010
0000
1003
1000
0001
0010
0001
1000
,
0010
0000
0100
0010
0000
0100
0001
0000
1000
0000
0100
0000
0010
0000
0100
0000
,
1000
0000
0001
0010
0000
0001
1000
0000
0010
0000
0010
0000
0100
0000
0010
0000
,
1000
0000
0010
0100
0000
0001
1000
0001
0010
0000
0001
0000
1000
0000
0001
1000
,
0001
0000
0010
0000
0100
0000
1000
0000
0001
0100
0010
0002
0000
0000
0023
0000
,
0000
0000
0130
0000
0001
0000
0000
0000
1000
0100
0010
2000
0000
0000
3020
0000
,
0000
0000
0031
0000
0101
0000
0000
0000
1000
0010
1000
0100
0010
0001
0020
0000
,
0000
0000
0130
0000
0100
0000
0000
0000
1000
0001
0100
0010
0000
1000
0001
0010
,
0000
0100
0010
0001
0000
1000
0010
0100
0010
0000
1000
0000
0010
0000
0100
0000
,
0001
0000
0010
0000
0100
0010
0000
0001
1000
0000
0010
0000
0100
0000
0020
0000
,
0000
0000
1030
0000
0000
0000
1000
0000
0001
0010
0001
1000
0010
0000
0000
0000
,
0100
0000
0010
1000
0001
0000
0000
0000
0010
0100
0010
0002
0000
1003
0001
0200
,
0000
0310
0100
2000
0000
3100
0001
0010
0000
0000
0000
0000
0000
0000
0000
0000
;

//---------------dance-single - ONLY ONE ITG----------------
#NOTES:
     dance-single:
     ONLY ONE ITG:
     Edit:
     10:
     0.682,0.885,0.052,0.052,0.892,539.000,6.000,6.000,80.000,0.000,0.000,0.000,0.682,0.885,0.052,0.052,0.892,539.000,6.000,6.000,80.000,0.000,0.000,0.000:
0000
0000
0000
0000
,
0000
0000
0000
0000
0000
0M00
0000
M000
0000
0000
0000
0000
0000
0000
0000
0000
,
0000
0000
0000
0000
0000
0M00
0000
M000
0000
0000
0000
0000
0000
0000
0000
0000
,
0000
0000
0000
0000
0000
0M00
0000
M000
0000
0000
0000
0000
0000
0000
0000
0000
,
0000
0000
0000
0000
0000
0M00
0000
M000
0000
000M
0000
0000
0000
0000
0000
0000
,
0000
0000
0000
0000
0000
0M00
0000
M000
0000
000M
0000
0000
0000
0000
0000
0000
,
0000
0000
0000
0000
0000
0M00
0000
M000
0000
000M
0000
0000
0000
0000
0000
0000
,
0000
0000
0000
0000
0000
0M00
0000
M000
0000
000M
0000
0000
0000
0000
0000
0000
,
0000
0000
00M0
0000
0000
0M00
0000
M000
0001
0000
0010
0000
0001
0000
1000
0000
,
0001
0010
0001
1000
0010
0100
0010
1000
,
0010
0100
0010
1000
0001
0010
0100
0010
,
0001
0010
0100
1000
0010
1000
0001
1000
,
0010
1000
0001
0010
0010
0001
1000
0001
,
0010
0001
1000
0010
0100
0010
1000
0010
,
0100
0010
1000
0001
0010
0100
0010
0001
,
0010
0100
0010
0001
1000
0010
1000
0001
,
1000
0000
0010
0000
1000
0000
0001
0000
0010
0001
0010
0001
1000
0000
0010
1000
,
0010
1000
0010
1000
0001
0000
1000
0001
0100
0001
0100
0001
0100
0000
0001
1000
,
0100
1000
0100
1000
0100
0000
1000
0001
0010
0001
0010
0001
0010
0000
0100
1000
,
0001
0100
0001
0100
0001
0000
1000
0100
0010
0100
0010
0100
0010
0000
0100
1000
,
0001
0000
0100
0000
0010
0000
0100
0000
0001
1000
0001
1000
0100
1000
0100
1000
,
0001
1000
0001
1000
0100
0000
1000
0000
0001
0100
0001
0100
0010
0100
0010
0100
,
0001
0100
0001
0100
0010
0000
0010
0000
1000
0001
1000
0001
0100
0001
0100
0001
,
1000
0001
1000
0001
0100
0000
0001
0000
1000
0001
1000
0100
1000
0000
0001
0100
,
0001
1000
0001
0010
0100
0000
0010
0001
0000
M000
0000
0000
0000
0000
0000
0000
,
000M
00M0
0000
M000
0000
0M00
0000
M000
0000
00M0
0000
0000
0000
0000
0000
0000
,
000M
00M0
0000
M000
0000
0M00
0000
M000
0001
00M0
0100
0000
0020
0030
0000
0000
,
000M
00M0
0000
M000
0000
0M00
0000
M000
0001
00M0
0100
0000
0020
0030
0000
0000
,
2000
0000
0000
3000
0002
0000
0000
0000
0013
0000
0001
0010
0001
0000
1000
0001
,
1000
0000
0010
1000
0010
0000
0100
0010
0100
0000
0010
1000
0010
0000
1000
0001
,
1000
0000
0001
0010
0001
0000
0010
0100
1000
0000
0001
0100
0001
0000
1000
0001
,
1000
0000
0100
1000
0100
0000
0010
0100
0010
0000
0100
1000
0100
0000
1000
0001
,
1000
0000
0001
0100
0010
0000
0100
0001
0010
0000
0001
0010
0001
0000
0010
0100
,
0010
0000
0100
1000
0100
0000
1000
0010
0100
0000
0010
1000
0010
0000
0100
0010
,
0100
0000
0001
0100
0001
0000
0010
0001
0100
0000
0001
1000
0001
0000
1000
0100
,
1000
0000
0100
0010
0100
0000
1000
0001
0100
0000
0000
0000
0110
0000
0000
0000
,
1010
0000
0000
0000
0011
0000
0000
0000
1000
0001
1000
0001
0100
0001
0100
0001
,
1000
0001
1000
0001
1000
0100
1000
0100
1000
0001
1000
0001
0010
0001
0010
0001
,
1000
0000
0010
0000
0100
0000
0100
0000
0001
0100
0001
0100
0010
0100
0010
0100
,
0001
1000
0001
1000
0100
1000
0100
1000
0001
0100
0001
0100
0010
0100
0010
0100
,
0001
1000
0001
1000
0001
0010
0001
0010
0100
0000
1000
0100
1000
0001
1000
0001
,
0100
0000
0001
0100
0001
1000
0001
1000
0100
0000
0010
0100
1000
0001
1000
0001
,
0100
0000
0010
0100
0001
1000
0001
1000
0100
0000
0010
0100
1000
0000
0001
0100
,
0010
0000
0100
0001
0010
0000
0100
1000
0010
0100
0001
0010
0001
0100
0010
1000
,
0010
0100
0001
0010
0001
0100
0010
1000
0200
0000
0000
0000
0000
0000
0000
0000
,
0000
0000
0000
0000
,
0000
0000
0000
0000
,
0000
0000
0000
0000
,
0000
0000
0000
0000
,
0000
0000
0000
0000
,
0000
0000
0000
0000
0000
0000
0000
0000
032M
0000
M000
000M
0M00
0000
M000
0M00
,
0000
0000
0000
0000
0000
0000
0000
0000
000M
0000
M000
000M
0M00
0000
M000
0M00
,
0000
000M
0M00
M000
0000
000M
0M00
0000
000M
0000
M000
000M
0M00
0000
M000
0M00
,
0000
0000
0000
0000
0000
0000
0000
0000
000M
0000
M000
000M
0M00
0000
M000
0M00
,
0030
0000
0000
0000
00M0
0000
00M0
0000
00M0
00M0
00M0
00M0
00M0
00M0
00M0
00M0
00M1
0000
0000
0000
1000
0000
0000
0000
0100
0000
0000
0000
1000
0000
0000
0000
,
0001
0100
0010
0100
0001
0010
0100
0010
,
0001
1000
0010
1000
0100
0010
0001
0010
,
0100
1000
0010
0100
0001
1000
0100
1000
,
0001
0010
0100
1000
0010
0100
0010
1000
,
0001
0010
0001
1000
0100
0010
0100
1000
,
0001
0100
0001
1000
0100
0010
0001
0100
,
0010
0100
0001
0010
0100
1000
0010
0100
,
0010
0000
1000
0000
0100
0000
0010
0000
0001
0010
0001
0010
0100
0000
1000
0000
,
0001
0000
0000
0000
0101
0000
0000
0000
1000
0010
1000
0010
0100
0000
0001
0000
,
0010
0000
0000
0000
1100
0000
0000
0000
1000
0001
0010
0100
1000
0000
0100
0000
,
0010
0001
0011
0001
1000
0010
0100
0010
,
0100
0000
0001
0000
0010
0000
0100
0000
1000
0000
0001
0010
0001
0000
1000
0010
,
1000
0000
0001
0010
0100
0010
0100
1000
0001
0000
1000
0010
1000
0000
0001
0010
,
0001
0000
1000
0010
0100
0000
0010
1000
0001
0000
0010
0001
0010
0000
0100
1000
,
0100
0000
1000
0010
0100
0000
0001
0100
0010
1000
0010
1000
0010
0100
0010
0100
,
0001
0010
0100
1000
0001
0100
0010
0100
0001
0000
0000
0000
0000
0000
0000
0000
;
