#TITLE:Ring Ding Dong;
#SUBTITLE:;
#ARTIST:SHINee;
#TITLETRANSLIT:;
#SUBTITLETRANSLIT:;
#ARTISTTRANSLIT:;
#CREDIT:Team Stepmasters;
#BANNER:rdd-bn.png;
#BACKGROUND:rdd-bg.png;
#LYRICSPATH:;
#CDTITLE:;
#MUSIC:rdd.mp3;
#OFFSET:-0.079;
#SAMPLESTART:7.700;
#SAMPLELENGTH:7.000;
#SELECTABLE:YES;
#BPMS:0.000=125.000;
#STOPS:;
#BGCHANGES:-4.000=rdd.avi=1.000=0=0=1,
99999=-nosongbg-=1.000=0=0=0 // don't automatically add -songbackground-
;

//---------------dance-single - TaroNuke----------------
#NOTES:
     dance-single:
     TaroNuke:
     Challenge:
     9:
     0.696,0.683,0.743,0.498,0.393: // measure 1
0000
0000
0000
0000
,  // measure 2
0000
0000
0000
0000
,  // measure 3
0000
0000
0000
0000
,  // measure 4
0000
0000
0000
0000
,  // measure 5
1010
0000
0000
0011
0000
0000
0101
0000
0011
0000
0000
1010
0000
0000
1100
0000
,  // measure 6
0001
0000
1000
0100
0001
0000
0001
0100
1000
0010
0100
0001
0010
0100
1000
0000
,  // measure 7
0101
0000
0000
1100
0000
0000
1010
0000
1100
0000
0000
0101
0000
0000
0011
0000
,  // measure 8
1000
0000
0001
0100
1000
0000
1000
0100
0001
0010
0100
1000
0010
0100
0001
0000
,  // measure 9
1001
0000
0000
0110
0000
0000
1001
0000
1100
0000
0000
0101
0000
0000
1100
0000
,  // measure 10
0001
0000
1000
0010
0100
0000
0001
0100
0010
1000
0100
0010
0001
0100
0010
0000
,  // measure 11
0110
0000
0000
1001
0000
0000
0110
0000
0011
0000
0000
1010
0000
0000
0011
0000
,  // measure 12
1000
0000
0001
0010
0100
0000
1000
0100
0010
0001
0100
0010
1000
0100
0010
0000
,  // measure 13
0001
0000
0100
0000
0001
0000
0010
0000
0100
0000
1000
0010
1000
0000
0001
0000
,  // measure 14
1000
0000
0010
0000
1000
0000
0000
0000
0000
0000
0100
0010
0001
0000
1000
0000
,  // measure 15
0001
0000
0010
0000
0001
0000
0100
0000
0010
0000
1000
0100
1000
0000
0001
0000
,  // measure 16
1000
0000
0100
0000
1000
0000
0010
0000
0200
0000
0000
0000
0300
0000
0001
0100
,  // measure 17
0020
0030
0200
0300
0020
0030
0000
0000
1000
0001
1000
0001
1000
0000
0100
0000
,  // measure 18
0020
0030
0200
0300
0020
0030
0001
0000
1000
0000
0001
1000
0010
0000
0100
0000
,  // measure 19
0001
0100
1000
0100
0010
1000
0100
0010
,  // measure 20
0001
0200
0320
2030
3002
2003
3020
0130
,  // measure 21
0202
0303
0202
0000
0000
0000
0000
0000
,  // measure 22
0303
0000
1000
0010
1000
0000
0001
0000
0010
0000
0100
0000
1000
0010
0100
0000
,  // measure 23
2020
3030
2020
0000
0000
0000
0000
0000
,  // measure 24
3030
0000
0001
0010
0100
0000
1000
0010
1000
0000
0100
0010
0001
0000
0100
0000
,  // measure 25
0220
0330
0220
0000
0000
0000
0000
0000
,  // measure 26
0330
2000
3020
0230
0302
0203
2300
3200
,  // measure 27
0320
0000
2000
0000
0000
0000
3030
2000
,  // measure 28
0200
0002
0000
3303
,  // measure 29
1000
0000
0100
0000
1000
0000
0100
0000
0010
0001
0010
0001
0100
0001
0100
0001
,  // measure 30
1000
0010
1000
0010
0200
0000
0000
0300
,  // measure 31
0001
0000
0100
0000
0001
0000
0100
0000
0010
1000
0010
1000
0010
0100
0010
0100
,  // measure 32
0001
0010
0001
0010
0200
0000
0000
2300
,  // measure 33
3002
0000
0000
0000
2003
3000
0010
0000
0002
0000
0000
0000
2003
3000
0100
0000
,  // measure 34
0002
0000
0000
0000
2003
3000
0100
0000
0002
0000
0000
0000
2003
3000
0010
0000
,  // measure 35
0001
0000
0100
0000
0001
0000
0100
0000
0001
0100
0001
0100
0001
0100
0001
0100
,  // measure 36
0010
0000
1000
0000
0010
0000
1000
0000
0010
1000
0010
0000
1000
0010
1000
0000
,  // measure 37
0001
0010
1000
0010
0001
0010
0100
1000
,  // measure 38
0010
0100
1000
0100
0010
1000
0100
0010
,  // measure 39
0001
0100
1000
0100
0001
0100
0010
1000
,  // measure 40
0100
0010
1000
0010
0100
1000
0010
0100
,  // measure 41
0001
0000
0000
0000
0101
0000
0000
0000
1000
0000
0000
0010
0100
0000
0010
0000
,  // measure 42
1000
0000
0000
0000
1010
0000
0000
0000
0001
0000
0000
0010
0100
0000
0010
0000
,  // measure 43
0002
0000
0000
0000
0000
0000
0013
0100
2000
0000
0000
0000
3000
0000
0000
0000
,  // measure 44
1001
2000
3020
0230
0302
2003
3002
0023
,  // measure 45
0031
0100
1000
0100
0001
0100
1000
0100
,  // measure 46
0001
0000
0100
0000
1000
0000
0100
0000
0101
0000
0000
0110
0000
0000
1010
0000
,  // measure 47
1000
0100
0001
0100
1000
0100
0001
0100
,  // measure 48
1000
0000
0100
0000
0001
0000
0100
0000
1100
0000
0000
0110
0000
0000
0011
0000
,  // measure 49
0101
0000
0000
0110
0000
0000
1010
0000
0101
0000
0000
0110
0000
0000
1010
0000
,  // measure 50
0101
0000
0000
0110
0000
0000
1010
0000
0101
0000
0000
0110
0000
0000
1010
0000
,  // measure 51
1100
0000
0000
0110
0000
0000
0011
0000
1100
0000
0000
0110
0000
0000
0011
0000
,  // measure 52
1100
0000
0000
0110
0000
0000
0011
0000
1100
0000
0000
0110
0000
0000
0011
0000
,  // measure 53
1010
0000
0000
0011
0000
0000
0101
0000
0011
0000
0000
1010
0000
0000
1100
0000
,  // measure 54
0001
0000
1000
0100
0001
0000
0001
0100
1000
0010
0100
0001
0010
0100
1000
0000
,  // measure 55
0101
0000
0000
1100
0000
0000
1010
0000
1100
0000
0000
0101
0000
0000
0011
0000
,  // measure 56
1000
0000
0001
0100
1000
0000
1000
0100
0001
0010
0100
1000
0010
0100
0001
0000
,  // measure 57
1001
0000
0000
0110
0000
0000
1001
0000
1100
0000
0000
0101
0000
0000
1100
0000
,  // measure 58
0001
0000
1000
0010
0100
0000
0001
0100
0010
1000
0100
0010
0001
0100
0010
0000
,  // measure 59
0110
0000
0000
1001
0000
0000
0110
0000
0011
0000
0000
1010
0000
0000
0011
0000
,  // measure 60
1001
0000
0001
0010
0001
0000
1000
0100
0020
0000
0030
0020
0000
0030
0010
0000
;

//---------------dance-single - TaroNuke----------------
#NOTES:
     dance-single:
     TaroNuke:
     Hard:
     8:
     0.493,0.581,0.101,0.439,0.211:
0000
0000
0000
0000
,
0000
0000
0000
0000
,
0000
0000
0000
0000
,
0000
0000
0000
0000
,
1000
0000
0000
0100
0000
0000
1000
0000
0001
0000
0000
0100
0000
0000
0001
0000
,
0000
0000
1000
0010
1000
0000
0001
0010
0001
0000
0000
0001
0000
0000
0001
0000
,
0001
0000
0000
0100
0000
0000
0001
0000
1000
0000
0000
0100
0000
0000
1000
0000
,
0000
0000
0001
0010
0001
0000
1000
0010
1000
0000
0000
1000
0000
0000
1000
0000
,
0010
0000
0000
0010
0000
0000
0100
0000
0010
0000
0000
0010
0000
0000
0100
0000
,
0001
0000
1000
0100
0010
0000
0001
0010
0100
0000
0000
0100
0000
0000
0100
0000
,
1000
0000
0000
0010
0000
0000
0100
0000
0001
0000
0000
0100
0000
0000
0010
0000
,
1000
0000
0001
0100
0001
0000
1000
0010
0100
0000
0000
0100
0000
0000
0100
0000
,
0001
0100
2000
3000
0000
0100
0001
0010
,
1000
0010
0002
0003
0000
0100
0010
1000
,
0001
0010
2000
3000
0000
0010
0001
0100
,
1000
0100
0002
0020
0000
0033
0000
0000
,
1000
0100
0002
0003
0100
1000
0010
0100
,
0001
0100
2000
3000
0100
0001
0010
0100
,
1000
0010
1000
0010
0100
0001
0100
0010
,
0000
0020
2030
3002
2003
3020
0230
0320
,
1030
2020
0000
3030
,
0000
1000
0010
1000
0010
0100
0020
0230
,
0301
0202
0000
0303
,
0000
0001
0010
0100
1000
0100
0020
0230
,
1300
2200
0000
3300
,
0000
1000
0100
0010
0001
0010
0200
0320
,
0031
0000
0022
0000
0000
0033
0000
0002
,
0203
0002
0000
0303
,
1000
0100
1000
0100
0010
0001
0010
0001
,
1000
0010
1000
0010
0200
0000
0000
0300
,
0001
0100
0001
0100
0010
1000
0010
1000
,
0001
0010
0001
0010
0200
0000
0000
2300
,
3020
0030
1001
0010
0200
0300
1001
0100
,
0020
0030
1001
0010
0200
0300
1001
1000
,
0001
0100
0001
0100
0002
0000
0000
0000
,
1003
0010
1000
0010
2000
3000
0020
0030
,
1000
0100
1000
0000
0001
0100
0001
0000
,
1000
0100
0010
0001
0010
0100
1000
0010
,
0200
0320
2030
3020
,
0230
0000
0320
0000
2030
0000
3010
0010
,
0100
0000
0101
0000
0100
0010
0110
0000
,
1000
0000
1010
0000
0001
0100
0101
0000
,
0002
0000
0000
0003
2000
0000
3000
0000
,
0000
1000
1000
0100
0100
0010
0010
0001
,
1000
0100
0010
0001
1000
0100
0010
0001
,
1000
0000
0100
0000
0010
0000
0001
0000
1000
0000
0000
1000
0000
0000
0001
0000
,
1000
0010
0100
0001
1000
0010
0100
0001
,
1000
0000
0010
0000
0100
0000
0001
0000
0100
0000
0000
0100
0000
0000
0010
0000
,
1000
0000
0000
1000
0000
0000
0001
0000
1000
0000
0000
1000
0000
0000
0001
0000
,
1000
0000
0000
1000
0000
0000
0001
0000
1000
0000
0000
1000
0000
0000
0001
0000
,
0100
0000
0000
0100
0000
0000
0010
0000
0100
0000
0000
0100
0000
0000
0010
0000
,
0100
0000
0000
0100
0000
0000
0010
0000
0100
0000
0000
0100
0000
0000
0010
0000
,
1000
0000
0000
0100
0000
0000
1000
0000
0001
0000
0000
0100
0000
0000
0001
0000
,
0000
0000
1000
0010
1000
0000
0001
0010
0001
0000
0000
0001
0000
0000
0001
0000
,
0001
0000
0000
0100
0000
0000
0001
0000
1000
0000
0000
0100
0000
0000
1000
0000
,
0000
0000
0001
0010
0001
0000
1000
0010
1000
0000
0000
1000
0000
0000
1000
0000
,
0010
0000
0000
0010
0000
0000
0100
0000
0010
0000
0000
0010
0000
0000
0100
0000
,
0001
0000
1000
0100
0010
0000
0001
0010
0100
0000
0000
0100
0000
0000
0100
0000
,
1000
0000
0000
0010
0000
0000
0100
0000
0001
0000
0000
0100
0000
0000
0010
0000
,
1000
0000
0001
0100
0001
0000
1000
0010
0200
0300
0000
0200
0300
0000
0100
0000
;

//---------------dance-single - TaroNuke----------------
#NOTES:
     dance-single:
     TaroNuke:
     Beginner:
     1:
     0.118,0.202,0.017,0.110,0.000:
0000
0000
0000
0000
,
0000
0000
0000
0000
,
0000
0000
0000
0000
,
0000
0000
0000
0000
,
1000
0000
0000
0000
,
0010
0000
0000
0000
,
0001
0000
0000
0000
,
0100
0000
0000
0000
,
1000
0000
0000
0000
,
0010
0000
0000
0000
,
0001
0000
0000
0000
,
0100
0000
0000
0000
,
1000
0000
1000
0000
,
0010
0000
0010
0000
,
0001
0000
0001
0000
,
0100
0000
0100
0000
,
2000
3000
0000
0000
,
0002
0003
0000
0000
,
0100
0000
0100
0000
,
0100
0000
0000
0000
,
0010
0020
0030
0000
,
0000
0000
0000
0000
,
0010
0020
0030
0000
,
0000
0000
0000
0000
,
0100
0200
0300
0000
,
0000
0000
0000
0000
,
0100
0200
0300
0000
,
0010
0020
0030
0000
,
1000
0000
0100
0000
,
0010
0000
0002
0003
,
1000
0000
0010
0000
,
0100
0000
0002
0003
,
1000
0000
1000
0000
,
1000
0000
1000
0000
,
0001
0000
0002
0003
,
0010
0000
0020
0030
,
0100
0000
0000
0000
,
0100
0000
0000
0000
,
0100
0000
0000
0000
,
0100
0000
0000
0000
,
0010
0000
0000
0000
,
0010
0000
0000
0000
,
0020
0000
0030
0000
,
0000
0000
0000
0000
,
1000
1000
1000
1000
,
1000
0000
1001
0000
,
0001
0001
0001
0001
,
0001
0000
1001
0000
,
0100
0000
0100
0000
,
0100
0000
0100
0000
,
0010
0000
0010
0000
,
0010
0000
0010
0000
,
1000
0000
0000
0000
,
0010
0000
0000
0000
,
0001
0000
0000
0000
,
0100
0000
0000
0000
,
1000
0000
0000
0000
,
0010
0000
0000
0000
,
0001
0000
0000
0000
,
0100
0000
0000
0000
0200
0000
0000
0300
;

//---------------dance-single - TaroNuke----------------
#NOTES:
     dance-single:
     TaroNuke:
     Easy:
     3:
     0.188,0.303,0.084,0.160,0.004:
0000
0000
0000
0000
,
0000
0000
0000
0000
,
0000
0000
0000
0000
,
0000
0000
0000
0000
,
1000
0000
1000
0000
,
0010
0000
0010
0000
,
0001
0000
0001
0000
,
0100
0000
0100
0000
,
1000
0000
1000
0000
,
0100
0000
0100
0000
,
0001
0000
0001
0000
,
0010
0000
0010
0000
,
1000
0001
1000
0000
,
0010
0100
0010
0000
,
1000
0001
1000
0000
,
0010
0100
0010
0000
,
1000
1000
1000
0000
,
0001
0001
0001
0000
,
0100
0000
0010
0000
,
0100
0000
0010
0000
,
1000
2000
0000
3000
,
0001
0000
0001
0000
,
0001
0002
0000
0003
,
0010
0000
0010
0000
,
0010
0020
0000
0030
,
0100
0000
0100
0000
,
0100
0200
0000
0300
,
0010
0020
0000
0030
,
0001
0001
0010
0010
,
0100
0100
2000
3000
,
1000
1000
0100
0100
,
0010
0010
0002
0003
,
2000
3000
2000
3000
,
2000
3000
2000
3000
,
0100
0100
0100
0000
,
0010
0010
0010
0000
,
0001
0000
0000
0000
,
0100
0000
0000
0000
,
0010
0000
0000
0000
,
1000
0000
0000
0000
,
0010
0010
0010
0000
,
0010
0010
0010
0000
,
0100
0000
0100
0000
,
0001
0000
0000
0000
,
1001
1001
1001
1001
,
1001
0000
0000
0000
,
0110
0110
0110
0110
,
0110
0000
0000
0000
,
2000
3000
0002
0003
,
2000
3000
0002
0003
,
0200
0300
0020
0030
,
0200
0300
0020
0030
,
1000
0000
1000
0000
,
0010
0000
0010
0000
,
0001
0000
0001
0000
,
0100
0000
0100
0000
,
1000
0000
1000
0000
,
0100
0000
0100
0000
,
0001
0000
0001
0000
,
0010
0000
0000
0000
0000
0000
0000
0000
0010
0000
0000
0010
0000
0000
0010
0000
;

//---------------dance-single - Copied from TaroNuke----------------
#NOTES:
     dance-single:
     Copied from TaroNuke:
     Medium:
     5:
     0.305,0.379,0.169,0.169,0.004:
0000
0000
0000
0000
,
0000
0000
0000
0000
,
0000
0000
0000
0000
,
0000
0000
0000
0000
,
1000
1000
1000
0000
,
0100
0100
0100
0000
,
0001
0001
0001
0000
,
0100
0100
0100
0000
,
1000
1000
1000
0000
,
0010
0010
0010
0000
,
0001
0001
0001
0000
,
0010
0010
0010
0000
,
1000
1000
1000
0000
0000
0000
0000
0000
,
0010
0010
0010
0000
0000
0000
0000
0000
,
0100
0100
0100
0000
0000
0000
0000
0000
,
0001
0001
0001
0000
0000
0000
0000
0000
,
0010
0100
0010
0000
0001
0000
0000
0000
,
0100
0010
0100
0000
0001
0000
0000
0000
,
0100
0100
0010
0010
,
1000
0100
0010
0001
0010
0100
1000
0000
,
1100
2200
0000
3300
,
0001
0010
0001
0010
,
0011
0022
0000
0033
,
1000
0010
1000
0010
,
1010
2020
0000
3030
,
0100
0001
0100
0001
,
0101
0202
0000
0303
,
0110
0220
0000
0330
,
0001
0010
0100
0000
0010
0100
1000
0000
,
0100
1000
0001
0000
2002
0000
3003
0000
,
1000
0100
0010
0000
0100
0010
0001
0000
,
0010
0001
1000
0000
2002
0000
3003
0000
,
2000
3001
2000
3001
,
2000
3001
2000
3001
,
0100
0010
0100
0010
0100
0000
0000
0000
,
0001
1000
0001
1000
0010
0000
0010
0000
,
0200
0000
0000
0000
,
0310
0000
0000
0000
,
2000
0000
0000
0000
,
3001
0000
0000
0000
,
0010
0010
0010
1001
,
0100
0100
0100
1001
,
0010
0000
0100
0000
,
1001
0000
0000
0000
,
1000
0100
0010
0100
1000
0100
0010
0100
,
1000
0000
0000
0000
,
0001
0010
0100
0010
0001
0010
0100
0010
,
0001
0000
0000
0000
,
1000
0010
1000
0000
0001
0010
0001
0000
,
1000
0010
1000
0000
0001
0010
0001
0000
,
1000
0010
0100
0000
0001
0010
0100
0000
,
1000
0010
0100
0000
0001
0010
0100
0000
,
1000
0100
1000
0100
1000
0000
0000
0000
,
0100
0010
0100
0010
0100
0000
0000
0000
,
0010
0001
0010
0001
0010
0000
0000
0000
,
0100
0010
0100
0010
0100
0000
0000
0000
,
1000
0010
1000
0010
1000
0000
0000
0000
,
0100
0001
0100
0001
0100
0000
0000
0000
,
0010
0100
0010
0100
0010
0000
0000
0000
,
1010
0000
0000
0000
1010
0000
0000
0000
1010
0000
0000
1010
0000
0000
1010
0000
;
