#TITLE:Red Goose;
#SUBTITLE:;
#ARTIST:Mutsuhiko Izumi;
#TITLETRANSLIT:;
#SUBTITLETRANSLIT:;
#ARTISTTRANSLIT:;
#CREDIT:Unknown StepMaker;
#BANNER:Red Goose.png;
#BACKGROUND:Red Goose-bg.png;
#LYRICSPATH:;
#CDTITLE:;
#MUSIC:14. Red Goose.mp3;
#OFFSET:-0.900;
#SAMPLESTART:45.300;
#SAMPLELENGTH:12.000;
#SELECTABLE:YES;
#BPMS:0.000=200.000;
#STOPS:;
#BGCHANGES:;

//---------------dance-single - ----------------
#NOTES:
     dance-single:
     :
     Medium:
     6:
     0.350,0.505,0.048,0.224,0.000:
1000
0100
0001
0100
,
1000
0000
1000
0100
,
0001
0000
1000
0010
,
0001
0000
1000
0000
,
0101
0000
0000
0000
,
1000
0100
0010
0001
,
1000
0100
1000
0100
,
0010
0001
0010
0000
,
1000
0100
0010
0001
,
2000
0000
0000
0000
,
3200
0000
0000
0000
,
0302
0000
0000
0000
,
2003
0000
0000
0000
,
3020
0000
0000
0000
,
0230
0000
0000
0000
,
0302
0000
0000
0000
,
2003
0000
0000
0000
,
3100
0010
0100
0010
,
0000
0001
0010
0001
,
1000
0001
1000
0100
,
0000
1000
0100
0010
,
0100
0010
0100
1000
,
0100
1000
0000
0001
,
1000
0001
1000
0100
,
1000
0100
0000
0010
,
0100
0010
0100
1000
,
0100
1000
0100
0001
,
0100
0001
0000
1000
,
0100
0010
0001
0000
,
1000
0100
0000
0000
,
0001
0010
0100
0000
,
1000
0100
0010
0000
,
0001
0010
0100
0000
,
1000
0100
0010
0000
,
0001
0010
0100
0000
,
2000
0000
0000
0000
,
3002
0000
0000
1003
,
0200
0000
0000
0000
,
0302
0000
0000
0000
,
2003
0000
0000
0000
,
3200
0000
0000
0000
,
0302
0000
0000
0000
,
2003
0000
0000
0000
,
3200
0000
0000
0000
,
0302
0000
0000
0000
,
1003
0100
0010
0001
,
0010
0100
1000
0100
,
0010
0001
0010
0000
,
0100
1000
0100
0010
,
0001
0010
0100
1000
,
0100
0010
0001
0010
,
0100
0010
0100
1000
,
0100
1000
0010
0001
,
0010
0100
1000
0100
,
1000
0100
0101
0101
,
1000
0100
1100
1100
,
0100
0001
0010
0100
,
1000
1000
0100
1100
,
0000
0100
0001
0100
,
1000
0100
0010
0001
,
1000
0100
0010
0001
,
2000
0000
0000
0000
,
3200
0000
0000
0301
,
2000
0000
0000
0000
,
3200
0000
0000
0000
,
0302
0000
0000
0000
,
2003
0000
0000
3100
,
0002
0000
0000
0000
,
2003
0000
0000
0000
,
3200
0000
0000
0000
,
0320
0000
0000
0000
,
1030
0100
0001
0000
,
0001
0010
1000
0000
,
1000
0100
0001
0000
,
0001
0010
1000
0000
,
0100
0010
0100
0000
,
1000
0100
1000
0000
,
0001
1000
0001
0000
,
1000
0010
1000
0000
,
0100
0010
0100
1000
,
0100
0010
0001
0000
,
1000
0100
0010
0001
,
0010
0100
0000
0000
,
1000
0001
1000
0100
,
1000
0100
0010
0000
,
0001
0010
0100
1000
,
0100
0010
0001
0000
,
1000
0100
1000
0100
,
0001
0100
0001
0100
,
1000
0100
1000
0100
,
0010
0001
0010
0100
,
1000
0100
0001
0100
,
1000
0100
0010
0001
,
0010
0100
0001
0100
,
0010
1000
0100
1000
,
0100
1000
0100
1000
,
0100
0001
0100
1000
,
0100
0000
0000
0000
;

//---------------dance-single - ----------------
#NOTES:
     dance-single:
     :
     Beginner:
     1:
     0.129,0.190,0.000,0.000,0.000:
1000
0000
0001
0000
,
1000
0000
0100
0000
,
1000
0000
0100
0000
,
0010
0000
0000
0000
,
1000
0000
0000
0000
,
0100
0000
0000
0000
,
1000
0000
0001
0000
,
1000
0000
0000
0000
,
0100
0000
0000
0000
,
1000
0000
0000
0000
,
0000
0001
0000
0000
,
1000
0000
0000
0000
,
0100
0000
0000
0000
,
1000
0000
0000
0000
,
0100
0000
0000
0000
,
1000
0000
0000
0000
,
0010
0000
0000
0000
,
0100
0000
0000
0000
,
1000
0000
0000
0000
,
0001
0000
0000
0000
,
1000
0000
0000
0000
,
0001
0000
0000
0000
,
0000
1000
0000
0000
,
0100
0000
0000
1000
,
0000
0000
0100
0000
,
1000
0000
0100
0000
,
0000
0001
0000
0000
,
1000
0000
0100
0000
,
1000
0000
0000
0000
,
0001
0000
0100
0000
,
0001
0000
0100
0000
,
1000
0000
0000
0000
,
1000
0000
0100
0000
,
0001
0000
0000
0000
,
1000
0000
0000
0000
,
1000
0000
0000
0000
,
0001
0000
0000
0000
,
1000
0000
0000
0000
,
0100
0000
1000
0000
,
0100
0000
0000
0000
,
0001
0000
1000
0000
,
0001
0000
0000
1000
,
0000
0100
0000
0000
,
1000
0000
0001
0000
,
1000
0000
0100
0000
,
1000
0000
0000
0000
,
0001
0000
1000
0000
,
0100
0000
0000
0000
,
1000
0000
0000
0000
,
0001
0000
0000
0000
,
1000
0000
0000
0000
,
0100
0000
0000
0000
,
1000
0000
0000
0000
,
0001
0000
0000
0000
,
1000
0000
0000
0000
,
0100
0000
0000
0000
,
1000
0000
0000
0000
,
0001
0000
0000
0000
,
1000
0000
0000
0000
,
0100
0000
0000
0000
,
1000
0000
0000
0000
,
0100
0000
0000
0000
,
1000
0000
0000
0000
,
0001
0000
0000
0000
,
1000
0000
0000
0000
,
0100
0000
0000
0000
,
0010
0000
0000
0000
,
0100
0000
0000
0000
,
0001
0000
0000
0000
,
1000
0000
0000
0000
,
0000
0010
0000
0000
,
1000
0000
0000
0100
,
0000
0000
1000
0000
,
0001
0000
0000
0000
,
1000
0000
0000
0000
,
0000
0100
0000
0000
,
1000
0000
0000
0000
,
0100
0000
0000
0000
,
1000
0000
0000
0000
,
0001
0000
0000
0000
,
1000
0000
0000
0000
,
0100
0000
0000
0000
,
0010
0000
0000
0000
,
1000
0000
0000
0000
,
0001
0000
0000
0000
,
1000
0000
0000
0000
,
0100
0000
0000
0000
,
0010
0000
0000
0000
,
0100
0000
0000
0000
,
1000
0000
0000
0000
,
0001
0000
0000
0000
,
0010
0000
0000
0000
,
0100
0000
0000
0000
,
1000
0000
0000
0000
,
0100
0000
0000
0000
,
0010
0000
0000
0000
;

//---------------dance-single - ----------------
#NOTES:
     dance-single:
     :
     Hard:
     9:
     0.678,0.785,0.024,0.448,0.100: // measure 1
1000
0000
0000
0001
0010
0001
1000
0000
,  // measure 2
0001
0000
0000
0000
0000
0000
1000
0100
0010
0001
1000
0100
,  // measure 3
0010
0000
0000
0100
0001
0100
1000
0010
,  // measure 4
1000
0000
0000
0000
0000
0000
1000
0100
0010
0001
1000
0100
,  // measure 5
0010
0000
0000
0001
0010
0100
1000
0001
,  // measure 6
0010
0000
0000
1000
0100
0010
0001
1000
,  // measure 7
0100
0010
0100
0001
,  // measure 8
2000
0000
0000
0000
0000
0000
0000
0000
0000
0000
0000
0000
0000
0000
0000
0100
,  // measure 9
3020
0000
0000
0000
,  // measure 10
0230
1000
1000
1000
,  // measure 11
0302
1000
0010
1000
,  // measure 12
2003
0010
0100
0010
,  // measure 13
3200
1000
1000
1000
,  // measure 14
0320
0100
0100
0100
,  // measure 15
2030
0010
0010
0010
,  // measure 16
3002
1000
1000
1000
,  // measure 17
0023
0100
1000
0100
,  // measure 18
2030
0000
0000
0000
,  // measure 19
0000
0000
0000
0000
,  // measure 20
3001
0100
0001
0100
0001
0000
0100
1000
,  // measure 21
0100
0010
0100
0010
0000
0100
1000
0100
,  // measure 22
0010
0001
0010
0001
0000
0001
0010
0001
,  // measure 23
0100
0001
1000
0001
0000
1000
0100
1000
,  // measure 24
0100
1000
0100
0010
0100
0000
0001
0010
,  // measure 25
0100
1000
0100
0010
0001
0000
0001
0010
,  // measure 26
0100
1000
0100
0010
0001
0000
0001
0100
,  // measure 27
1000
0100
0001
0010
0001
0000
0010
0100
,  // measure 28
1000
0100
1000
0100
0000
1000
0100
0001
,  // measure 29
0100
1000
0100
0001
0100
0000
0100
0010
,  // measure 30
0100
0010
0001
1000
0000
0100
1000
0100
,  // measure 31
0010
0100
1000
0010
0000
1000
0100
1000
,  // measure 32
0100
0010
0100
1000
0000
0010
0100
0010
,  // measure 33
0100
0010
0100
0010
0000
1000
0100
0010
,  // measure 34
0001
0010
0100
1000
0000
0010
0001
0010
,  // measure 35
0100
0000
0010
0000
0001
0000
0010
0000
0001
0000
0010
0000
0100
0010
0100
0000
,  // measure 36
2000
0000
0000
0000
,  // measure 37
3002
0000
0000
0000
0000
0000
0023
0230
,  // measure 38
2300
0000
0000
0000
,  // measure 39
3200
0000
0000
0320
0032
0023
0230
0320
,  // measure 40
0230
0000
0000
0000
,  // measure 41
0302
0000
0000
0000
0000
0000
2003
3020
,  // measure 42
0230
0000
0000
0000
,  // measure 43
2300
0000
0000
0000
,  // measure 44
3200
0000
0000
0000
,  // measure 45
0320
0000
0000
0000
,  // measure 46
1030
0100
1000
0000
0100
0000
1000
0000
0100
0000
0001
0000
0100
0000
1000
0000
,  // measure 47
0001
0010
0001
0000
1000
0000
0100
0000
0010
0000
0100
0000
1000
0000
0010
0000
,  // measure 48
0100
0010
0100
0000
1000
0000
0100
0000
1000
0000
0100
0000
1000
0000
0100
0000
,  // measure 49
0010
0001
0010
0001
0100
1000
0100
0010
,  // measure 50
1000
0100
1000
0000
0100
0010
0100
0000
1000
0000
0010
0000
0100
0000
0010
0000
,  // measure 51
1000
0100
1000
0000
0001
0000
0010
0000
0001
0000
0010
0000
0100
0000
1000
0000
,  // measure 52
0001
0010
0100
1000
0001
0010
0100
1000
,  // measure 53
2200
0000
0000
3300
,  // measure 54
0010
0001
0010
0000
0100
0000
0010
0000
0100
0000
0010
0000
0100
0000
1000
0000
,  // measure 55
0100
0001
0100
0000
0001
0000
0100
0000
1000
0000
0100
0000
0001
0000
0000
0000
,  // measure 56
1000
0100
1000
0000
0001
0000
0010
0000
0100
0000
0010
0000
0001
0000
1000
0000
,  // measure 57
0001
1000
0001
0000
1000
0000
0100
0000
0010
0000
0001
0000
1000
0000
0100
0000
,  // measure 58
0010
0000
0001
0010
0001
0000
0010
0000
0100
0000
0010
0000
0001
0000
0010
0100
,  // measure 59
0010
0000
1000
0000
0100
0000
1000
0000
0010
0000
1000
0000
0100
0010
0100
0000
,  // measure 60
0001
0010
0001
0000
1000
0000
0001
0000
1000
0000
0001
0000
1000
0000
0001
0000
,  // measure 61
1000
0100
1000
0010
1000
0100
1000
0000
,  // measure 62
0002
0000
0000
0000
,  // measure 63
2003
0000
0000
0000
0000
0000
3200
0320
,  // measure 64
0032
0000
0000
0000
0000
0000
0203
0320
,  // measure 65
2030
0000
0000
0000
3200
0320
0032
0023
,  // measure 66
0230
0000
0000
0000
,  // measure 67
2300
0000
0000
0000
0000
0000
3200
0320
,  // measure 68
0032
0000
0000
0000
,  // measure 69
2003
0000
0000
0000
,  // measure 70
3200
0000
0000
0000
,  // measure 71
0320
0000
0000
0000
,  // measure 72
0130
0000
1000
0000
0010
0000
1000
0000
0001
0000
0100
0000
1000
0001
1000
0000
,  // measure 73
0100
0010
0100
0010
0000
1000
0100
0010
,  // measure 74
0001
0010
0100
1000
0100
0000
1000
0100
,  // measure 75
0010
0100
1000
0100
0010
0000
0001
0010
,  // measure 76
0001
0100
0010
0100
0001
0000
0100
0010
,  // measure 77
0100
1000
0100
0010
0100
0000
1000
0100
,  // measure 78
0001
0100
1000
0100
0001
0000
1000
0100
,  // measure 79
0001
0100
1000
0100
0001
0000
1000
0010
,  // measure 80
0001
0010
1000
0010
0001
0000
1000
0100
,  // measure 81
0001
0100
1000
0100
0001
0000
0001
0010
,  // measure 82
0100
1000
0100
1000
0100
0000
0100
0010
,  // measure 83
0001
0010
0001
0010
0100
0000
1000
0100
,  // measure 84
0010
0100
1000
0100
0001
0000
0001
0010
,  // measure 85
1000
0010
0001
0010
1000
0000
1000
0100
,  // measure 86
0001
0100
1000
0100
0001
0000
1000
0100
,  // measure 87
0010
0100
1000
0001
1000
0000
0100
0010
,  // measure 88
0100
1000
0100
0001
0100
0000
0001
0010
,  // measure 89
0100
0010
0001
0010
0100
0000
1000
0100
,  // measure 90
0010
0100
1000
0001
1000
0000
0100
0010
,  // measure 91
0100
1000
0100
0001
0010
0100
1000
0100
,  // measure 92
1000
0100
1000
0100
0000
0100
0010
0100
,  // measure 93
0010
0100
0010
0001
0010
1000
0100
1000
,  // measure 94
0100
1000
0100
0010
0001
0000
0001
0010
,  // measure 95
0100
1000
0100
0010
0000
0000
0202
0000
,  // measure 96
0000
0000
0000
0000
,  // measure 97
0000
0000
0000
0000
,  // measure 98
0303
0000
2020
0000
,  // measure 99
3030
0000
0000
0000
:
a=2x.
Boost.
Drunk.
note=20.000000,
;

//---------------dance-single - ----------------
#NOTES:
     dance-single:
     :
     Easy:
     5:
     0.302,0.352,0.016,0.016,0.000:
1000
0100
0001
0100
,
1000
0000
1000
0100
,
0001
0000
1000
0010
,
0001
0000
1000
0100
,
0001
0000
1000
0010
,
0001
0000
1000
0100
,
0001
0000
1000
0001
,
1000
0000
0000
0000
,
1000
0000
0000
0000
,
0100
1000
0100
0000
,
0001
1000
0001
0000
,
0100
0010
0100
0000
,
1000
0100
1000
0000
,
0001
0010
0001
0000
,
1000
0100
1000
0000
,
0001
1000
0001
0000
,
1000
0100
0010
0001
,
0010
0000
0000
0000
,
1000
0100
0010
0001
,
0010
0100
1000
0000
,
1000
0100
1000
0000
,
0001
1000
0000
0000
,
1000
0100
0000
0000
,
0001
0010
0000
0000
,
1000
0100
0000
0000
,
1000
0001
0000
0000
,
0010
0100
0000
0000
,
1000
0100
0000
0000
,
0001
1000
0000
0000
,
0100
0010
0000
0000
,
1000
0100
0000
0000
,
0001
1000
0000
0000
,
0010
0100
0000
0000
,
1000
0001
0000
0000
,
0010
0100
0000
0000
,
1000
0100
0010
0001
,
1000
0000
0000
0000
,
0100
0000
0010
0100
,
0000
0000
0000
0000
,
1000
0100
0010
0000
,
0001
0010
0100
0000
,
1000
0000
0000
0000
,
0001
0010
0100
0000
,
1000
0001
1000
0001
,
1000
0000
0000
0000
,
1000
0100
0010
0001
,
1000
0100
1000
0100
,
0001
0100
0001
0100
,
0010
0100
0010
0100
,
1000
0100
1000
0100
,
0001
0100
0001
0100
,
1000
0100
1000
0100
,
0010
0100
0010
0100
,
0001
0000
0000
0000
,
1000
0100
1000
0100
,
0001
0100
0001
0100
,
1000
0100
1000
0100
,
0010
0100
0010
0000
,
1000
0100
1000
0100
,
0001
0100
0001
0100
,
0010
0100
0010
0100
,
1000
0000
0000
0000
,
0100
0000
0000
0001
,
0100
0000
0000
0000
,
1000
0000
0000
0000
,
0100
0000
0000
0000
,
0001
0000
0000
0000
,
1000
0000
0000
0000
,
0001
0000
0000
0000
,
0010
0000
0000
0000
,
0100
0000
0000
0000
,
1000
0100
1000
0000
,
0001
1000
0001
0000
,
1000
0100
1000
0000
,
0010
0100
0010
0000
,
1000
0100
0000
0000
,
1000
0100
0000
0000
,
1000
0001
0000
0000
,
1000
0100
1000
0000
,
0100
0010
0100
1000
,
0100
0010
0100
0001
,
0100
0001
0000
0010
,
0001
0010
0100
1000
,
0100
0010
0001
1000
,
0100
1000
0100
0010
,
0001
0010
0100
0010
,
0100
0010
0001
0010
,
0001
0010
0000
0000
,
1000
0100
0000
0000
,
0001
1000
0001
0000
,
1000
0100
1000
0000
,
0100
0010
0100
0000
,
1000
0001
1000
0000
,
0100
0010
0100
0000
,
1000
0001
1000
0001
,
1000
0000
0000
0000
,
2002
0000
0000
0000
,
3003
0000
0000
1001
;
