#TITLE:Keong Racun;
#SUBTITLE:;
#ARTIST:Lissa;
#TITLETRANSLIT:;
#SUBTITLETRANSLIT:;
#ARTISTTRANSLIT:;
#CREDIT:348;
#BANNER:Keong Racun Banner.png;
#BACKGROUND:Keong Racun Background.png;
#LYRICSPATH:Keong Racun.lrc;
#CDTITLE:;
#MUSIC:Keong Racun.ogg;
#OFFSET:-0.627;
#SAMPLESTART:29.010;
#SAMPLELENGTH:15.000;
#SELECTABLE:YES;
#BPMS:0.000=167.000;
#STOPS:;
#BGCHANGES:;

//---------------dance-single - ----------------
#NOTES:
     dance-single:
     :
     Beginner:
     1:
     0.093,0.134,0.000,0.000,0.000: // measure 1
0000
0000
0000
0000
,  // measure 2
0000
0000
0000
0000
,  // measure 3
0000
0000
0000
0000
,  // measure 4
0000
0000
0000
0000
,  // measure 5
0000
0000
0000
0000
,  // measure 6
0000
0000
0000
0000
,  // measure 7
0000
0000
0000
0000
,  // measure 8
1000
0000
0000
0000
,  // measure 9
1000
0000
0000
0000
,  // measure 10
0001
0000
0000
0000
,  // measure 11
0001
0000
0000
0000
,  // measure 12
1000
0000
0000
0000
,  // measure 13
0100
0000
0100
0000
,  // measure 14
0010
0000
0000
0000
,  // measure 15
0001
0000
0001
0000
,  // measure 16
1000
0000
0000
0000
,  // measure 17
0001
0000
0001
0000
,  // measure 18
0100
0000
0000
0000
,  // measure 19
0010
0000
0000
0000
,  // measure 20
0000
0000
0000
0000
,  // measure 21
1000
0000
0000
0000
,  // measure 22
0100
0000
0000
0000
,  // measure 23
1000
0000
0000
0000
,  // measure 24
0100
0000
0000
0000
,  // measure 25
0010
0000
0000
0000
,  // measure 26
0001
0000
0000
0000
,  // measure 27
0010
0000
0000
0000
,  // measure 28
0001
0000
0000
0000
,  // measure 29
1000
0000
0000
0000
,  // measure 30
0100
0000
0000
0000
,  // measure 31
0010
0000
0000
0000
,  // measure 32
0001
0000
0000
0000
,  // measure 33
1000
0000
0000
0000
,  // measure 34
1000
0000
1000
0000
,  // measure 35
0001
0000
0000
0000
,  // measure 36
0001
0000
0001
0000
,  // measure 37
0100
0000
0000
0000
,  // measure 38
0100
0000
0100
0000
,  // measure 39
0010
0000
0000
0000
,  // measure 40
0010
0000
0010
0000
,  // measure 41
1000
0000
0000
0000
,  // measure 42
0001
0000
0000
0000
,  // measure 43
0010
0000
0000
0000
,  // measure 44
0100
0000
0000
0000
,  // measure 45
0010
0000
0000
0000
,  // measure 46
0001
0000
0000
0000
,  // measure 47
1000
0000
0000
0000
,  // measure 48
0100
0000
0000
0000
,  // measure 49
1000
0000
0000
0000
,  // measure 50
0001
0000
0000
0000
,  // measure 51
0010
0000
0000
0000
,  // measure 52
0001
0000
0000
0000
,  // measure 53
1000
0000
0000
0000
,  // measure 54
0010
0000
0000
0000
,  // measure 55
0100
0000
0000
0000
,  // measure 56
0010
0000
0000
0000
,  // measure 57
1000
0000
0000
0000
,  // measure 58
0010
0000
0000
0000
,  // measure 59
0010
0000
0000
0000
,  // measure 60
0100
0000
0000
0000
,  // measure 61
0100
0000
0000
0000
,  // measure 62
0010
0000
0000
0000
,  // measure 63
1000
0000
0000
0000
,  // measure 64
0001
0000
0000
0000
,  // measure 65
0100
0000
0000
0000
,  // measure 66
0000
0000
0000
0000
,  // measure 67
0001
0000
0000
0000
,  // measure 68
0000
0000
0000
0000
,  // measure 69
1000
0000
0000
0000
,  // measure 70
1000
0000
0000
0000
,  // measure 71
0100
0000
0000
0000
,  // measure 72
0100
0000
0000
0000
,  // measure 73
0010
0000
0000
0000
,  // measure 74
0010
0000
0000
0000
,  // measure 75
0001
0000
0000
0000
,  // measure 76
0001
0000
0000
0000
,  // measure 77
1000
0000
0000
0000
;

//---------------dance-single - ----------------
#NOTES:
     dance-single:
     :
     Easy:
     3:
     0.209,0.309,0.123,0.132,0.000: // measure 1
0000
0000
0000
0000
,  // measure 2
0000
0000
0000
0000
,  // measure 3
0000
0000
0000
0000
,  // measure 4
0000
0000
0000
0000
,  // measure 5
0000
0000
0000
0000
,  // measure 6
0000
0000
0000
0000
,  // measure 7
0000
0000
0000
0000
,  // measure 8
1000
0000
0001
0000
,  // measure 9
1000
0000
0001
0000
,  // measure 10
0100
0000
0010
0000
,  // measure 11
0100
0000
0010
0000
,  // measure 12
1000
0000
0100
0000
,  // measure 13
0010
0001
0010
0000
,  // measure 14
0001
0000
0010
0000
,  // measure 15
0100
1000
0100
0000
,  // measure 16
1000
0000
0001
0000
,  // measure 17
0100
0010
0100
0000
,  // measure 18
0010
0000
0100
0000
,  // measure 19
0002
0000
0000
0003
,  // measure 20
2000
0000
0000
3000
,  // measure 21
0001
0000
0001
0000
,  // measure 22
0011
0000
0000
0000
,  // measure 23
1000
0000
1000
0000
,  // measure 24
1100
0000
0000
0000
,  // measure 25
0010
0000
0010
0000
,  // measure 26
1010
0000
0000
0000
,  // measure 27
0100
0000
0100
0000
,  // measure 28
0101
0000
0000
0000
,  // measure 29
2000
0000
0000
3000
,  // measure 30
0200
0000
0000
0300
,  // measure 31
0020
0000
0000
0030
,  // measure 32
0001
0000
1001
0000
,  // measure 33
1000
0000
0001
0100
,  // measure 34
0001
0000
1000
0010
,  // measure 35
1000
0000
0010
0100
,  // measure 36
0010
0000
0110
0000
,  // measure 37
0100
0000
0010
1000
,  // measure 38
0010
0000
0100
0001
,  // measure 39
0100
0000
0001
1000
,  // measure 40
0001
0000
1001
0000
,  // measure 41
0002
0000
0000
0003
,  // measure 42
1000
0000
0100
0000
,  // measure 43
0010
0000
0001
0000
,  // measure 44
1000
0000
0001
0100
,  // measure 45
0001
0000
1000
0000
,  // measure 46
0001
0000
0100
0000
,  // measure 47
0010
0000
1000
0000
,  // measure 48
0001
0000
1000
0010
,  // measure 49
1000
0000
0001
0000
,  // measure 50
1000
0000
0100
0000
,  // measure 51
0100
0000
1000
0000
,  // measure 52
0001
0000
0010
0010
,  // measure 53
0010
0000
0011
0000
,  // measure 54
0001
0000
0100
0000
,  // measure 55
0100
0000
0001
0000
,  // measure 56
1000
0000
0010
0010
,  // measure 57
0010
0000
1010
0000
,  // measure 58
0002
0000
2003
0000
,  // measure 59
3001
0000
0000
0000
,  // measure 60
0200
0000
0320
0000
,  // measure 61
0130
0000
0000
0000
,  // measure 62
2000
0000
3002
0000
,  // measure 63
1003
0000
0000
0000
,  // measure 64
0020
0000
0230
0000
,  // measure 65
0310
0000
0000
0000
,  // measure 66
0110
0000
0000
0000
,  // measure 67
1001
0000
0110
0000
,  // measure 68
0110
0000
1001
0000
,  // measure 69
1000
0000
0000
1000
,  // measure 70
0100
0000
0000
0100
,  // measure 71
0010
0000
0000
0010
,  // measure 72
0001
0000
0000
0001
,  // measure 73
1000
0000
0100
0000
,  // measure 74
0010
0000
0001
0000
,  // measure 75
1000
0000
0010
0000
,  // measure 76
0100
0000
0001
0000
,  // measure 77
0200
0000
0000
0000
,  // measure 78
0000
0000
0000
0000
,  // measure 79
0300
0000
0000
0000
;

//---------------dance-single - ----------------
#NOTES:
     dance-single:
     :
     Medium:
     6:
     0.412,0.549,0.194,0.273,0.000: // measure 1
0000
0000
0000
0000
,  // measure 2
0000
0000
0000
0000
,  // measure 3
0000
0000
0000
0000
,  // measure 4
0000
0000
0000
0000
,  // measure 5
0000
0000
0000
0000
,  // measure 6
0000
0000
0000
0000
,  // measure 7
0000
0000
0000
0000
,  // measure 8
1000
0100
1000
0100
,  // measure 9
1000
0010
0100
0001
,  // measure 10
0010
0001
0010
0001
,  // measure 11
0010
0001
1000
0100
,  // measure 12
1000
0000
0000
0100
0000
0000
1000
0000
,  // measure 13
0001
0000
0010
0000
0001
0010
0001
0000
,  // measure 14
0001
0000
0000
0010
0000
0000
0001
0000
,  // measure 15
1000
0000
0100
0000
1000
0100
1000
0000
,  // measure 16
0010
0000
0000
0100
0000
0000
0010
0000
,  // measure 17
1000
0000
0001
0000
1000
0001
1000
0000
,  // measure 18
0001
1000
0010
0110
,  // measure 19
1001
0000
0000
2000
0000
3002
0000
0000
,  // measure 20
0103
0010
1100
0011
,  // measure 21
1000
0000
0010
0100
0010
0000
1000
0000
,  // measure 22
0002
0000
0010
0013
,  // measure 23
0001
0000
0100
0010
0100
0000
0001
0000
,  // measure 24
2000
0000
0100
3100
,  // measure 25
0020
0000
0000
0031
0010
0000
0001
0000
,  // measure 26
2000
0000
3100
0000
0010
0001
0010
0000
,  // measure 27
0200
0000
0000
1300
0100
0000
1000
0000
,  // measure 28
0002
0000
0013
0000
0100
1000
0100
0000
,  // measure 29
1000
0000
0000
1000
0100
0000
0100
0000
,  // measure 30
0100
0000
0000
0100
0010
0000
0010
0000
,  // measure 31
0010
0000
0000
0010
0001
0000
0001
0000
,  // measure 32
1000
0001
1010
0101
,  // measure 33
1000
0000
0001
0000
1000
0100
1000
0000
,  // measure 34
0001
0000
0100
0000
0001
0010
0001
0000
,  // measure 35
1000
0000
0010
0000
0100
0010
0100
0000
,  // measure 36
0002
0000
2000
3003
,  // measure 37
0010
0000
0100
0000
0001
0100
0001
0000
,  // measure 38
1000
0000
0100
0000
1000
0010
1000
0000
,  // measure 39
0001
0000
0010
0000
0001
1000
0001
0000
,  // measure 40
0200
0000
0020
0330
,  // measure 41
2002
0000
0000
3003
,  // measure 42
1000
0100
0010
0100
,  // measure 43
1000
0000
0001
0000
0100
0010
0100
0000
,  // measure 44
0001
0000
1000
0001
1000
0000
0001
0000
,  // measure 45
0200
0000
0001
0301
,  // measure 46
0001
0100
0010
0100
,  // measure 47
0001
0000
1000
0000
0001
1000
0001
0000
,  // measure 48
0100
0000
0010
0100
0010
0000
0100
0000
,  // measure 49
0020
0000
1000
1030
,  // measure 50
1000
0000
0100
0000
0100
1000
0100
0000
,  // measure 51
0010
0001
0010
0001
,  // measure 52
0100
0001
1000
0010
,  // measure 53
1001
0000
0000
0000
1000
0010
1000
0000
,  // measure 54
0001
0000
0010
0000
0010
0001
0010
0000
,  // measure 55
0100
1000
0100
1000
,  // measure 56
0001
0100
0010
1000
,  // measure 57
0110
0000
0000
0000
0100
0000
0001
0010
,  // measure 58
0002
0013
0200
1300
,  // measure 59
2002
0000
3003
0000
0110
0000
1000
0100
,  // measure 60
2000
3100
0020
0031
,  // measure 61
0220
0000
0330
0000
1001
0000
0001
0100
,  // measure 62
0002
0103
0020
1030
,  // measure 63
0220
0000
0330
0000
0000
0010
1000
0010
,  // measure 64
2000
3010
0200
0301
,  // measure 65
1001
0000
0110
0000
,  // measure 66
0110
0000
1001
0000
,  // measure 67
1000
1100
1000
1010
,  // measure 68
0001
0101
0001
0011
,  // measure 69
1000
0000
0000
0100
1000
0000
0000
0000
,  // measure 70
0001
0000
0000
0010
0001
0000
0000
0000
,  // measure 71
0100
0000
0000
0001
0100
0000
0000
0000
,  // measure 72
0010
0000
0000
1000
0010
0000
0000
0000
,  // measure 73
1000
0100
0010
0001
,  // measure 74
1000
0010
0100
0001
,  // measure 75
1000
0000
0010
0000
1000
0100
1000
0000
,  // measure 76
0001
0000
0100
0000
0001
0010
0001
0000
,  // measure 77
2000
0000
0000
0000
,  // measure 78
0000
0000
0000
0000
,  // measure 79
3000
0000
0000
0000
;

//---------------dance-single - ----------------
#NOTES:
     dance-single:
     :
     Hard:
     7:
     0.528,0.584,0.370,0.238,0.013: // measure 1
0000
0000
0000
0000
,  // measure 2
0000
0000
0000
0000
,  // measure 3
0000
0000
0000
0000
,  // measure 4
0000
0000
0000
0000
,  // measure 5
0000
0000
0000
0000
,  // measure 6
0000
0000
0000
0000
,  // measure 7
0000
0000
0000
0000
,  // measure 8
1000
0000
0000
1000
0100
0000
1100
0000
,  // measure 9
0001
0000
0000
0001
0010
0000
0011
0000
,  // measure 10
0100
0000
0000
0001
0100
0000
0101
0000
,  // measure 11
0010
0000
0000
1000
0010
0000
1010
0000
,  // measure 12
0001
0000
1000
0100
0010
0000
0001
1000
,  // measure 13
0000
0100
0000
0001
0100
1000
0001
0000
,  // measure 14
1000
0000
0001
0100
0010
0000
1000
0001
,  // measure 15
0000
0010
0000
1000
0010
0000
0001
0000
,  // measure 16
1000
0000
0100
0010
0001
0000
1000
0001
,  // measure 17
0000
0100
0000
0001
1000
0010
0100
0000
,  // measure 18
0001
0000
1000
0001
1000
0000
1001
0000
,  // measure 19
1000
0100
0010
0001
1000
0002
0000
0000
,  // measure 20
1003
0000
0001
0000
1000
0010
0100
0001
,  // measure 21
1000
0000
0010
0100
0010
0000
1000
0000
,  // measure 22
0001
0000
0011
0000
0001
0010
0001
0010
,  // measure 23
0001
0000
0100
0010
0100
0000
0001
0000
,  // measure 24
1000
0000
0110
0000
0001
0000
0010
0100
,  // measure 25
0010
0000
0001
1000
0001
0000
0010
0000
,  // measure 26
0001
0000
1100
0000
0100
1000
0100
1000
,  // measure 27
0100
0000
1000
0001
1000
0000
0100
0000
,  // measure 28
1000
1010
0101
0001
,  // measure 29
1000
0000
0000
0100
0000
0000
1000
0000
0002
0000
0000
0000
1003
0000
0000
0000
,  // measure 30
0001
0000
0000
0010
0000
0000
0001
0000
2000
0000
0000
0000
3001
0000
0000
0000
,  // measure 31
0100
0000
0000
0010
0000
0000
0200
0000
0000
0000
0320
0000
0000
0000
0000
0000
,  // measure 32
1030
0000
0001
0000
0100
0001
1000
0010
,  // measure 33
2000
0000
0000
3001
0100
0010
0100
0001
,  // measure 34
2000
0000
0000
3001
0100
0010
1000
0001
,  // measure 35
1000
0100
0010
0001
0100
0010
1000
0001
,  // measure 36
1000
0001
1010
0101
,  // measure 37
0002
0000
0000
1003
0100
0010
0100
1000
,  // measure 38
0002
0000
0000
1003
0100
0010
0001
1000
,  // measure 39
0001
0100
0010
1000
0100
0010
0001
1000
,  // measure 40
0010
0100
0011
1100
,  // measure 41
0220
0330
2002
3003
,  // measure 42
1000
0101
0001
1010
,  // measure 43
0001
0000
1000
0100
1000
0000
0001
0000
,  // measure 44
0100
0000
1001
0000
0010
0000
1000
0100
,  // measure 45
0010
0000
0001
0100
0010
1000
0001
0000
,  // measure 46
0100
1010
0010
0101
,  // measure 47
1000
0000
1001
0000
0001
0000
1000
0100
,  // measure 48
0001
0000
0001
0100
1000
0000
0001
1000
,  // measure 49
0001
0000
1000
0010
0100
0010
1000
0000
,  // measure 50
0001
1100
1000
0011
,  // measure 51
1000
0000
0001
0010
0001
0000
1000
0000
,  // measure 52
0001
0000
0110
0000
1000
0000
0001
0100
,  // measure 53
0010
0000
1000
0100
0010
0001
1000
0000
,  // measure 54
0100
1100
0010
0011
,  // measure 55
0010
0000
0110
0000
0100
0000
1000
0010
,  // measure 56
0001
0000
0001
0010
1000
0000
0010
0100
,  // measure 57
0010
0000
1000
0100
0010
0100
1000
0001
,  // measure 58
1000
1100
0001
0011
,  // measure 59
2002
0000
0000
0000
3003
0000
0100
0010
,  // measure 60
0100
0101
0010
1010
,  // measure 61
0220
0000
0000
0000
0330
0000
0001
1000
,  // measure 62
0001
1100
1000
0011
,  // measure 63
2002
0000
0000
3003
0000
1000
0010
0100
,  // measure 64
0010
1010
0100
0101
,  // measure 65
2000
0000
3001
0100
0001
0100
0001
0100
,  // measure 66
0002
0000
1003
0010
1000
0010
1000
0010
,  // measure 67
2000
0000
3100
0010
0002
0000
0013
0100
,  // measure 68
1000
0110
0001
0110
,  // measure 69
1000
0000
0001
0010
0100
0000
1000
0000
,  // measure 70
0001
0000
1000
0100
0010
0000
0001
0000
,  // measure 71
0100
0000
0010
0100
0001
0000
0100
0000
,  // measure 72
0010
0000
1000
0010
0100
0000
0010
0000
,  // measure 73
2000
0100
0010
3001
,  // measure 74
0002
0010
0100
1003
,  // measure 75
1000
0100
0010
0000
0001
0010
0100
0000
,  // measure 76
1000
0010
0100
0001
1000
0001
1000
0000
,  // measure 77
0220
0000
0000
0000
,  // measure 78
0000
0000
0000
0000
,  // measure 79
0330
0000
0000
0000
;

//---------------dance-single - ----------------
#NOTES:
     dance-single:
     :
     Challenge:
     9:
     0.687,0.893,0.229,0.361,0.150:
0000
0000
0000
0000
,
0000
0000
0000
0000
,
0000
0000
0000
0000
,
0000
0000
0000
0000
,
0000
0000
0000
0000
,
0000
0000
0000
0000
,
0000
0000
0000
0000
,
1000
0100
0010
0000
0001
0010
0100
0000
,
1000
0010
0100
0001
1000
0010
0100
0001
,
1000
0000
0001
1000
0001
0000
0100
0010
0100
0000
0010
0100
0010
0000
1000
0001
,
1000
0000
0001
0010
0001
0000
1000
0100
1000
0000
0001
1000
0001
0000
0100
0010
,
0100
0001
1000
0020
0000
1030
0001
0100
,
0010
1000
0100
1000
0010
0100
0001
0100
,
0010
1000
0001
0200
0000
0301
1000
0010
,
0000
1001
0000
0100
0010
0000
0110
0000
,
1000
0100
0010
0002
0000
1003
0100
2000
,
0000
3001
0010
0001
1000
0001
0100
0010
,
1000
0100
0010
0100
1000
0001
0100
0010
,
1000
1000
2000
0001
0001
0002
0000
3003
,
1001
0000
0000
0000
0110
0000
0000
0000
1001
0000
1000
0100
1000
0000
0001
0010
,
0001
0000
1000
0001
1000
0000
0110
0000
,
1000
0100
0010
0100
1000
0100
0010
0100
,
1000
0001
0100
0001
1000
0000
1001
0000
,
0001
0010
0100
1000
0100
0000
0010
0001
,
1000
0000
0001
0010
0001
0000
1001
0000
,
0001
0100
0010
0100
0001
0100
0010
0100
,
0001
0010
0100
0010
0001
0000
0110
0000
,
1000
0000
0001
0000
0100
0000
0010
0000
1000
0000
0000
0100
0000
0000
1000
0000
,
0001
0000
0000
0010
0000
0000
0001
0000
1000
0000
0000
0020
0000
0000
0130
0000
,
0001
0000
0000
0200
0000
0000
0310
0000
2000
0000
0000
0001
0000
0000
3001
0000
,
0200
0000
0000
0010
0000
0000
0310
0000
0000
0000
2002
0000
0000
0000
3003
0000
,
0200
0000
0320
0000
1030
0001
1000
0000
,
0001
0010
1000
0010
0001
0100
1000
0100
,
0001
0010
1000
0010
0001
0100
1000
0100
,
0001
0010
0100
1000
0010
0100
0001
0100
,
0010
1000
0100
0010
0001
0000
0110
0000
,
1000
0100
0001
0100
1000
0010
0001
0010
,
1000
0100
0001
0100
1000
0010
0001
0010
,
1000
0100
0010
0001
0100
0010
1000
0010
,
0100
0001
0010
0100
1000
0000
0110
0000
,
0001
1000
0001
1000
0001
0000
0100
0000
0010
0000
0000
0000
1001
0000
0000
0000
,
2000
0000
3020
0000
1030
0100
0010
0000
,
0010
0100
1000
0100
0010
0001
1000
0000
,
0002
0000
0203
0000
0301
0010
0100
1000
,
0001
0100
0010
1000
0001
0000
1010
0000
,
2000
0000
3200
0000
1300
0001
0100
0000
,
0100
0001
1000
0020
0000
1030
0100
0010
,
0002
0000
0013
0100
0020
0000
0031
1000
,
0100
1000
0001
1000
0001
0000
0101
0000
,
0200
0000
0302
0000
1003
0010
0100
0000
,
0001
0100
1000
0100
0001
0000
1010
0000
,
0020
0000
2030
0000
3010
1000
0001
1000
,
0010
0000
1000
0100
0001
0100
1000
0000
,
0200
0000
2300
0000
3001
0010
0001
0000
,
0001
0010
0001
0100
0001
1000
0001
0000
,
0020
0000
0032
0000
1003
0100
0010
0000
,
0100
0010
0001
0000
0101
0000
1000
0100
,
2100
3010
0102
0013
,
1000
0001
0010
0000
0100
1000
0001
0010
,
0012
0103
2010
3100
,
0001
1000
0010
1000
0001
0000
0100
0010
,
1020
0130
0210
0301
,
0001
1000
0010
0000
1000
0001
0100
0010
,
0201
0310
0120
1030
,
0001
0100
0001
0100
0001
0000
1000
0000
0010
0000
1000
0000
0001
0000
0000
0000
,
1000
0100
1000
0100
1000
0000
0001
0000
0100
0000
0001
0000
1000
0000
0000
0000
,
0010
1000
0010
1000
0010
0000
1000
0000
0001
0100
0001
0100
0001
0000
0100
0000
,
0001
0010
0100
1000
0100
0010
0001
1000
,
0001
0100
0010
0100
0001
1000
0001
0000
,
1000
0100
0010
0100
1000
0010
0100
0000
,
0100
0001
1000
0010
0100
0001
0100
0000
,
0010
1000
0100
0010
0001
0100
0010
0000
,
1000
0100
0010
0100
1000
0100
0010
0001
,
0010
0100
0010
0001
1000
0100
0010
0001
,
1000
0000
0001
0010
0001
0000
1000
0100
1000
0000
0010
1000
0010
0000
0100
0001
,
0100
0001
0100
0001
1000
0010
1000
0010
1000
0000
0100
0000
0010
0000
0001
0000
,
2002
0000
0000
0000
,
0000
0000
0000
0000
,
3003
0000
0000
0000
;
