#TITLE:Floorfiller;
#SUBTITLE:;
#ARTIST:A*Teens;
#TITLETRANSLIT:;
#SUBTITLETRANSLIT:;
#ARTISTTRANSLIT:;
#CREDIT:;
#BANNER:;
#BACKGROUND:;
#LYRICSPATH:;
#CDTITLE:;
#MUSIC:Floorfiller.ogg;
#OFFSET:-0.800;
#SAMPLESTART:55.840;
#SAMPLELENGTH:12.000;
#SELECTABLE:YES;
#BPMS:0.000=122.000;
#STOPS:108.000=0.980
;
#BGCHANGES:;

//---------------dance-single - ----------------
#NOTES:
     dance-single:
     :
     Hard:
     6:
     0.446,0.449,0.239,0.179,0.030:
0000
0000
0000
0000
,
0000
0000
0000
0000
,
0000
0000
0000
0000
,
0000
0000
0000
0000
,
1000
0010
0100
0010
1000
0100
0010
0100
,
1000
1010
0001
0101
,
0001
0100
0010
0100
0001
0010
0100
0010
,
0001
0011
1000
1100
,
0002
0000
0103
0010
2000
0000
3100
0010
,
0002
0000
0103
0010
1000
0000
0101
0000
,
2000
0000
3010
0100
0002
0000
0013
0100
,
1000
0010
0100
0010
1000
0000
0001
0100
,
0101
0000
1000
0010
1010
0000
0001
0010
,
0011
0000
1000
0000
0001
0100
0010
0100
,
0101
0000
0010
1000
1010
0000
0100
1000
,
1100
0000
0010
0000
0001
0200
0010
0310
,
2000
0000
3100
0010
0002
0000
0013
0100
,
2000
0000
3100
0010
0001
0000
1010
0000
,
0002
0000
0103
0010
2000
0000
3010
0100
,
0001
0010
0100
0010
0001
0000
1000
0100
,
1100
0000
0001
0010
0011
0000
0100
0001
,
0101
0000
0010
0000
1000
0100
0010
0100
,
1100
0000
0001
0100
0101
0000
0010
1000
,
1010
0000
0100
0000
0010
2000
0100
3100
,
0022
0000
0000
0033
,
1000
0010
2020
0000
0000
0000
3030
0000
,
0001
0100
0001
0100
0001
0100
0001
0100
,
0202
0303
1010
0000
0001
0100
0010
0100
,
0001
0100
0010
0000
1000
0100
0010
0000
,
0001
0100
0010
0000
1000
0100
0010
0100
,
1000
0100
0010
0000
0001
0100
0010
0000
,
1000
0100
0010
0000
0001
0100
0010
1000
,
0100
0010
0000
1000
0000
0001
0100
0010
,
1000
0100
0010
0100
1000
0001
0010
0000
,
0001
1000
0010
0000
1000
0001
0100
0000
,
0001
1000
0100
0100
1000
0010
0100
0010
,
1000
0010
0100
0000
0001
0010
0100
0000
,
1000
0010
0100
0000
0001
0010
0100
0010
,
0001
0010
0100
0000
1000
0010
0100
0000
,
0001
0010
0100
0000
1000
0010
0100
0001
,
0010
0100
0000
0001
0000
1000
0010
0100
,
0001
0010
0100
0010
0001
1000
0100
0000
,
1000
0001
0100
0000
0001
1000
0010
0000
,
1000
0000
0001
0000
0011
0000
0000
0000
1000
0000
0000
1000
0010
0000
0100
0000
,
0001
0000
0000
0001
0100
0000
0010
0000
1000
0000
0000
1000
0010
0000
0100
0000
,
0001
0000
0010
0000
0001
0000
0010
0000
0001
0000
0000
0001
0100
0000
0010
0000
,
1000
0000
0000
1000
0010
0000
0100
0000
0001
0000
0000
0001
0100
0000
0010
0000
,
1000
0100
1000
1000
1100
0000
0000
0000
;

//---------------dance-single - ----------------
#NOTES:
     dance-single:
     :
     Beginner:
     1:
     0.155,0.213,0.109,0.040,0.000: // measure 1
0000
0000
0000
0000
,  // measure 2
0000
0000
0000
0000
,  // measure 3
0000
0000
0000
0000
,  // measure 4
0000
0000
0000
0000
,  // measure 5
1000
1000
1000
1000
,  // measure 6
0000
0000
0000
0000
,  // measure 7
0001
0001
0001
0001
,  // measure 8
0000
0000
0000
0000
,  // measure 9
1000
0000
0010
0000
,  // measure 10
1000
0000
0010
0000
,  // measure 11
0100
0000
0001
0000
,  // measure 12
0100
0000
0001
0000
,  // measure 13
1000
0000
0110
0000
,  // measure 14
0110
0000
0001
0000
,  // measure 15
0010
0000
1001
0000
,  // measure 16
1001
0000
0100
0000
,  // measure 17
1000
0000
0100
0000
,  // measure 18
1000
0000
0100
0000
,  // measure 19
0010
0000
0001
0000
,  // measure 20
0010
0000
0001
0000
,  // measure 21
0100
0000
1001
0000
,  // measure 22
1001
0000
0010
0000
,  // measure 23
0001
0000
0110
0000
,  // measure 24
0110
0000
1000
0000
,  // measure 25
2002
0000
3003
0000
,  // measure 26
0220
0000
0330
0000
,  // measure 27
1000
1000
1000
1000
,  // measure 28
1000
0000
0001
0000
,  // measure 29
0100
0000
0010
0000
,  // measure 30
0100
0000
0001
0001
,  // measure 31
0001
0000
0010
0000
,  // measure 32
0100
0000
1000
1000
,  // measure 33
1000
0000
0010
0010
,  // measure 34
0010
0000
0100
0000
,  // measure 35
0001
0000
0100
0000
,  // measure 36
0001
0000
1000
0000
,  // measure 37
0100
0000
0010
0000
,  // measure 38
0100
0000
1000
1000
,  // measure 39
1000
0000
0010
0000
,  // measure 40
0100
0000
0001
0001
,  // measure 41
0001
0000
0100
0100
,  // measure 42
0100
0000
0010
0000
,  // measure 43
1000
0000
0010
0000
,  // measure 44
1000
0000
0001
0000
,  // measure 45
0010
0000
1000
0000
,  // measure 46
0010
0000
0001
0000
,  // measure 47
0100
0000
1000
0000
,  // measure 48
0100
0000
1001
0000
;

//---------------dance-single - ----------------
#NOTES:
     dance-single:
     :
     Easy:
     3:
     0.240,0.307,0.100,0.179,0.000:
0000
0000
0000
0000
,
0000
0000
0000
0000
,
0000
0000
0000
0000
,
0000
0000
0000
0000
,
1000
0010
1000
0010
,
0100
0100
0001
0001
,
0010
0100
0010
0100
,
1000
0010
1001
0000
,
0010
1000
0100
0010
,
1000
0001
0100
0000
,
0100
0001
0010
0100
,
0001
1000
0100
0000
,
2200
3300
0202
0303
,
1000
0010
0001
0000
,
0022
0033
2020
3030
,
0001
0100
1000
0000
,
0100
0010
0001
0100
,
1000
0001
0010
0000
,
0100
1000
0010
0100
,
1000
0001
0010
0000
,
0202
0303
2200
3300
,
0001
0010
1000
0000
,
2020
3030
0022
0033
,
1000
0100
0001
0000
,
2000
0000
0000
0000
,
0010
0020
0000
3030
,
0100
0001
0100
0001
,
0100
0000
0010
1000
,
0100
0000
0010
0001
,
0100
0000
0001
1000
,
0001
1000
0010
0100
,
0001
0000
1000
0010
,
0000
0000
1000
0100
,
0001
0000
1000
0010
,
1000
0010
0100
0001
,
0100
0001
0010
0001
,
0100
0000
0010
1000
,
0100
0000
1000
0001
,
1000
0001
0010
0100
,
1000
0000
0001
0100
,
1000
0000
0001
0010
,
1000
0000
0001
0010
,
0001
0010
0100
1000
,
0100
1000
0010
0100
,
0001
0001
0100
0010
,
1000
1000
0100
0010
,
0001
0001
0100
0010
,
1000
1000
1001
0000
;

//---------------dance-single - ----------------
#NOTES:
     dance-single:
     :
     Medium:
     5:
     0.360,0.331,0.209,0.209,0.000:
0000
0000
0000
0000
,
0000
0000
0000
0000
,
0000
0000
0000
0000
,
0000
0000
0000
0000
,
1000
0010
0100
0000
1000
0010
0100
0000
,
0002
0203
0320
1030
,
0001
0010
0100
0000
0001
0010
0100
0000
,
1000
0101
1000
0101
,
2000
3020
0230
0302
,
1003
0000
0010
0100
0010
0000
0000
0000
,
0002
0203
0320
2030
,
3001
0010
0001
0010
0001
0000
0000
0000
,
1000
0000
0010
0100
0001
0000
0100
0010
,
1000
0001
0110
0000
,
0001
0000
0010
0100
1000
0000
0100
0010
,
0001
1000
0110
0000
,
0002
0023
0230
2300
,
3001
0000
0100
0010
0100
0000
0000
0000
,
2000
3200
0320
0032
,
1003
0010
1000
0010
1000
0000
0000
0000
,
0001
0000
0100
0010
1000
0000
0100
0010
,
0001
1000
0110
0000
,
1000
0000
0010
0100
0001
0000
0010
0100
,
1000
0001
0110
0000
,
0002
0000
0000
0000
,
0100
0100
0200
0000
0000
0000
0303
0000
,
0010
1000
0010
0000
0010
1000
0010
0000
,
1001
0000
0110
0000
1000
0100
0010
0000
,
0001
0100
0010
0000
1000
0000
0101
0000
,
1000
0000
0101
0000
0010
0100
0001
0000
,
0010
0100
1000
0000
0001
0000
1010
0000
,
0001
0000
1010
0000
0001
0100
0001
0000
,
0010
1000
0100
0000
0001
0010
0001
0000
,
0100
1000
0010
0000
0100
0100
0100
0000
,
0001
0000
1010
0000
0100
0100
0100
0000
,
1000
0000
0011
0000
1000
0010
0100
0000
,
0001
0010
0100
0000
1000
0000
0011
0000
,
1000
0000
0011
0000
0100
0001
0010
0000
,
0100
1000
0010
0000
0001
0000
1010
0000
,
0001
0000
1010
0000
0001
0100
0001
0000
,
0010
0100
1000
0000
0010
0100
0010
0000
,
0100
0001
1000
0000
0010
0010
0010
0000
,
1000
0000
0101
0000
0010
0010
0010
0000
,
0001
0000
1100
0000
0001
0000
0100
0010
,
0100
0000
1000
0100
1000
0000
0001
0010
,
0001
0010
0001
0000
0100
0000
0010
0100
,
0010
0000
1000
0010
1000
0000
0001
0100
,
0001
0100
0001
0000
1001
0000
0000
0000
;
