#TITLE:Code 0207;
#SUBTITLE:(DJ Yoshinori Remix);
#ARTIST:Ryu*;
#TITLETRANSLIT:;
#SUBTITLETRANSLIT:;
#ARTISTTRANSLIT:;
#CREDIT:;
#BANNER:[Week 4] - Code 0207.png;
#BACKGROUND:[Week 4] - Code 0207-bg.png;
#LYRICSPATH:;
#CDTITLE:;
#MUSIC:[Week 4] - Code 0207.ogg;
#OFFSET:-0.025;
#SAMPLESTART:41.344;
#SAMPLELENGTH:12.000;
#SELECTABLE:YES;
#BPMS:0.000=145.000;
#STOPS:;
#BGCHANGES:;

//---------------dance-single - ----------------
#NOTES:
     dance-single:
     :
     Beginner:
     2:
     0.138,0.244,0.156,0.042,0.000:
0000
0000
0000
0000
,
0000
0000
0000
0000
,
0000
0000
0000
0000
,
0000
0000
0000
0000
,
0000
0000
0000
0000
,
0000
0000
0000
0000
,
0000
0000
0000
0000
,
1000
0000
0000
0000
,
0001
0000
0000
0000
,
1000
0000
0000
0000
,
0001
0000
0000
0000
,
1000
0000
0001
0000
,
1000
0000
0001
0000
,
1000
0000
0001
0000
,
1000
0000
0001
0000
,
0010
0000
0000
0000
,
0000
0000
0000
0000
,
0200
0000
0000
0000
,
0000
0000
0000
0000
,
0020
0000
0000
0000
,
0000
0000
0330
0000
,
0110
0000
0000
0000
,
1001
0000
0000
0000
,
1001
0000
0000
0000
,
1001
0000
0000
0000
,
0110
0000
0000
0000
,
2002
0000
3003
0000
,
1000
0000
0001
0000
,
1000
0000
0100
0000
,
1000
0000
0001
0000
,
1000
0000
0001
0000
,
0100
0000
0001
0000
,
1000
0000
0001
0000
,
1000
0000
0001
0000
,
1000
0000
0000
0000
,
1001
0000
0000
0000
,
0110
0000
0000
0000
,
1001
0000
0000
0000
,
0110
0000
0000
0000
,
1001
0000
0000
0000
,
1001
0000
0000
0000
,
0110
0000
0000
0000
,
1001
0000
0000
0000
,
0000
0000
0000
0000
,
1000
1000
1000
1000
,
0001
0001
0001
0001
,
1000
1000
1000
1000
,
0001
0001
0001
0001
,
1000
1000
1000
1000
,
0001
0001
0001
0001
,
1000
1000
1000
1000
,
0001
0000
0000
0000
,
1001
0000
0000
0000
,
0000
0000
0000
0000
,
0000
0000
0000
0000
,
0000
0000
0000
0000
,
0000
0000
0000
0000
,
0000
0000
0000
0000
,
0000
0000
0000
0000
;

//---------------dance-single - ----------------
#NOTES:
     dance-single:
     :
     Easy:
     4:
     0.141,0.244,0.177,0.042,0.000: // measure 1
0000
0000
0000
0000
,  // measure 2
0000
0000
0000
0000
,  // measure 3
0000
0000
0000
0000
,  // measure 4
0000
0000
0000
0000
,  // measure 5
0000
0000
0000
0000
,  // measure 6
0000
0000
0000
0000
,  // measure 7
0000
0000
0000
0000
,  // measure 8
1000
0000
0000
0000
,  // measure 9
0001
0000
0000
0000
,  // measure 10
1100
0000
0000
0000
,  // measure 11
0101
0000
0000
0000
,  // measure 12
1000
0000
0001
0000
,  // measure 13
1000
0000
0100
0000
,  // measure 14
1000
0000
0001
0000
,  // measure 15
0100
0000
0001
0000
,  // measure 16
1000
0000
0000
0000
,  // measure 17
0000
0000
0000
0000
,  // measure 18
0200
0000
0000
0000
,  // measure 19
0000
0000
0000
0000
,  // measure 20
0020
0000
0000
0000
,  // measure 21
0000
0000
0330
0000
,  // measure 22
0110
0000
0000
0000
,  // measure 23
1100
0000
0000
0000
,  // measure 24
0101
0000
0000
0000
,  // measure 25
1001
0000
0000
0000
,  // measure 26
0110
0000
0000
0000
,  // measure 27
2002
0000
3003
0000
,  // measure 28
1000
0000
0001
0000
,  // measure 29
1000
0000
0100
0000
,  // measure 30
1000
0000
0001
0000
,  // measure 31
1000
0000
0001
0000
,  // measure 32
0100
0000
0001
0000
,  // measure 33
1000
0000
0001
0000
,  // measure 34
1000
0000
0001
0000
,  // measure 35
1000
0000
0000
0000
,  // measure 36
0101
0000
0000
0000
,  // measure 37
1100
0000
0000
0000
,  // measure 38
1001
0000
0000
0000
,  // measure 39
0110
0000
0000
0000
,  // measure 40
1001
0000
0000
0000
,  // measure 41
1010
0000
0000
0000
,  // measure 42
0011
0000
0000
0000
,  // measure 43
1001
0000
0000
0000
,  // measure 44
0000
0000
0000
0000
,  // measure 45
1000
0100
1000
0100
,  // measure 46
1000
0001
0100
0001
,  // measure 47
0100
0001
1000
0001
,  // measure 48
1000
0010
1000
0010
,  // measure 49
1000
0001
0010
0001
,  // measure 50
0010
0001
1000
0001
,  // measure 51
1000
0100
0010
0001
,  // measure 52
1000
0000
0000
0000
,  // measure 53
0110
0000
0000
0000
;

//---------------dance-single - ----------------
#NOTES:
     dance-single:
     :
     Medium:
     7:
     0.326,0.433,0.364,0.125,0.042: // measure 1
0000
0000
0000
0000
,  // measure 2
0000
0000
0000
0000
,  // measure 3
0000
0000
0000
0000
,  // measure 4
0000
0000
0000
0000
,  // measure 5
0000
0000
0000
0000
,  // measure 6
0000
0000
0000
0000
,  // measure 7
0000
0000
0000
0000
,  // measure 8
1100
0000
0000
0000
,  // measure 9
0011
0000
0000
0000
,  // measure 10
0110
0000
0000
0000
,  // measure 11
1010
0000
0101
0110
,  // measure 12
1001
0100
1000
0001
,  // measure 13
1001
0001
0100
0001
,  // measure 14
1001
0000
0000
0000
,  // measure 15
0000
0000
0000
0000
,  // measure 16
1001
0000
0000
0000
,  // measure 17
0000
0000
0000
0000
,  // measure 18
1000
0000
0000
1000
0000
0000
0000
0000
0001
0000
0000
0001
0000
0000
0000
0000
,  // measure 19
0100
0000
0000
0100
0000
0000
0000
0000
0010
0000
0000
0010
0000
0000
0000
0000
,  // measure 20
1000
0000
0000
1000
0000
0000
0000
0000
0100
0000
0000
0100
0000
0000
0000
0000
,  // measure 21
0010
0000
0000
0010
0000
0000
0000
0000
0001
0000
0000
0001
0000
0000
0000
0000
,  // measure 22
1000
0001
1000
0101
,  // measure 23
0001
1000
0001
1001
,  // measure 24
1000
0100
0000
0000
0001
0010
0000
0000
,  // measure 25
1000
0100
1000
0001
0100
0001
1000
0001
,  // measure 26
2000
0000
3001
0100
,  // measure 27
2002
0000
0000
3003
,  // measure 28
2000
0000
3001
0000
1000
0100
1000
0000
,  // measure 29
0002
0000
1003
0000
0001
0100
0001
0000
,  // measure 30
0200
0000
0310
0000
1000
0001
1000
0000
,  // measure 31
0002
0000
0103
0000
0010
1000
0010
0000
,  // measure 32
0200
0000
0301
0000
0100
0001
0100
0000
,  // measure 33
0020
0000
1030
0000
0010
1000
0010
0000
,  // measure 34
2000
0000
3001
0000
0100
0001
0100
0000
,  // measure 35
0002
0000
1000
1003
,  // measure 36
1001
1001
0001
0001
,  // measure 37
1001
1001
1000
1000
,  // measure 38
0011
0011
1000
0100
,  // measure 39
1100
1100
0001
0100
,  // measure 40
0101
0101
0010
0100
,  // measure 41
0110
0110
1000
0001
,  // measure 42
1001
1001
0100
0010
,  // measure 43
1001
1001
1100
0101
,  // measure 44
1000
0001
1000
0000
0101
0000
0101
0000
,  // measure 45
1000
0100
1000
0000
0001
0100
0001
0000
,  // measure 46
1000
0100
1000
0000
0001
0000
1000
0000
,  // measure 47
0001
0100
0010
0000
1000
0010
0100
0000
,  // measure 48
0001
0100
0010
0000
1000
0010
0100
0000
,  // measure 49
0001
1000
0001
0100
,  // measure 50
0010
0000
1000
0000
0001
1000
0100
1000
,  // measure 51
0001
0100
0010
1000
,  // measure 52
1002
0000
0103
0010
,  // measure 53
1001
0000
0000
0000
;

//---------------dance-single - ----------------
#NOTES:
     dance-single:
     :
     Hard:
     8:
     0.446,0.514,0.364,0.031,0.265: // measure 1
0000
0000
0000
0000
,  // measure 2
0000
0000
0000
0000
,  // measure 3
0000
0000
0000
0000
,  // measure 4
0000
0000
0000
0000
,  // measure 5
0000
0000
0000
0000
,  // measure 6
0000
0000
0000
0000
,  // measure 7
0000
0000
0000
0000
,  // measure 8
1001
1000
0001
0001
,  // measure 9
1001
0001
0100
1000
,  // measure 10
0101
1000
0100
0100
,  // measure 11
1001
0100
0110
0110
,  // measure 12
0100
0001
1000
0100
,  // measure 13
1001
0000
0100
0000
,  // measure 14
1001
0100
0010
0001
0010
0100
0001
0000
,  // measure 15
1001
0100
1000
0000
1001
0000
0100
0000
,  // measure 16
2000
0000
0000
0000
,  // measure 17
0000
0000
3000
0000
,  // measure 18
1000
0000
0000
0001
0000
0000
1000
0000
0010
0000
0000
1000
0000
0000
0001
0000
,  // measure 19
0010
0000
0000
0001
0000
0000
0010
0000
0001
0000
0000
0100
0000
0000
1000
0000
,  // measure 20
0100
0000
0000
0001
0000
0000
0010
0000
0100
0000
0000
1000
0000
0000
0100
0000
,  // measure 21
0001
0000
0000
0100
0000
0000
1000
0000
0100
0000
0000
0010
0000
0000
0001
0000
,  // measure 22
0010
0000
0100
0000
0000
1000
0000
0000
0100
0000
0000
0000
1001
0000
0000
0000
,  // measure 23
1000
0000
0100
0000
0000
0100
0000
0000
1000
0000
0000
0000
1001
0000
0000
0000
,  // measure 24
0001
0000
0100
0000
0000
0100
0000
0000
0001
0000
1000
0000
0000
0100
0000
0000
,  // measure 25
1000
0100
0010
0001
0100
0010
1000
0100
,  // measure 26
0010
0000
1001
0000
0000
1100
0000
0000
1001
0000
0000
0000
0101
0000
0000
0000
,  // measure 27
2002
0000
0000
3003
,  // measure 28
0010
0000
0001
0100
0000
0000
0001
0000
1000
0000
0001
1000
0000
0000
0100
0000
,  // measure 29
1000
0000
0010
1000
0000
0000
0100
0000
1000
0000
0001
1000
0000
0000
0001
0000
,  // measure 30
0100
0000
0001
0010
0000
0000
0100
0000
1000
0000
0001
0100
0000
0000
0010
0000
,  // measure 31
1000
0000
0100
1000
0000
0000
0010
0000
0100
0000
0001
0010
0000
0000
0001
0000
,  // measure 32
1001
0000
1000
0100
0000
0000
1000
0000
0001
0000
1000
0001
0000
0000
0100
0000
,  // measure 33
0001
0000
0010
0001
0000
0000
0100
0000
0001
0000
1000
0001
0000
0000
1000
0000
,  // measure 34
0100
0000
1000
0010
0000
0000
0100
0000
0001
0000
1000
0100
0000
0000
0010
0000
,  // measure 35
0001
0000
0100
0001
0000
0000
0010
0000
0100
0000
1000
0001
1000
0000
0000
0000
,  // measure 36
0001
0100
0010
1010
,  // measure 37
1000
0100
0010
0011
,  // measure 38
1000
0001
1000
0000
1100
0000
0101
0000
,  // measure 39
1000
0100
1000
0000
0101
0000
0101
0000
,  // measure 40
1000
0100
1000
0000
1000
0000
1001
0000
,  // measure 41
0001
0100
1000
0100
0001
0000
0101
0000
,  // measure 42
1000
0100
0001
0100
1000
0000
1100
0000
,  // measure 43
0010
0100
0001
0010
0100
0000
1001
0000
,  // measure 44
1100
0101
1100
0000
0110
0000
1001
0000
,  // measure 45
1000
0000
0000
1000
0100
0000
0000
0100
0010
0000
0000
0010
0001
0000
0000
0001
,  // measure 46
0100
0000
0000
0100
0010
0000
0000
0010
1000
0000
0100
0000
0010
0000
0001
0000
,  // measure 47
0100
0000
0000
0100
0010
0000
0000
0010
1000
0000
0000
1000
0001
0000
0000
0001
,  // measure 48
0100
0000
0000
0100
0010
0000
0000
0010
1000
0000
0001
0000
0010
0000
0100
0000
,  // measure 49
1000
0000
0000
1000
0100
0000
0000
0100
0010
0000
0000
0010
0001
0000
0000
0100
,  // measure 50
0010
0000
0000
0010
1000
0000
0000
0001
0100
0000
0010
0000
1000
0000
0001
0000
,  // measure 51
1000
0000
0000
1000
0010
0000
0000
0010
0100
0000
0000
0100
0001
0000
0000
0001
,  // measure 52
0010
0100
1000
0001
0100
0000
1001
0000
,  // measure 53
0110
0000
0000
0000
;
