#TITLE:ALL MY TURN;
#SUBTITLE:-このターンに、オレの全てを賭ける-;
#ARTIST:SUPER STAR 満-MITSURU;
#TITLETRANSLIT:;
#SUBTITLETRANSLIT:;
#ARTISTTRANSLIT:;
#CREDIT:;
#BANNER:ALL MY TURN bn.png;
#BACKGROUND:ALL MY TURN bg.png;
#LYRICSPATH:;
#CDTITLE:;
#MUSIC:All My Turn.ogg;
#OFFSET:-5.755;
#SAMPLESTART:17.020;
#SAMPLELENGTH:16.420;
#SELECTABLE:YES;
#BPMS:0.000=170.000;
#STOPS:;
#BGCHANGES:;

//---------------dance-single - ----------------
#NOTES:
     dance-single:
     :
     Beginner:
     1:
     0.121,0.161,0.000,0.000,0.000:
1000
0000
0000
0000
,
0001
0000
0000
0000
,
0010
0000
0000
0000
,
0100
0000
0000
0000
,
1000
0000
0000
0000
,
0010
0000
0000
0000
,
0100
0000
0000
0000
,
0001
0000
0000
1000
,
1000
0000
0000
0000
,
0010
0000
0010
0000
,
0010
0000
0000
0000
,
0100
0000
0100
0000
,
0100
0000
0000
0000
,
0001
0000
0001
0000
,
0001
0000
0000
0000
,
1000
0000
0000
0000
,
0010
0000
0000
0000
,
0100
0000
0000
0000
,
0001
0000
0000
0000
,
0010
0000
0000
0000
,
0001
0000
0000
0000
,
0100
0000
0000
0000
,
0010
0000
0000
0000
,
1000
0000
0000
0000
,
0100
0000
0000
0000
,
0010
0000
0010
0000
,
0010
0000
0000
0000
,
0001
0000
0001
0000
,
0001
0000
0000
0000
,
1000
0000
1000
0000
,
1000
0000
0000
0000
,
0010
0000
0010
0000
,
0010
0000
0000
0000
,
0100
0000
0100
0000
,
0100
0000
0000
0000
,
0010
0000
0010
0000
,
0010
0000
0000
0000
,
1000
0000
1000
0000
,
1000
0000
0000
0000
,
0001
0000
0001
0000
,
0001
0000
0000
0000
,
0000
0000
0000
0000
,
1000
0000
0000
0000
,
0000
0000
0000
0000
,
0010
0000
0000
0000
,
0100
0000
0000
0000
,
0001
0000
0000
0000
,
1000
0000
0000
0000
,
0100
0000
0000
0000
,
0010
0000
0000
0000
,
0001
0000
0000
0000
,
1000
0000
0000
0000
,
0010
0000
0010
0000
,
0010
0000
0010
0000
,
0010
0000
0010
0000
,
0010
0000
0010
0000
,
0010
0000
0000
0000
,
0100
0000
0000
0000
,
1000
0000
0000
0000
,
0001
0000
0001
0000
,
0001
0000
0000
0000
,
1000
0000
1000
0000
,
1000
0000
0000
0000
,
0010
0000
0010
0000
,
0010
0000
0000
0000
,
0100
0000
0100
0000
,
0100
0000
0000
0000
,
0001
0000
0001
0000
,
0001
0000
0000
0000
,
1000
0000
1000
0000
,
1000
0000
0000
0000
,
0010
0000
0010
0000
,
0010
0000
0000
0000
,
0100
0000
0100
0000
,
0100
0000
0000
0000
,
0001
0000
0001
0000
,
1000
0000
1000
0000
;

//---------------dance-single - ----------------
#NOTES:
     dance-single:
     :
     Easy:
     4:
     0.294,0.321,0.017,0.076,0.000:
1000
0000
0100
0100
,
0100
0000
0010
0010
,
0010
0000
0001
0001
,
0001
0000
1000
1000
,
1000
0000
0010
1000
,
0010
0000
0100
0001
,
0100
0000
0001
0010
,
0200
0000
0300
1000
,
1000
0010
1000
0001
,
0010
0000
0001
0000
,
0100
0010
1000
0100
,
0010
0001
1000
0010
,
0100
0001
0010
0001
,
0100
0000
0010
0000
,
1000
1000
0000
0001
,
0001
0000
1000
0010
,
0100
0000
0001
0010
,
0001
0000
1000
0010
,
1000
0000
0001
0100
,
0001
0000
1000
0100
,
1000
0000
0001
1000
,
0010
0000
1000
0100
,
0010
0000
0001
1000
,
0010
1000
0001
0100
,
0010
0000
0100
1000
,
0001
0000
0010
0001
,
0100
0000
0010
1000
,
0100
0000
1000
0001
,
0010
0000
0001
0100
,
0010
0000
1000
0100
,
0010
0001
0100
0001
,
0010
0100
1000
0100
,
1000
0010
1000
0001
,
0010
0000
0001
0000
,
0100
0010
1000
0100
,
0010
0001
1000
0010
,
0100
0001
0010
0001
,
0100
0000
0010
0000
,
1000
1000
0000
0001
,
0001
0000
1000
0010
,
0200
0000
0000
0000
,
0000
0000
0000
0000
,
0320
0000
0000
0000
,
0000
0000
0000
0000
,
2030
0000
0000
0000
,
3002
0000
0000
0000
,
2003
0000
0000
0000
,
3020
0000
0000
0100
,
0130
0001
0100
0001
,
0100
0010
0100
0010
,
1000
0010
1000
0010
,
1000
0100
1000
0100
,
1000
0001
1000
0001
,
1000
0001
1000
0001
,
1000
1000
0001
0001
,
1000
0001
1000
0001
,
1001
0000
0000
0000
,
2000
0000
0000
0000
,
3002
0000
1000
1000
,
1003
0010
1000
0001
,
0010
0001
0100
0010
,
1000
0100
0001
0100
,
1000
0010
0001
0010
,
1000
0000
0010
0100
,
0001
0000
0010
0001
,
0100
0010
1000
0100
,
0001
0100
1000
0010
,
0001
0010
1000
0100
,
0001
0100
1000
0010
,
0001
0010
1000
0100
,
0010
0001
0100
0010
,
1000
0000
0001
1000
,
0001
0000
0100
0010
,
1000
0010
0100
0001
,
0010
0100
1000
0001
,
0000
1000
0000
0001
,
0000
1000
1001
0000
;

//---------------dance-single - ----------------
#NOTES:
     dance-single:
     :
     Medium:
     6:
     0.426,0.495,0.008,0.101,0.008:
1000
0000
0000
1000
0000
0000
1000
0000
,
0001
0000
0000
0001
0000
0000
0001
0000
,
0010
0000
0000
0010
0000
0000
0010
0000
,
0100
0000
0000
0100
0000
0000
0100
1000
,
0100
0010
0001
1000
,
0010
1000
0100
0010
,
0001
1000
0001
1000
0001
1000
0001
1000
,
0002
0000
0000
0000
0003
0000
1000
0001
,
1000
0010
1000
0100
,
0010
0000
0001
0000
0010
0000
0001
0010
,
0001
0010
0100
1000
,
0010
1000
0010
0000
0100
0001
0100
0000
,
0010
1000
0100
0010
,
0001
1000
0010
1000
,
0100
0100
0000
0010
0010
0000
0001
0001
,
0000
1000
1000
0000
0010
0100
0001
0100
,
0010
0000
1000
0000
0100
0000
0010
0001
,
0010
0000
0001
0000
0100
0000
0010
1000
,
0010
0000
0100
0000
0001
0000
0010
0100
,
0010
0000
0100
0000
1000
0000
0001
1000
,
0001
0000
1000
0000
0010
0000
0100
0001
,
0100
0000
0001
0000
0010
0000
0100
1000
,
0100
0000
0010
0000
0001
0000
1000
0001
,
1000
0000
0010
0000
0100
0000
0001
0010
,
0001
0000
0100
0000
0010
0000
1000
0001
,
1000
0000
0100
0000
0010
0000
0001
0010
,
0001
0000
0100
0000
0010
0000
1000
0100
,
1000
0000
0001
0000
1000
0000
0010
1000
,
0010
0000
0100
0000
0001
0000
0010
0001
,
0010
0000
0001
0000
0100
0000
0010
0100
,
0010
0000
1000
0000
0001
0000
0010
0001
,
0100
0001
0100
0001
1000
0010
1000
0010
,
1000
0010
1000
0100
,
0010
0000
0001
0000
0010
0000
0001
0010
,
0001
0010
0100
1000
,
0010
1000
0010
0000
0100
0001
0100
0000
,
0010
1000
0100
0010
,
0001
1000
0010
1000
,
0100
0100
0000
0010
0010
0000
0001
0001
,
0000
1000
1000
0000
0010
0100
0001
0100
,
0020
0000
0000
0000
,
0000
0000
0000
0000
,
2030
0000
0000
0000
,
0000
0000
3002
0000
,
2003
0000
0000
0000
,
3020
0000
0000
0000
,
0230
0000
0000
0000
,
0302
0000
0000
0000
0003
0000
1000
0001
,
1000
0000
0010
0000
1000
0000
0100
1000
,
0100
0000
0010
0000
0001
0000
1000
0001
,
1000
0000
0010
0000
0100
0000
0001
0010
,
0001
0000
0100
0000
0010
0000
1000
0100
,
1000
0000
0001
0100
0001
0000
1000
0010
,
1000
0000
0001
0010
0001
0000
1000
0100
,
1000
0000
0001
0000
0000
1000
0000
0000
0001
0000
1000
0000
0000
0001
0000
0000
,
1000
0001
1000
0001
1000
0001
1000
0001
,
2000
0000
0000
3000
,
0002
0000
0000
0000
,
2003
0000
3000
1001
,
1000
0010
0100
0000
0001
0000
0010
0000
,
0001
0100
0010
0000
1000
0000
0001
0000
,
1000
0100
0010
0000
0001
0000
1000
0000
,
0010
1000
0001
0000
0100
0000
0001
0000
,
0010
0000
0000
0010
0000
0000
0010
0000
,
0100
0000
0000
0100
0000
0000
0100
0000
,
1000
0010
1000
0001
,
0010
0001
0100
0010
1000
0100
0001
0100
,
1000
0010
0100
0000
0001
0000
0010
0000
,
0001
0100
0010
0000
1000
0000
0100
0000
,
0010
0001
1000
0000
0100
0000
1000
0000
,
0010
0100
0001
0000
0100
0000
0010
1000
,
0010
0000
0000
0100
0000
0000
0001
0000
,
1000
0100
0010
0001
,
1000
0010
1000
0001
0100
0001
0100
0010
,
1000
0100
1000
0010
0100
0001
0010
0001
,
0000
0100
0010
0000
1000
0100
0000
0010
,
0000
0001
0000
1000
0002
0000
0000
0000
,
0000
0000
0000
0000
,
0000
0000
0003
0000
;

//---------------dance-single - Copied from----------------
#NOTES:
     dance-single:
     Copied from:
     Hard:
     9:
     0.624,0.726,0.126,0.218,0.471: // measure 1
1001
0000
0000
0001
0000
0000
0100
0000
0000
0000
0010
0000
1000
0000
0100
0000
,  // measure 2
1000
0000
0000
0001
0000
0000
0010
0000
0000
0000
1000
0000
0010
0000
0001
0000
,  // measure 3
0100
0000
0000
0010
0000
0000
1000
0000
0000
0000
0100
0000
1000
0000
0001
0000
,  // measure 4
0010
0000
0000
0001
0000
0000
0100
0000
0000
0000
0010
0000
1000
0000
0001
0100
,  // measure 5
0001
0000
0100
0000
0010
0000
1000
0000
0100
1000
0000
1000
0100
0000
0000
0000
,  // measure 6
0010
0000
0001
0000
0100
0000
0010
0000
1000
0001
0000
0001
1000
0000
0000
0000
,  // measure 7
0001
0001
0100
0100
0010
0010
1000
1000
,  // measure 8
0002
0000
0000
0000
0000
0000
0000
0000
1003
0000
0000
0000
0001
0100
0010
1000
,  // measure 9
0001
0000
0000
1000
0000
0000
0100
0000
0000
0010
0000
0000
0001
0000
0100
0000
,  // measure 10
0010
0000
0000
1000
0000
0000
0001
0000
0000
0010
0000
0000
1000
0000
0010
0000
,  // measure 11
0001
0000
0100
0000
0000
0010
0000
0000
1000
0000
0000
0100
0000
0000
0001
0000
,  // measure 12
0100
0000
1000
0000
0010
0000
0100
0000
0001
0000
0010
0000
0001
0000
1000
0100
,  // measure 13
1000
0000
0000
0100
0000
0000
0010
0000
0000
0001
0000
0000
0100
0000
0010
0000
,  // measure 14
1000
0000
0000
0100
0000
0000
0001
0000
0000
0100
0000
0000
1000
0000
0010
0000
,  // measure 15
0100
0000
0001
0020
0000
0000
0130
0000
1000
0002
0000
0000
0013
0000
0001
0200
,  // measure 16
0000
0000
0310
0000
1000
0200
0000
0000
1300
0000
0100
0000
0010
0000
0001
0000
,  // measure 17
1000
0000
0010
0000
0000
1000
0000
0000
0001
0000
0000
0010
0000
0001
0100
0000
,  // measure 18
0010
0000
1000
0000
0000
0100
0000
0000
0001
0000
0000
0100
0000
1000
0010
0000
,  // measure 19
1000
0000
0100
0000
0000
0010
0000
0000
0001
0000
0000
0100
0000
0010
1000
0000
,  // measure 20
0001
0000
0010
0000
0000
0001
0000
0000
1000
0000
0000
0100
0000
1000
0010
0000
,  // measure 21
1000
0000
0001
0000
0000
0010
0000
0000
0001
0000
0000
0100
0000
0010
1000
0000
,  // measure 22
0010
0000
0100
0000
0000
0001
0000
0000
0010
0000
0000
0100
0000
1000
0100
0000
,  // measure 23
0010
0001
0100
0010
1000
0001
0010
0001
,  // measure 24
0101
0000
0000
0000
0110
0000
0000
1010
0000
0000
1100
0000
0000
0011
0000
0000
,  // measure 25
0010
0000
0100
0000
0000
1000
0000
0000
0001
0000
0000
0010
0000
1000
0010
0000
,  // measure 26
0001
0000
0100
0000
0000
0010
0000
0000
1000
0000
0000
0100
0000
0001
0100
0000
,  // measure 27
1000
0000
0010
0000
0000
0100
0000
0000
0001
0000
0000
0010
0000
0001
1000
0000
,  // measure 28
0100
0000
1000
0000
0000
0001
0000
0000
0010
0000
0000
1000
0000
0010
0001
0000
,  // measure 29
0100
0000
0010
0000
0000
1000
0000
0000
0100
0000
0000
0001
0000
0100
1000
0000
,  // measure 30
0010
0000
0100
0000
0000
0001
0000
0000
0010
0000
0000
0100
0000
1000
0010
0000
,  // measure 31
1010
0010
0100
0000
0101
0001
0010
0000
,  // measure 32
0100
0000
1000
0000
0001
0000
0010
0000
0001
0000
0100
0000
0010
1000
0010
1000
,  // measure 33
0010
0000
0000
0100
0000
0000
0001
0000
0000
1000
0000
0000
0100
0000
0001
0000
,  // measure 34
0100
0000
0000
1000
0000
0000
0010
0000
0000
0100
0000
0000
0001
0000
0010
0000
,  // measure 35
0100
0000
1000
0000
0000
0010
0000
0000
1000
0000
0000
0001
0000
0000
0010
0000
,  // measure 36
0001
0000
0100
0000
0010
0000
1000
0000
0100
0000
0001
0000
0100
0000
1000
0100
,  // measure 37
1000
0000
0000
0100
0000
0000
0010
0000
0000
0001
0000
0000
1000
0000
0010
0000
,  // measure 38
1000
0000
0000
0001
0000
0000
0010
0000
0000
1000
0000
0000
0010
0000
0001
0000
,  // measure 39
0100
0000
0010
2000
0000
0000
3001
0000
0010
0002
0000
0000
0103
0000
0010
2000
,  // measure 40
0000
0000
3100
0000
1000
0002
0000
0000
0013
0000
0001
0000
0100
0000
0010
0000
,  // measure 41
2020
0000
0000
0000
,  // measure 42
0030
0000
3002
0000
,  // measure 43
0023
0000
0000
0000
,  // measure 44
0000
0000
0230
0000
,  // measure 45
2300
0000
0000
0000
,  // measure 46
3020
0000
0000
0000
,  // measure 47
0230
0000
0000
0000
,  // measure 48
0302
0000
0000
0000
0000
0000
0000
0000
0000
0000
0000
0000
1003
0001
1000
0001
,  // measure 49
1000
0000
0000
0010
0000
1000
0010
0000
0100
0000
0001
0000
0010
0000
0100
0000
,  // measure 50
1000
0000
0000
0001
0000
1000
0001
0000
1000
0000
0010
0000
0100
0000
0001
0000
,  // measure 51
0010
0000
0000
0001
0000
0010
0001
0000
0010
0000
0100
0000
1000
0000
0001
0000
,  // measure 52
0010
0000
0000
0001
0000
0100
0001
0000
0100
0000
0010
0000
1000
0000
0001
0000
,  // measure 53
1000
0010
0100
0001
1000
0010
0100
0001
,  // measure 54
1000
0010
0100
0001
1000
0010
0100
0001
,  // measure 55
1000
0000
0100
0000
0000
0001
0000
0000
1000
0000
0010
0000
0000
0001
0000
0000
,  // measure 56
1000
0000
0010
0000
0100
0000
0001
0000
1000
0000
0100
0000
0010
0001
1000
0100
,  // measure 57
0020
0000
0000
0030
,  // measure 58
0002
0000
0000
0003
,  // measure 59
0200
0000
0300
0000
0010
1000
0001
0100
,  // measure 60
0010
0000
1000
0000
0100
0000
1000
0000
0001
0000
0000
0010
0000
0000
0001
0000
,  // measure 61
0100
0000
0010
0000
1000
0000
0100
0000
0001
0000
0000
0100
0000
0000
1000
0000
,  // measure 62
0010
0000
1000
0000
0100
0000
0010
0000
0001
0000
0000
0100
0000
0000
0010
0000
,  // measure 63
1000
0000
0001
0000
0010
0000
0000
0001
0000
0000
1000
0000
0100
0000
1000
0000
,  // measure 64
0010
0000
0000
0100
0000
0000
0002
0000
0000
0000
0010
0000
0010
0003
0010
0000
,  // measure 65
0100
0000
0000
1000
0000
0000
0002
0000
0000
0000
1000
0000
1000
0000
1003
0000
,  // measure 66
0001
0000
0000
1000
0000
0000
0010
0000
0000
1000
0000
0000
0100
0000
0010
0000
,  // measure 67
0001
0000
0100
0000
0010
0000
1000
0000
0001
0000
0010
0000
1000
0010
0001
0100
,  // measure 68
0010
0000
1000
0000
0100
0000
0010
0000
0001
0000
0000
0100
0000
0000
0010
0000
,  // measure 69
1000
0000
0100
0000
1000
0000
0001
0000
0010
0000
0000
1000
0000
0000
0010
0000
,  // measure 70
0001
0000
0100
0000
0010
0000
1000
0000
0100
0000
0000
0010
0000
0000
0001
0000
,  // measure 71
0010
0000
0100
0000
1000
0000
0000
0010
0000
0000
0100
0000
0001
0000
0010
0000
,  // measure 72
0110
0000
0000
0100
0000
0000
2000
0000
0000
0000
0010
0000
0010
0000
3010
0000
,  // measure 73
1000
0000
0000
0010
0000
0000
0100
0000
0001
0000
0000
1000
0000
0000
0100
0000
,  // measure 74
0110
0010
0001
0000
0101
0100
0010
0000
,  // measure 75
1000
0100
0001
0100
1000
0010
0001
0010
,  // measure 76
0000
1000
0100
0000
0001
0100
0000
1100
,  // measure 77
0000
0101
0000
1000
2200
0000
0000
0000
,  // measure 78
0000
0000
0000
0000
,  // measure 79
0000
0000
3300
0000
;
