#TITLE:Monkey Dance;
#SUBTITLE:;
#ARTIST:Y&Co.;
#TITLETRANSLIT:;
#SUBTITLETRANSLIT:;
#ARTISTTRANSLIT:;
#GENRE:EUROBEAT;
#CREDIT:;
#MENUCOLOR:;
#METERTYPE:DDR;
#BANNER:Banner - Monkey Dance - XREI.png;
#BACKGROUND:BG - Monkey Dance - XREI.png;
#LYRICSPATH:;
#CDTITLE:;
#MUSIC:Monkey Dance.mp3;
#OFFSET:0.180;
#SAMPLESTART:66.930;
#SAMPLELENGTH:12.380;
#SELECTABLE:YES;
#LISTSORT:;
#BPMS:0.000=155.000;
#STOPS:;
#BGCHANGES:;
#ATTACKS:;

//---------------dance-single - First Simfile----------------
#NOTES:
     dance-single:
     First Simfile:
     Edit:
     6:
     0.262,0.376,0.158,0.114,0.000:
0000
0000
0000
0000
,
2000
0000
0000
0000
,
3002
0000
0000
0000
,
2003
0000
0000
0000
,
3000
0000
0000
0000
,
1001
0000
0000
0000
,
1000
0000
0000
0000
,
0001
0000
0000
0000
,
1001
1001
1001
0000
,
0001
1000
0001
0000
,
1000
0001
1000
0000
,
0100
0010
0100
0000
,
0100
0010
0100
0000
,
1000
0001
1000
0000
,
0001
1000
0001
0000
,
1000
0001
1000
0000
,
1001
0000
0000
0000
,
1000
0000
1000
0000
,
0001
0000
0001
0000
,
1000
0000
1000
0000
,
0001
0000
1000
0000
,
0001
0000
0001
0000
,
1000
0000
1000
0000
,
0010
0000
0100
0000
,
0010
0000
0000
0000
,
0000
1000
0000
1000
0000
1000
0000
0001
,
0000
0001
0000
0001
0000
1000
0000
0001
,
0000
1000
1000
1000
,
0001
0001
1000
0001
,
1000
0001
0001
0001
,
1000
1000
1000
0001
,
1000
0001
0001
1000
,
1000
0001
0001
1000
,
0001
1000
0001
1000
,
1001
0000
0000
0000
,
0100
0010
0100
0000
,
0010
0100
0010
0000
,
0010
0100
0010
0000
,
0100
0010
0100
0000
,
1000
0100
0001
0010
,
1000
0100
0001
0010
,
1000
1000
1000
1000
,
2002
0000
0000
0000
,
3003
0000
0000
0000
,
2002
0000
0000
0000
0000
3003
0000
0000
,
2200
0000
0000
0000
0000
0000
0000
3300
,
0022
0000
0000
0000
,
0033
0000
0000
0000
,
1000
1000
1000
0000
,
0001
0001
0001
0000
,
1000
0000
0001
0000
0000
1000
0001
0000
,
1001
1001
1001
0000
,
1001
0000
1000
0100
,
0001
0000
0001
0100
,
1000
0000
1000
0010
,
0001
0000
0001
0010
,
1000
0000
1000
0100
,
0010
0000
0010
0100
,
1000
0000
0000
0000
0000
0000
0000
1001
,
0000
1001
0000
1001
0000
0000
0000
0000
,
1000
1000
1000
0000
,
0001
0001
0001
0000
,
1000
0001
1000
0001
,
1000
1000
0001
0001
,
0100
0010
0100
0000
,
0010
0100
0010
0000
,
0100
0100
0010
0010
,
1000
0100
0001
0010
,
1000
0000
0000
0000
,
0001
0000
0001
1000
,
2002
0000
0000
0000
,
0000
0000
0000
3003
0000
0000
0000
0000
;

//---------------dance-single - Stepped by XREI----------------
#NOTES:
     dance-single:
     Stepped by XREI:
     Easy:
     5:
     0.284,0.376,0.158,0.114,0.000:
0000
0000
0000
0000
,
2000
0000
0000
0000
,
3002
0000
0000
0000
,
2003
0000
0000
0000
,
3000
0000
0000
0000
,
1001
0000
0000
0000
,
1000
0000
0000
0000
,
0001
0000
0000
0000
0000
0000
0000
1001
,
0000
1001
0000
1001
0000
0000
0000
0000
,
0001
1000
0001
1000
,
0001
1000
0001
0000
,
0100
0010
0100
0000
,
0100
0010
0100
0000
,
1000
0001
1000
0001
,
0001
1000
0001
1000
,
1000
0001
1000
0001
,
1001
0000
0000
0000
,
1000
1000
0001
1000
,
0001
0001
1000
0001
,
1000
1000
0001
0001
,
0010
0100
0010
0000
,
0001
0001
1000
0001
,
1000
1000
0001
1000
,
0010
0000
0100
0000
,
0010
0000
0000
0000
,
0000
1000
0000
1000
0000
1000
0000
0001
,
0000
0001
0000
0001
0000
1000
0000
0001
,
0000
1000
1000
1000
,
0001
0001
1000
0001
,
1000
0001
0001
0001
,
1000
1000
1000
0001
,
1000
0001
0001
1000
,
1000
0001
0001
1000
,
0001
1000
0001
1000
,
1001
0000
0000
0000
,
0100
0010
0100
0000
,
0010
0100
0010
0000
,
0010
0100
0010
0000
,
0100
0010
0100
0000
,
1000
0100
0001
0010
,
1000
0100
0001
0010
,
1000
1000
1000
1000
,
2002
0000
0000
0000
,
3003
0000
0000
0000
,
2002
0000
0000
0000
0000
3003
0000
0000
,
2200
0000
0000
0000
0000
0000
0000
3300
,
0022
0000
0000
0000
,
0033
0000
0000
0000
,
1000
1000
1000
0000
,
0001
0001
0001
0000
,
1000
0000
0001
0000
1000
0001
0000
1001
,
0000
1001
0000
1001
0000
0000
0000
0000
,
1001
0000
1000
0100
,
0001
0000
0001
0100
,
1000
0000
1000
0010
,
0001
0000
0001
0010
,
1000
0000
1000
0100
,
0010
0000
0010
0100
,
1000
0000
0000
0000
0000
0000
0000
1001
,
0000
1001
0000
1001
0000
0000
0000
0000
,
1000
1000
0001
1000
,
0001
0001
1000
0001
,
1000
1000
0001
0001
,
1000
1000
0010
0010
,
0100
0010
0100
0000
,
0010
0100
0010
0000
,
0100
0100
0010
0010
,
1000
0100
0001
0010
,
1000
0000
0000
0000
,
0001
0000
0001
1000
,
2002
0000
0000
0000
,
0000
0000
0000
3003
0000
0000
0000
0000
;

//---------------dance-single - Stepped by XREI----------------
#NOTES:
     dance-single:
     Stepped by XREI:
     Medium:
     7:
     0.492,0.552,0.369,0.035,0.018:
0000
0000
0000
0000
,
0001
0000
0010
0000
0001
0000
0000
0000
0010
0000
0000
0010
0000
0000
0010
0000
,
0000
0000
0100
0000
1000
0000
0000
0000
0100
0000
0000
0100
0000
0000
0100
0000
,
0000
0000
1000
0000
0010
0000
0000
0000
1000
0000
0000
1000
0000
0000
1000
0000
,
0000
1000
0100
0010
0001
1000
0100
0010
,
0001
0000
0001
0000
0001
0001
1000
0000
,
1000
0000
0001
0000
1000
1000
0001
0000
,
0001
0000
1000
0000
0000
0000
0000
0101
,
0000
1010
0000
2200
0000
0000
3300
0000
,
1000
0100
1000
0100
1000
0100
1000
0100
,
0010
0001
0010
0001
0010
0001
0010
0001
,
0100
0010
0100
0010
0100
0010
0100
0010
,
0100
0010
1000
0100
0010
0001
0100
0010
,
1000
0001
1000
0001
1000
0001
1000
0001
,
0100
0001
0100
0001
0100
0001
0100
0001
,
1000
0010
1000
0010
1000
0010
1000
0010
,
1010
0000
0000
0000
,
0001
1000
0001
0000
0001
0010
0100
0000
,
1000
0010
0100
0000
0010
0100
0001
0000
,
0010
0100
1000
0000
0001
1000
0010
0000
,
1010
1100
0101
0011
,
1000
0010
1000
0000
0001
0010
0100
0000
,
1000
0010
0100
0000
0001
0010
0100
0000
,
1000
0010
1000
0000
0001
0010
1000
0000
,
0001
0100
1000
0100
0001
0100
1000
0000
,
0000
1100
0000
0110
0000
1010
0000
0101
,
0000
0011
0000
1001
0000
1010
0000
1001
,
0000
0000
0001
0010
0001
0010
0001
0100
,
0000
0000
0000
0010
0000
0000
0001
0001
,
0000
0000
1000
0100
1000
0100
1000
0100
,
0000
0000
0000
0010
0000
0000
1000
1000
,
0000
0000
1000
0000
0010
1000
0000
0000
,
0001
0000
0001
0000
1000
0010
0000
0000
,
0000
0000
1000
0100
0010
0000
0000
0001
,
0000
0000
0001
0000
0010
0001
0000
0000
,
1100
0000
1000
0100
1000
0100
0000
0001
,
0000
0100
0000
0001
0000
0100
0000
1100
,
0000
0000
0001
0000
0010
0001
0010
0000
,
0100
1000
0100
0000
0010
0001
0010
0000
,
0000
0000
1000
0100
0010
0001
0000
1000
,
0000
0100
0000
0010
0000
0001
1000
0001
,
0000
0001
0010
0100
,
0010
0000
0000
0000
0001
0000
0000
0000
1001
0000
0000
1001
0000
0000
1001
0000
,
0000
0000
0000
0000
,
1001
0000
1000
0100
1000
0000
0100
0000
,
0100
0000
1000
0001
1000
0000
0001
0000
,
0001
0000
0001
0100
0001
0000
0001
0000
,
0001
0000
1000
0100
0010
0001
0000
1001
,
0000
0000
0001
0000
0100
0010
1000
0001
,
0000
0000
1000
0001
1000
0001
0000
1000
,
0000
1000
0000
0000
0000
0000
0000
1001
,
0000
1001
0000
2001
0000
0000
3001
0000
,
1000
0000
0001
1000
0000
0001
0000
0001
,
0000
0010
0001
0000
0002
0000
0003
0000
,
0000
1000
0010
1000
0010
1000
0000
1000
,
0100
0010
0001
0000
1000
0100
0000
1001
,
0000
0000
1000
0000
0001
1000
0000
1000
,
0000
0001
1000
0100
0010
0001
0000
1000
,
0000
1000
1000
0000
0000
0000
0000
1001
,
0000
1001
0000
1001
0000
0000
0000
0000
,
0001
1000
0001
0000
0001
0010
0100
0000
,
1000
0010
0100
0000
0010
0100
0001
0000
,
0010
0100
1000
0000
0001
1000
0010
0000
,
1010
1100
0101
0011
,
1000
0010
1000
0000
0001
0010
0100
0000
,
1000
0010
0100
0000
0001
0010
0100
0000
,
1000
0010
1000
0000
0001
0010
1000
0000
,
0001
0100
1000
0100
0001
0100
1000
0000
,
0000
1100
0000
0110
0000
1010
0000
0101
,
0000
0011
0000
1001
0000
1010
0000
1001
;

//---------------dance-single - Stepped by XREI----------------
#NOTES:
     dance-single:
     Stepped by XREI:
     Beginner:
     3:
     0.252,0.345,0.158,0.114,0.000: // measure 1
0000
0000
0000
0000
,  // measure 2
2000
0000
0000
0000
,  // measure 3
3002
0000
0000
0000
,  // measure 4
2003
0000
0000
0000
,  // measure 5
3000
0000
0000
0000
,  // measure 6
1001
0000
0000
0000
,  // measure 7
1000
0000
0000
0000
,  // measure 8
0001
0000
0000
0000
,  // measure 9
1001
1001
1001
0000
,  // measure 10
0001
1000
0001
0000
,  // measure 11
1000
0001
1000
0000
,  // measure 12
0100
0010
0100
0000
,  // measure 13
0100
0010
0100
0000
,  // measure 14
1000
0001
1000
0000
,  // measure 15
0001
1000
0001
0000
,  // measure 16
1000
0001
1000
0000
,  // measure 17
1001
0000
0000
0000
,  // measure 18
1000
0000
1000
0000
,  // measure 19
0001
0000
0001
0000
,  // measure 20
1000
0000
1000
0000
,  // measure 21
0001
0000
1000
0000
,  // measure 22
0001
0000
0001
0000
,  // measure 23
1000
0000
1000
0000
,  // measure 24
0010
0000
0100
0000
,  // measure 25
0010
0000
0000
0000
,  // measure 26
0000
1000
0000
1000
0000
1000
0000
0001
,  // measure 27
0000
0001
0000
0001
0000
1000
0000
0001
,  // measure 28
0000
1000
1000
1000
,  // measure 29
0001
0001
1000
0001
,  // measure 30
1000
0001
0001
0001
,  // measure 31
1000
1000
1000
0001
,  // measure 32
1000
0001
0001
1000
,  // measure 33
1000
0001
0001
1000
,  // measure 34
0001
1000
0001
1000
,  // measure 35
1001
0000
0000
0000
,  // measure 36
0100
0010
0100
0000
,  // measure 37
0010
0100
0010
0000
,  // measure 38
0010
0100
0010
0000
,  // measure 39
0100
0010
0100
0000
,  // measure 40
0001
1000
0001
0000
,  // measure 41
1000
0001
1000
0000
,  // measure 42
1000
1000
1000
1000
,  // measure 43
2002
0000
0000
0000
,  // measure 44
3003
0000
0000
0000
,  // measure 45
2002
0000
0000
3003
,  // measure 46
0220
0000
0000
0330
,  // measure 47
2002
0000
0000
0000
0000
0000
0000
3003
,  // measure 48
0000
0000
0000
0000
,  // measure 49
1000
1000
1000
0000
,  // measure 50
0001
0001
0001
0000
,  // measure 51
1000
0000
0001
0000
1000
0000
0000
1001
,  // measure 52
0000
1001
0000
1001
0000
0000
0000
0000
,  // measure 53
1001
0000
1000
0100
,  // measure 54
1000
0000
0001
0100
,  // measure 55
0001
0000
1000
0010
,  // measure 56
1000
0000
0001
0010
,  // measure 57
0001
0000
0010
0100
,  // measure 58
0010
0000
0001
1000
,  // measure 59
0001
0000
0000
0000
0000
0000
0000
1001
,  // measure 60
0000
1001
0000
1001
0000
0000
0000
0000
,  // measure 61
0001
0001
0001
0000
,  // measure 62
1000
1000
1000
0000
,  // measure 63
1000
0001
1000
0001
,  // measure 64
1000
0000
0001
1000
,  // measure 65
0000
0000
0000
0000
,  // measure 66
0100
0010
0100
0000
,  // measure 67
0100
0100
0010
0010
,  // measure 68
1000
0100
0001
0010
,  // measure 69
1000
0000
0000
0000
,  // measure 70
0001
0000
1000
0000
,  // measure 71
2002
0000
0000
0000
,  // measure 72
0000
0000
0000
3003
0000
0000
0000
0000
;

//---------------dance-single - Stepped by XREI----------------
#NOTES:
     dance-single:
     Stepped by XREI:
     Hard:
     9:
     0.575,0.552,0.659,0.070,0.040:
0000
0000
0000
0000
,
1000
0010
1000
0000
1010
0000
0000
1100
,
0000
1000
0100
0000
1100
0000
0000
1100
,
0000
1000
0001
0000
0110
0000
0000
1001
,
0000
0001
0100
1000
0100
0001
1000
0000
,
1001
0000
1100
0000
1000
0010
1000
0000
,
1001
0000
0011
0000
1000
0001
1000
0000
,
1001
0000
0101
0000
0010
0001
0000
0011
,
0000
1100
0000
2020
0000
0000
3030
0000
,
1000
0010
1000
0100
1000
0010
1000
0100
,
0010
0001
0100
0010
1000
0100
0010
0001
,
0100
1000
0100
0001
0100
1000
0100
0001
,
0100
0010
1000
0100
0010
0001
0100
0010
,
1000
0100
0001
0100
1000
0100
0001
0100
,
1000
0001
0010
0001
0100
0001
0010
0001
,
0100
0001
1000
0100
0010
0001
1000
0100
,
2200
0000
3300
0000
,
1000
0010
1000
0100
0010
0001
0100
0010
,
1000
0100
1000
0010
1000
0001
1001
0000
,
0001
1000
0001
0100
0010
1000
0100
0010
,
0011
0101
1010
1100
,
1000
0100
0001
0100
0010
0001
0100
0010
,
1000
0100
0010
0100
0001
0100
1100
0000
,
1000
0100
1000
0001
0001
0010
0001
0100
,
0010
1000
0100
0010
0001
0100
0010
1000
,
0000
0101
0000
1001
0000
1100
0000
0011
,
0000
1010
0000
0110
0000
1100
0000
0110
,
0000
0000
0001
0010
0100
1000
0010
0200
,
0000
0000
0000
0301
0000
0000
1000
0001
,
0000
0000
1000
0100
0010
0001
0100
0010
,
1000
0000
0110
0000
0011
0000
1000
0100
,
0000
0000
1100
0000
0001
0100
0000
0010
,
0000
0000
0000
0010
0000
0000
0000
0000
1000
0000
0100
0000
0000
0000
0000
0000
,
0000
0000
1000
0100
0010
0001
1000
0001
,
0000
0000
1100
0000
0001
0010
0000
1100
,
0000
1000
0000
0100
1000
0100
0000
0001
,
0000
1100
0000
0110
0000
0011
0000
0110
,
0000
0000
1000
0000
0010
1000
0000
0100
,
0000
0000
0001
0100
1000
0000
1001
0000
,
0000
0000
1000
0001
0001
1000
0000
1100
,
0000
0110
0000
0011
0000
1000
0100
0010
,
0001
0100
0010
1000
0100
0010
0001
0000
,
0100
0000
0000
0000
0000
0000
0000
0000
1001
0000
0000
0110
0000
0000
0011
0000
,
0000
0000
0000
0000
0000
0000
2000
0000
0000
0000
0000
0010
3000
0000
0000
0000
,
1001
0000
0000
0000
0000
0000
2000
0000
0000
0000
0000
0100
3000
0000
0000
1100
,
0000
0000
0001
0010
0000
0100
0000
0000
,
0000
1000
0001
0010
0001
1000
0000
0010
,
1000
0100
0010
0100
1000
0001
0000
1001
,
0000
0000
0001
0000
0100
1000
0010
0001
,
0000
0000
0001
0010
0100
1000
0000
1100
,
0000
0000
0011
0000
0000
0000
0000
0000
1000
0000
0000
0000
0100
0000
0000
0011
,
0000
0000
0000
1100
0000
0000
0000
0012
0000
0000
0000
0000
0013
0000
0000
0000
,
0110
0000
1000
0100
0000
0110
0000
0011
,
0000
0000
0000
1000
0000
0000
0000
0000
0001
0000
0100
0000
0000
0000
0000
0000
,
0000
1000
0100
0010
0001
1000
0000
0001
,
0100
0010
1000
0100
0010
0001
0000
0000
,
0011
0000
1000
0000
0100
0000
0100
1000
,
0001
0000
0001
0000
0010
0001
0000
0000
,
1000
0000
0100
0000
0010
0001
0000
1100
,
0000
0110
0000
0011
0000
0000
0000
0000
,
1000
0010
1000
0100
0010
0001
0100
0010
,
1000
0100
1000
0010
1000
0001
1001
0000
,
0001
1000
0001
0100
0010
1000
0100
0010
,
0011
0101
1010
1100
,
1000
0100
0001
0100
0010
0001
0100
0010
,
1000
0100
0010
0100
0001
0100
1100
0000
,
1000
0100
1000
0001
0001
0010
0001
0100
,
0010
1000
0100
0010
0001
0100
0010
1000
,
0000
0101
0000
1001
0000
1100
0000
0011
,
0000
1010
0000
0110
0000
1100
0000
0110
;
