#TITLE:Fallen Angel;
#SUBTITLE:(El Poko Maro Drum'n'Bass Remix);
#ARTIST:Mitsunori Ikeda feat.Aimee B;
#TITLETRANSLIT:;
#SUBTITLETRANSLIT:;
#ARTISTTRANSLIT:;
#CREDIT:;
#BANNER:Fallen Angel.png;
#BACKGROUND:Fallen Angel-bg.png;
#LYRICSPATH:;
#CDTITLE:;
#MUSIC:Fallen Angel.ogg;
#OFFSET:-0.240;
#SAMPLESTART:65.042;
#SAMPLELENGTH:12.000;
#SELECTABLE:YES;
#BPMS:0.000=176.000,128.000=88.000,160.000=176.000;
#STOPS:;
#BGCHANGES:;

//---------------dance-single - ----------------
#NOTES:
     dance-single:
     :
     Beginner:
     3:
     0.152,0.293,0.046,0.018,0.000:
0000
0000
0000
0000
,
0000
0000
0000
0000
,
0000
0000
0000
0000
,
0000
0000
0000
0000
,
0000
0000
0000
0000
,
0000
0000
0000
0000
,
0000
0000
0000
0000
,
0000
0000
0000
0000
,
1000
1000
1000
0000
,
0001
0001
0001
0000
,
1000
1000
1000
0000
,
0001
0001
0001
0000
,
0000
0100
0000
0000
,
0000
0010
0000
0000
,
0000
0100
0000
0000
,
0000
0010
0000
0000
,
1000
1000
1000
0000
,
0001
0001
0001
0000
,
1000
1000
1000
0000
,
0001
0001
0001
0000
,
0000
0010
0000
0000
,
0000
0100
0000
0000
,
0000
0010
0000
0000
,
0000
0100
0000
0000
,
1000
0000
0000
0000
,
0000
0000
0100
0000
,
1000
0000
0000
0000
,
0000
0000
0001
0000
,
1000
0000
0000
0000
,
0000
0000
0010
0000
,
1000
0001
1000
0001
,
1000
0000
0002
0000
,
1003
0000
0000
0000
,
1001
0000
0000
0000
0001
0000
0100
0100
,
0100
0000
0000
0000
,
0001
1000
0001
1000
,
0000
0100
0100
0000
0000
0000
0000
0000
,
1000
0001
1000
0100
,
0010
0100
0010
0100
,
1000
0001
1000
0002
,
1003
0000
0000
0000
,
1000
0000
0000
0000
,
0001
0000
0000
0000
,
0001
0000
0000
0000
,
0000
1000
1000
0000
,
0000
0001
0001
0000
,
0000
1000
1000
0000
,
0000
0001
0001
0000
,
1001
0000
0000
0000
,
0000
0000
0000
0000
,
0101
0000
0000
0000
,
0000
0000
0000
0000
,
1100
0000
0000
0000
,
0000
0000
0000
0000
,
0110
0000
0000
0000
,
0000
0000
0000
0000
,
1000
1000
1000
0000
,
0001
0001
0001
0000
,
0100
0100
0100
0000
,
0010
0010
0010
0000
,
1000
0000
0001
0000
,
1000
0000
0001
0000
,
1000
1000
0001
0001
,
0010
0010
0100
0100
,
1000
0000
0000
0000
;

//---------------dance-single - ----------------
#NOTES:
     dance-single:
     :
     Easy:
     4:
     0.253,0.440,0.119,0.156,0.000:
0000
0000
0000
0000
,
0000
0000
0000
0000
,
0000
0000
0000
0000
,
0000
0000
0000
0000
,
0000
0000
0000
0000
,
0000
0000
0000
0000
,
0000
0000
0000
0000
,
0000
0000
0000
0000
,
1000
1000
0200
0300
,
0010
0010
0002
0003
,
0100
0100
0020
0030
,
1000
1000
0002
0003
,
0000
1100
0000
0000
,
0000
0101
0000
0000
,
0000
1010
0000
0000
,
0000
0011
0000
0000
,
0001
0001
0020
0030
,
0100
0100
2000
3000
,
0010
0010
0200
0300
,
0001
0001
2000
3000
,
0000
1001
0000
0000
,
0000
0110
0000
0000
,
0000
0101
0000
0000
,
0000
1100
0000
0000
,
2000
0000
3000
0001
,
0000
0100
0001
0000
,
0002
0000
0003
1000
,
0000
0100
1000
0000
,
0200
0000
0300
0010
,
0000
0100
0010
0000
,
0001
0100
0010
1000
,
0001
0000
2000
0000
,
0002
0000
0000
3003
,
1000
0000
0000
0000
0001
0000
0100
0100
,
0100
0000
0000
0000
,
0001
0001
1000
1000
0001
0001
1000
1000
,
0000
0100
0100
0000
1001
0000
0000
0000
,
0100
0100
0010
0010
0100
0000
1000
1000
,
0001
0001
1000
1000
0001
0001
1000
0000
,
0001
0001
1000
1000
0001
0001
1000
0000
,
0001
0000
1000
0000
0100
0100
0100
0000
,
1000
0000
0001
0000
0100
0100
0100
0000
,
0001
0100
0002
0003
,
1000
0100
2000
3000
,
0100
0000
0100
0000
0010
0010
0010
0000
,
0100
0000
0100
0000
1000
1000
1000
0000
,
0001
0100
0002
0003
,
1000
0100
1000
0000
,
1001
0000
0010
0000
,
0100
0000
1001
0000
,
1001
0000
0100
0000
,
0010
0000
1001
0000
,
1000
0000
0010
0000
,
0100
0000
0001
0000
,
1000
0000
0100
0000
,
0010
0000
0001
0000
,
1000
0100
1000
0000
,
0001
0100
0001
0000
,
1000
0010
1000
0000
,
0001
0010
0002
0000
,
1003
0100
1000
0000
,
0001
0100
0001
0000
,
1000
0100
1000
0010
,
0100
0001
1000
0010
,
0100
0000
0000
0000
;

//---------------dance-single - ----------------
#NOTES:
     dance-single:
     :
     Medium:
     8:
     0.418,0.499,0.238,0.101,0.018:
0000
0000
0000
0000
,
0000
0000
0000
0000
,
0000
0000
0000
0000
,
0000
0000
0000
0000
,
0000
0000
0000
0000
,
0000
0000
0000
0000
,
0000
0000
0000
0000
,
0000
0000
0000
0000
,
1000
0000
0001
0010
0001
0010
0001
0000
,
1000
0000
0001
0100
0001
0100
0001
0000
,
1001
0000
1000
0100
1000
0100
1000
0000
,
0001
0000
1000
0010
1000
0010
1000
0000
,
0001
0000
0100
0000
0010
1000
0100
0000
,
1000
0000
0100
0000
0010
0001
0100
0000
,
0001
0000
0110
0000
1000
0001
1000
0000
,
1001
0000
0110
0000
1000
0001
1000
0000
,
0001
0010
0001
1000
0001
0100
0001
0000
,
1000
0010
1000
0001
1000
0100
1000
0000
,
0001
1000
0001
1000
0100
1000
0001
0000
,
1000
0001
1000
0001
0100
0001
1000
0000
,
0010
0100
0010
1000
0001
1000
0001
0000
,
1000
0000
0001
0000
0100
0001
0100
0000
,
0001
0000
1000
0000
0001
1000
0010
0000
,
1010
0000
0001
0000
1000
0001
1000
0000
,
0002
0000
0000
0103
0000
0000
0020
0000
,
0000
1030
0000
0000
0100
0000
0010
0001
,
1000
0000
0000
0100
0000
0000
0020
0000
,
0000
0031
0000
0000
0100
0000
0010
0100
,
0020
0000
0000
2030
0000
0000
3002
0000
,
0000
0203
0000
0000
0300
0000
0001
0010
,
0200
0000
0000
2300
0000
0000
3002
0000
,
0000
0000
0000
0000
,
1003
0000
0000
0100
0000
0000
0010
0000
0000
0001
0000
0000
0100
0000
0010
0000
,
1000
0100
1000
0001
0100
0001
1000
0100
,
0010
0000
0000
0001
0000
0000
0010
0000
0000
0100
0000
0000
1000
0000
0001
0000
,
0100
0001
0010
0100
1000
0100
0010
0001
,
0000
0011
1010
0000
1001
0000
0000
1000
,
0010
1000
0100
0010
0100
1000
0001
0010
,
0001
0100
0010
0100
0001
1000
0100
0000
,
0010
0001
0100
0010
1000
0001
2000
0000
,
3001
0100
0001
1000
,
0001
0010
0001
0100
0001
0010
0001
0000
,
1000
0100
1000
0001
,
1000
0010
1000
0100
1000
0010
1000
0000
,
0001
0000
0100
0000
0010
1000
0100
0000
,
1000
0000
0100
0000
0010
0001
0100
0000
,
0000
0000
1000
0100
1000
0001
0100
0000
,
0000
0000
0001
0100
0001
1000
0100
0000
,
1000
0000
0000
0100
0000
0010
0000
0100
,
0000
1000
0000
0001
0001
0000
0000
0000
,
0001
0000
0000
0100
0000
0010
0000
0100
,
0000
0001
0000
1000
1000
0000
0000
0000
,
1000
0000
0000
0100
0000
0010
0000
0100
,
0000
1000
0000
0001
0001
0000
0000
0000
,
0001
0000
0000
0100
0000
0010
0000
0100
,
0000
0001
0000
1000
1000
0000
0000
0000
,
1001
1001
1100
1100
,
0101
0101
1001
1001
,
0100
0010
1001
1001
,
0101
0000
1001
0000
0100
0100
0000
0000
,
1001
1001
0011
0011
,
1010
1010
0100
0001
,
1000
0100
1000
0100
1000
0001
0100
0001
,
0100
0001
0100
0010
0100
0010
0100
0001
,
1000
0000
0000
0000
;

//---------------dance-single - ----------------
#NOTES:
     dance-single:
     :
     Hard:
     9:
     0.544,0.910,0.339,0.376,0.050: // measure 1
0000
0000
0000
0000
,  // measure 2
0000
0000
0000
0000
,  // measure 3
0000
0000
0000
0000
,  // measure 4
0000
0000
0000
0000
,  // measure 5
0000
0000
0000
0000
,  // measure 6
0000
0000
0000
0000
,  // measure 7
0000
0000
0000
0000
,  // measure 8
0000
0000
0000
0000
,  // measure 9
0010
0001
0010
0100
0010
1000
0010
0000
,  // measure 10
0001
0100
0010
0100
1000
0100
0001
0000
,  // measure 11
1100
0000
0001
0100
1000
0100
0001
0000
,  // measure 12
0110
0000
1000
0100
0001
0100
1000
0000
,  // measure 13
0110
0000
0001
0000
0100
0010
1000
0000
,  // measure 14
0001
0000
1000
0000
0100
0010
0001
0000
,  // measure 15
1000
0000
0110
0000
0001
0010
0001
0000
,  // measure 16
0110
0000
0001
0000
1000
0100
1000
0000
,  // measure 17
0001
0010
0100
1000
0010
0100
0001
0000
,  // measure 18
0010
0100
1000
0001
0100
0001
0010
0000
,  // measure 19
0100
1000
0010
1000
0100
0010
0001
0000
,  // measure 20
1000
0010
0100
0001
0010
0100
1000
0000
,  // measure 21
0010
0100
0001
1000
0100
1000
0010
0000
,  // measure 22
1001
0000
0010
0000
0100
0001
0100
0000
,  // measure 23
1001
0000
0100
0000
0010
1000
0010
0000
,  // measure 24
1001
0000
0010
0000
0001
0010
0001
0000
,  // measure 25
2000
0000
0000
3100
0000
0000
0020
0000
,  // measure 26
0000
0032
0000
0000
0103
0000
0010
1000
,  // measure 27
0002
0000
0000
0103
0000
0000
0020
0000
,  // measure 28
0000
2030
0000
0000
3100
0000
0010
0100
,  // measure 29
0020
0000
0000
0032
0000
0000
2003
0000
,  // measure 30
0000
3200
0000
0000
1300
0000
0001
0010
,  // measure 31
0200
0000
0000
2300
0000
0000
3002
0000
,  // measure 32
0000
0000
0000
0000
,  // measure 33
1003
0000
0000
1100
0000
0000
0010
0000
0000
0101
0000
0000
1001
0000
0110
0000
,  // measure 34
1001
0000
0000
0100
0000
0000
1000
0000
0000
0001
0000
0000
1100
0000
0101
0000
,  // measure 35
1100
0000
0000
0010
0000
0000
0100
0000
0000
0001
0000
0000
2000
0000
3200
0000
,  // measure 36
2300
3002
0203
0320
2030
3020
2030
3001
,  // measure 37
0000
1100
0101
0000
1001
0000
0000
2000
,  // measure 38
3020
0000
2030
0000
3100
1000
0020
0000
0230
0000
0302
0000
0013
0001
0020
0000
,  // measure 39
0230
0000
2300
0000
3002
0000
0203
0000
0310
1000
0020
0000
0230
0000
0302
0000
,  // measure 40
0023
0000
0230
0000
2300
0000
3002
0000
0013
0100
0010
0001
2000
0000
0000
0000
,  // measure 41
3010
0001
0010
0100
0010
1000
0010
0100
,  // measure 42
0001
1000
0100
0010
0001
0010
0001
0000
,  // measure 43
0100
1000
0100
0010
0100
0001
0100
0010
,  // measure 44
1000
0100
0010
0001
1000
0100
1000
0000
,  // measure 45
0011
0000
1000
0010
0100
0010
1000
0000
,  // measure 46
1100
0000
0001
0010
0100
0010
0001
0000
,  // measure 47
1010
0000
1000
0100
0001
0100
1000
0000
,  // measure 48
0101
0000
0001
0100
1000
0100
0001
0000
,  // measure 49
1001
0000
0000
0110
0000
1000
0010
0100
,  // measure 50
0001
0010
0100
1000
1100
0000
0000
0000
,  // measure 51
1001
0000
0000
0110
0000
0001
0010
0100
,  // measure 52
1000
0010
0100
0001
0101
0000
0000
0000
,  // measure 53
1001
0000
0000
1010
0000
1000
0001
1000
,  // measure 54
0001
0100
0010
0100
0101
0000
0000
0000
,  // measure 55
1100
0000
0000
0101
0000
1000
0100
0010
,  // measure 56
0001
0100
0010
1000
0001
0000
0011
0000
,  // measure 57
1000
0001
0010
0100
1000
0010
0100
0001
,  // measure 58
0010
0100
1000
0001
0100
0001
0010
0100
,  // measure 59
0001
0100
1000
0010
1000
0100
0001
0100
,  // measure 60
1000
0010
0001
0010
1000
1100
0000
0101
,  // measure 61
0001
0100
1000
0100
0001
0010
1000
0010
,  // measure 62
0001
0100
0001
0010
1000
0010
0100
1000
,  // measure 63
0010
1000
0001
0010
0100
1000
0010
0100
,  // measure 64
0001
0010
0100
1000
0001
0100
0010
1000
,  // measure 65
0001
0000
0000
0000
;
