#TITLE:Time Bomb;
#SUBTITLE:;
#ARTIST:All Time Low;
#TITLETRANSLIT:;
#SUBTITLETRANSLIT:;
#ARTISTTRANSLIT:;
#GENRE:;
#CREDIT:;
#BANNER:Time Bomb-bn.png;
#BACKGROUND:Time Bomb-bg.png;
#LYRICSPATH:;
#CDTITLE:cdtitle.png;
#MUSIC:Time Bomb.mp3;
#OFFSET:0.160;
#SAMPLESTART:47.740;
#SAMPLELENGTH:13.815;
#SELECTABLE:YES;
#BPMS:0.000=138.980
;
#STOPS:16.000=0.432,
208.000=1.297
;
#BGCHANGES:;
#KEYSOUNDS:;
#ATTACKS:;

//---------------dance-single - Blank----------------
#NOTES:
     dance-single:
     :
     Hard:
     8:
     0.593,0.508,0.324,0.332,0.000,443.000,41.000,42.000,0.000,0.000,0.000,0.593,0.508,0.324,0.332,0.000,443.000,41.000,42.000,0.000,0.000,0.000: // measure 0
0000
0000
0000
0000
,  // measure 1
0000
0000
0000
0000
,  // measure 2
0000
0000
0000
0000
,  // measure 3
0000
0000
0000
0000
,  // measure 4
1001
1000
0001
0010
0020
0000
0031
0000
,  // measure 5
0100
0001
1000
1000
0020
0000
1030
0000
,  // measure 6
0001
0100
0001
1000
0100
1000
0010
0001
,  // measure 7
0010
1000
0100
1000
0100
0010
0001
0100
,  // measure 8
0001
0001
1000
0100
0200
0000
1300
0000
,  // measure 9
0001
0010
1000
1000
0020
0000
0031
0000
,  // measure 10
0100
0010
1000
0100
0010
0100
1000
0001
,  // measure 11
0100
0001
0010
0001
0010
0100
1000
0002
,  // measure 12
0000
1003
0010
0200
0000
0320
0000
2030
,  // measure 13
0000
3100
0010
0002
0000
0013
0001
0001
,  // measure 14
1000
0000
0010
0100
0110
0000
0001
0100
,  // measure 15
0101
0000
1000
0100
1000
0001
0100
0020
,  // measure 16
0000
1030
0100
0002
0000
0203
0000
0320
,  // measure 17
0000
0031
0010
0020
0000
0230
0000
1300
,  // measure 18
0001
0100
0001
1000
0010
0100
1000
0000
,  // measure 19
1000
0100
0001
1000
0100
0010
0001
0200
,  // measure 20
0010
0301
2000
0000
3001
1000
0001
0020
,  // measure 21
0001
0130
0020
0000
0031
0100
0010
1000
,  // measure 22
0100
0000
1100
0000
0101
0000
1000
0001
,  // measure 23
0100
0010
0020
0000
1030
0001
1000
0020
,  // measure 24
1000
0130
0002
0000
1003
0001
0010
0002
,  // measure 25
0010
0103
0020
0000
1030
0001
1000
0200
,  // measure 26
0000
2300
0000
3002
0000
0103
0010
0200
,  // measure 27
0002
0000
0303
0000
0010
1000
0010
1000
,  // measure 28
0110
0000
1010
0000
1000
0001
0100
0002
,  // measure 29
1000
0203
0000
0310
0100
0010
0100
0001
,  // measure 30
1000
0100
0010
0000
0100
0010
0001
1000
,  // measure 31
0001
0000
0110
0000
1100
0100
0001
0000
,  // measure 32
0100
1000
0001
0100
0001
0100
0100
0020
,  // measure 33
1000
0230
0000
0301
0100
0010
1000
0001
,  // measure 34
1000
0100
0010
0100
0010
0001
0100
0001
,  // measure 35
1000
0011
0101
1100
,  // measure 36
1002
0000
0103
0010
1000
0000
1001
0000
,  // measure 37
0100
0010
0100
0001
0100
0001
1000
0000
,  // measure 38
0001
0010
0100
1000
0010
0100
0001
1000
,  // measure 39
0001
0011
1001
1010
,  // measure 40
2001
0000
3010
1000
0001
0000
0110
0000
,  // measure 41
1000
0001
0100
0010
1000
0100
0010
0001
,  // measure 42
0010
0001
1000
0100
1000
0100
0001
0100
,  // measure 43
1000
0010
0100
0001
1000
0100
0010
0001
,  // measure 44
1001
0000
0100
0010
1000
0010
0100
0001
,  // measure 45
0010
0100
1000
0001
0100
1000
0100
0001
,  // measure 46
1000
0100
0001
0100
1000
0010
0100
0001
,  // measure 47
1000
0100
0010
0100
1000
0100
0010
0001
,  // measure 48
1001
0000
0010
0200
0001
0300
0110
0000
,  // measure 49
0001
1000
0010
1000
0100
0010
0001
1000
,  // measure 50
0100
0000
1000
0020
1000
0030
1001
0000
,  // measure 51
1000
1000
0010
1000
0001
0100
0001
0000
,  // measure 52
1001
0000
1010
0000
0101
0000
1000
0100
,  // measure 53
0010
0002
1000
0103
0010
1000
0100
1000
,  // measure 54
0001
0010
0001
1000
0001
0010
0001
0010
,  // measure 55
0100
1000
0001
0000
1100
0000
0011
0100
,  // measure 56
1000
0000
1001
0100
0001
0010
0001
0001
,  // measure 57
1000
0200
0010
1300
0100
0010
0001
1000
,  // measure 58
0010
1000
0001
0010
0001
0100
1000
0100
,  // measure 59
0001
1000
0001
0001
0110
0000
1010
0000
,  // measure 60
0011
0000
1200
0000
0310
0001
0010
0000
,  // measure 61
1001
0000
0100
1000
0001
0100
0010
0100
,  // measure 62
0001
0000
1000
0010
0100
0010
0100
1000
,  // measure 63
0100
0001
1000
0100
0011
0000
1010
0000
,  // measure 64
1100
0000
0201
0000
0310
0100
1000
0000
,  // measure 65
0110
0000
0010
1000
0001
0100
0001
0001
,  // measure 66
1000
0000
0100
1000
0010
0100
0001
1000
,  // measure 67
0001
0100
0100
0010
1000
0001
1000
0100
,  // measure 68
0010
0001
1000
0001
0001
0100
0010
0100
,  // measure 69
0101
0001
1000
0001
0010
0100
0010
0001
,  // measure 70
1001
0100
0020
0000
0000
0000
0000
0000
,  // measure 71
0000
0000
0030
0000
;

//---------------dance-single - Blank----------------
#NOTES:
     dance-single:
     :
     Medium:
     6:
     0.442,0.451,0.197,0.268,0.000,333.000,25.000,34.000,0.000,0.000,0.000,0.442,0.451,0.197,0.268,0.000,333.000,25.000,34.000,0.000,0.000,0.000:
0000
0000
0000
0000
,
0000
0000
0000
0000
,
0000
0000
0000
0000
,
0000
0000
0000
0000
,
0120
1000
0100
1000
,
0001
1000
0001
1030
,
2001
0100
0001
0100
,
0001
0010
0001
3010
,
0102
0010
0100
0010
,
1000
0100
1000
0103
,
2010
0001
0010
0001
,
0100
0010
0100
3010
,
1000
0001
0010
0001
,
0100
0010
1000
0000
0001
0010
0001
1000
,
0200
0000
1300
0100
0010
0001
0001
0000
,
0200
0000
0310
0100
0001
1000
1000
0000
,
0001
0100
0010
0010
,
1000
0100
0010
0000
0010
0100
1000
0001
,
0100
0000
0101
0000
1000
0100
1100
0000
,
0010
0100
0001
0100
0001
1000
0100
1000
,
0000
0001
0000
0000
1000
0100
1000
0100
,
0000
0010
0000
0000
0001
1000
0001
0000
,
1001
0000
1001
0000
0010
0100
0010
0100
,
0000
0010
0000
0000
1000
0010
1000
0010
,
0000
0100
0000
0000
0001
0010
0001
0010
,
0000
0100
0000
0000
1000
0001
1000
0002
,
0000
2003
0000
3020
0000
0230
0000
0302
,
2000
0000
3003
0000
0010
0010
0010
0000
,
1001
0000
1001
0000
1000
0100
1000
0000
,
0002
0000
0023
0000
0130
1000
0001
0100
,
0001
0000
1001
0000
1000
0100
1000
0000
,
0010
0000
0100
0000
0001
0001
0001
0000
,
1001
0000
1001
0000
0010
0100
0010
0000
,
1000
0000
0100
0000
1000
0100
0010
0001
,
1000
0000
0010
0000
0100
0001
0000
0100
,
0010
2000
3200
0320
,
0031
0000
0000
1001
0000
0000
1000
0000
,
0010
1000
0001
0000
0100
0001
1000
0000
,
0010
0100
0010
0100
0010
0000
0100
0000
,
0001
0001
0002
0000
2003
0000
3200
0000
,
1300
0000
0000
1001
0000
0000
0001
0000
,
0010
0001
0010
0000
0100
1000
0100
0000
,
1000
0001
1000
0000
0010
0000
0010
0000
,
0100
0010
0100
0000
0001
0010
0001
1000
,
0200
0000
0000
0000
1300
0000
0001
0100
,
0002
0000
0000
0000
0013
0000
0001
0100
,
0020
0000
0000
0000
0130
0000
0010
1000
,
2000
0000
0000
0000
3001
0000
1000
0010
,
0001
0010
0100
0010
,
1000
0001
1000
0001
,
0100
0010
0100
0010
0100
0010
0100
0010
,
1000
0001
1000
0001
1000
0001
1000
0001
,
1001
0000
0110
0000
1001
0000
0010
0100
,
0010
0000
2000
0000
3002
0000
0013
0001
,
0100
0000
0010
0000
1000
0000
0001
0100
,
0001
0000
1000
0100
1000
0000
0010
0010
,
0010
0000
1001
0000
1001
0000
1000
0100
,
1000
0000
0001
0010
0100
0000
0100
0010
,
0001
0000
1000
0000
0001
0000
1000
0100
,
1000
0000
0010
0010
0020
0000
0230
0000
,
0302
0000
1003
0000
0000
1001
0000
0000
,
0001
0000
0100
0001
0100
0000
0010
0100
,
0010
0000
1000
0100
1000
0000
0001
0000
,
1000
0000
0100
0100
0200
0000
2300
0000
,
3020
0000
0130
0000
0000
1001
0000
0000
,
0010
0000
0001
0100
0001
0000
1000
0100
,
1000
0000
0010
0100
0010
0100
0010
0000
,
1000
0000
0001
0010
0100
1000
0001
0000
,
1000
0000
0001
0100
0000
0001
0100
0000
,
1001
0000
1000
0100
0000
1000
0100
0000
,
0110
2002
0000
0000
,
0000
0000
3003
0000
;

//---------------dance-single - Blank----------------
#NOTES:
     dance-single:
     :
     Easy:
     3:
     0.339,0.367,0.197,0.450,0.000,219.000,25.000,57.000,0.000,0.000,0.000,0.339,0.367,0.197,0.450,0.000,219.000,25.000,57.000,0.000,0.000,0.000:
0000
0000
0000
0000
,
0000
0000
0000
0000
,
0000
0000
0000
0000
,
0000
0000
0000
0000
,
2002
0003
0020
3030
,
2002
3000
0200
0303
,
1000
0100
1000
0001
,
0100
0010
0100
0001
,
2002
0003
0020
3030
,
0202
0300
2000
3003
,
0010
1000
0100
0010
,
0001
0100
0010
1000
,
0002
0103
2000
3100
,
0002
0013
2000
3010
,
0001
0100
0000
0100
,
1000
0100
0000
0100
,
0002
0013
2000
3010
,
0002
0103
2000
3100
,
0002
1003
0000
0010
,
0001
0010
0000
0010
,
1000
0100
0000
0100
,
1000
1000
0000
0010
,
1000
0100
1000
0100
,
1100
1001
0000
1000
,
0010
0100
0000
0001
,
0100
0010
0000
0100
,
0010
0010
0010
0010
,
1000
0001
2002
3003
,
0110
0110
0001
0100
,
0002
0003
1000
1000
,
0010
1000
0100
0010
,
2002
3003
0010
0010
,
1001
0110
0001
0010
,
0200
0300
1000
0001
,
0100
0010
0100
0010
,
2000
3000
0001
0001
,
0220
0000
0000
0330
0000
0000
0010
0000
,
1000
0001
0100
0001
,
0010
0100
1000
0001
,
1000
1000
0100
0010
,
2002
0000
0000
3003
0000
0000
0010
0000
,
1000
0001
0001
0100
,
0010
1000
0001
1000
,
0100
0001
0100
1000
,
0020
0000
0230
0000
,
0302
0000
0023
0100
,
0230
0000
2300
0000
,
3002
0000
0203
0001
,
0310
0000
0000
0010
0000
0000
0010
0000
,
0000
0000
1000
0001
,
0100
0000
0000
0100
0000
0000
0100
0000
,
0001
1000
0001
1000
,
0110
1001
1001
0010
,
1000
0002
0003
0010
,
0001
1000
1000
0010
,
1000
2002
3003
0010
,
1000
0110
1001
1000
,
0010
0200
0300
0001
,
0010
0001
1000
0010
,
0010
0200
0301
1000
,
0001
0000
0022
0000
0000
0033
0000
0000
,
1000
0100
1000
0010
,
0100
0001
1000
0001
,
1000
0001
0010
0100
,
1000
0000
2200
0000
0000
3300
0000
0000
,
0001
0100
0001
1000
,
0010
0100
0001
1000
,
0100
0010
0001
0100
,
0100
2002
0003
0200
,
3300
2002
3000
0200
,
0303
0220
0000
0000
,
0000
0000
0330
0000
;

//---------------dance-single - Blank----------------
#NOTES:
     dance-single:
     :
     Beginner:
     1:
     0.143,0.226,0.063,0.166,0.000,98.000,8.000,21.000,0.000,0.000,0.000,0.143,0.226,0.063,0.166,0.000,98.000,8.000,21.000,0.000,0.000,0.000:
0000
0000
0000
0000
,
0000
0000
0000
0000
,
0000
0000
0000
0000
,
0000
0000
0000
0000
,
0001
0000
1000
0000
,
0001
0000
0000
0000
,
0100
0000
0001
0000
,
0100
0000
0000
0000
,
0010
0000
1000
0000
,
0001
0000
0000
0000
,
1000
0000
0001
0000
,
0100
0000
0000
0000
,
0020
0000
0030
0000
,
2000
0000
3000
0000
,
0002
0000
0000
0000
,
0003
0000
0000
0000
,
0020
0000
0030
0000
,
0002
0000
0003
0000
,
2000
0000
0000
0000
,
3000
0000
0000
0000
,
0010
0000
0000
0000
,
0100
0000
0000
0000
,
1001
0000
0000
0000
,
1001
0000
0000
0000
,
1000
0000
0000
0000
,
0001
0000
0000
0000
,
0010
0000
0010
0000
,
0010
0000
2002
3003
,
1001
0000
1000
1000
,
1000
0000
0001
0000
,
0200
0000
0000
0300
,
0100
0000
0220
0330
,
0110
0000
0001
0001
,
0001
0000
0100
0000
,
0002
0000
0000
0003
,
0001
0000
1000
0000
,
0020
0000
0000
0000
,
0030
0000
0100
0000
,
0100
0000
0010
0000
,
1000
0000
0001
0000
,
2000
0000
0000
0000
,
3000
0000
0001
0000
,
0001
0000
0100
0000
,
0010
0000
0000
0000
,
0100
0000
0000
0000
,
0100
0000
0000
0000
,
0010
0000
0000
0000
,
0010
0000
0000
0000
,
2000
0000
0000
3000
0000
0000
0001
0000
,
0000
0000
0000
0000
,
0002
0000
0000
0003
0000
0000
1000
0000
,
0000
0000
0000
0000
,
0010
0010
0010
0000
,
0000
0100
0000
0000
,
0001
0001
0000
0000
,
0000
1000
0000
0100
,
0100
0100
0000
0000
,
0000
1000
0000
0000
,
0001
0001
0000
0100
,
0000
0010
0000
0010
,
0010
0010
0000
0100
,
0000
0100
0000
0000
,
0001
0001
0000
0000
,
1000
1000
0000
0001
,
0000
1000
0000
0000
,
0010
0010
0000
0000
,
0100
0100
0000
0000
,
0001
0001
0000
0000
,
0000
2002
0000
3003
,
0000
2002
0000
3003
,
0000
0020
0000
0000
,
0000
0000
0030
0000
;
