#TITLE:Oratorio;
#SUBTITLE:World God Only Knows 1st OP;
#ARTIST:Elisa;
#TITLETRANSLIT:;
#SUBTITLETRANSLIT:;
#ARTISTTRANSLIT:;
#CREDIT:TaroNuke;
#BANNER:worldgod.png;
#BACKGROUND:worldgod-bg.png;
#LYRICSPATH:;
#CDTITLE:;
#MUSIC:worldgod.ogg;
#OFFSET:-1.030;
#SAMPLESTART:34.900;
#SAMPLELENGTH:15.000;
#SELECTABLE:YES;
#BPMS:0.000=170.000,155.000=165.004,156.000=160.005,157.000=150.000,158.021=140.000,160.000=135.000,162.000=130.000;
#STOPS:155.000=0.001
,156.000=0.002
,157.000=0.002
,158.000=0.002
,162.000=0.002
;
#BGCHANGES:0.000=worldgod.avi=1.000=1=1=0,
224.000=worldgod-bg.png=1.000=1=0=1,
99999=-nosongbg-=1.000=0=0=0 // don't automatically add -songbackground-
;

//---------------dance-single - TaroNuke----------------
#NOTES:
     dance-single:
     TaroNuke:
     Hard:
     8:
     0.592,0.607,0.426,0.134,0.000: // measure 1
0000
0000
0000
0000
,  // measure 2
0000
0000
0000
0000
,  // measure 3
0000
0000
0000
0000
,  // measure 4
0000
0000
0000
0000
,  // measure 5
1000
0100
0010
0100
1000
0100
0010
0100
,  // measure 6
1000
0001
0010
0100
1000
0100
0010
0001
,  // measure 7
1000
0010
0100
0010
1000
0010
0100
0010
,  // measure 8
1000
0001
0100
0010
1000
0010
0100
0001
,  // measure 9
1000
1100
0001
0101
,  // measure 10
1000
0100
1000
0000
0001
0100
0001
0000
,  // measure 11
1000
0100
0010
0001
0010
0100
1000
0000
,  // measure 12
0001
0000
0101
0000
1000
0010
0100
0001
,  // measure 13
1000
1010
0001
0011
,  // measure 14
1000
0010
1000
0000
0001
0010
0001
0000
,  // measure 15
1000
0010
0100
0001
0100
0010
1000
0000
,  // measure 16
0001
0000
0011
0000
1000
0010
0100
0000
,  // measure 17
0001
0101
1000
1100
,  // measure 18
0001
0100
0001
0000
1000
0100
1000
0000
,  // measure 19
0001
0010
0100
1000
0100
0010
0001
0000
,  // measure 20
1000
0000
1100
0000
0001
0100
0010
1000
,  // measure 21
0001
0000
1000
0100
1000
0000
0010
0200
,  // measure 22
0000
0000
0301
0020
0000
0032
0000
0000
,  // measure 23
2003
3000
0200
0300
,  // measure 24
0020
0032
2003
3020
,  // measure 25
0130
0101
0010
1100
,  // measure 26
0010
0000
0101
0000
1000
0100
1000
0000
,  // measure 27
0001
0110
1000
0110
,  // measure 28
0001
1000
0100
0000
0010
0001
1000
0000
,  // measure 29
0100
1010
0100
0011
,  // measure 30
0100
0000
1010
0000
0001
0100
0001
0000
,  // measure 31
1100
0000
1000
1010
0000
0010
0110
0000
,  // measure 32
0100
0101
0000
0001
0011
0000
1001
0000
,  // measure 33
1000
0010
0100
0000
0001
0010
0100
0000
,  // measure 34
1000
0010
0100
0000
0001
0010
0100
0000
,  // measure 35
1000
0100
0001
0100
1000
0010
0001
0010
,  // measure 36
1000
0100
0010
0001
0100
0010
1000
0100
,  // measure 37
0020
0001
0100
0001
,  // measure 38
0100
0001
0100
0001
,  // measure 39
0031
0011
0110
1100
,  // measure 40
1010
1001
0101
1001
,  // measure 41
1000
0100
0010
0100
1000
0010
0100
0010
,  // measure 42
1000
0100
0001
0100
1000
0010
0001
0010
,  // measure 43
1000
0100
0010
0001
0100
0010
0001
0010
,  // measure 44
0100
0001
0010
0100
1000
0100
0010
0001
,  // measure 45
0011
0000
0100
0010
1010
0000
0001
0100
,  // measure 46
0101
0000
1000
0100
1100
0000
0010
0100
,  // measure 47
0110
0000
0001
0100
0101
0000
1000
0010
,  // measure 48
1010
0010
0100
0001
0011
0010
0001
0100
,  // measure 49
0001
1000
0001
1000
0010
1000
0010
1000
,  // measure 50
0100
0010
0100
0010
0001
0100
0001
0100
,  // measure 51
0010
0100
0010
0100
0010
1000
0010
1000
,  // measure 52
0001
0010
0001
0010
0100
1000
0100
1000
,  // measure 53
0001
0100
1000
0100
0001
0010
1000
0010
,  // measure 54
0001
0010
0100
0010
0001
0100
0010
0100
,  // measure 55
0001
0010
0100
1000
0001
0100
0010
1000
,  // measure 56
0010
0100
1000
0100
0010
1000
0100
0020
,  // measure 57
0032
0000
0000
0000
,  // measure 58
0003
0000
0000
0000
;

//---------------dance-single - TaroNuke----------------
#NOTES:
     dance-single:
     TaroNuke:
     Beginner:
     1:
     0.170,0.282,0.090,0.202,0.000:
0000
0000
0000
0000
,
0000
0000
0000
0000
,
0000
0000
0000
0000
,
0000
0000
0000
0000
,
1000
0000
0000
0000
0000
0000
0000
0010
,
0000
0000
0000
0000
,
0001
0000
0000
0001
0000
0000
0000
0100
,
0000
0000
0000
0000
,
1000
0000
1000
0000
,
0010
0000
0010
0000
,
0100
0000
0100
0000
,
0001
0000
0000
0000
,
0001
0000
0001
0000
,
0100
0000
0100
0000
,
0010
0000
0010
0000
,
1000
0000
0000
0000
,
1000
0000
0100
0000
,
0001
0000
0000
0000
,
1000
0000
0010
0000
,
0001
0000
0000
0000
,
1000
0000
0010
0000
,
0001
0000
0000
0000
,
1000
0000
0100
0000
,
0001
0000
0010
0000
,
0200
0300
2000
3000
,
0200
0300
0000
0000
,
0002
0003
0200
0300
,
0002
0003
0000
0000
,
0020
0030
2000
3000
,
0020
0030
0000
0000
,
0001
0000
0001
0000
,
0001
0000
0000
0000
,
2000
3000
0020
0030
,
0200
0300
0000
0000
,
0002
0003
0020
0030
,
0200
0300
0000
0000
,
2002
0000
0000
0000
,
3003
0000
0000
0000
,
0000
0020
0000
0000
,
0000
0000
0000
0000
,
1030
0000
0001
0000
,
0100
0000
0001
0000
,
1000
0000
0100
0000
,
0010
0000
0001
0000
,
1001
0000
1100
0000
,
0101
0000
1001
0000
,
1000
0000
1100
0000
,
0001
0000
0101
0000
,
1000
0000
0000
0000
,
0001
0000
0000
0000
,
0100
0000
0000
0000
,
0010
0000
0000
0000
,
1000
0000
0100
0000
,
0010
0000
0001
0000
,
1000
0000
0010
0000
,
0100
0000
0000
0000
,
1001
0000
0000
0000
;

//---------------dance-single - TaroNuke----------------
#NOTES:
     dance-single:
     TaroNuke:
     Easy:
     4:
     0.314,0.475,0.090,0.426,0.000:
0000
0000
0000
0000
,
0000
0000
0000
0000
,
0000
0000
0000
0000
,
0000
0000
0000
0000
,
0100
1000
0100
1000
,
0001
0100
0001
0100
,
0010
1000
0010
1000
,
0001
0010
0001
0010
,
0100
0100
0100
0000
,
1000
0010
1000
0000
,
0002
0000
0103
0000
,
1000
0100
0010
0001
,
0010
0010
0010
0000
,
0001
0100
0001
0000
,
2000
0000
3010
0000
,
0001
0100
0010
1000
,
0001
0001
0001
0000
,
1000
0100
0010
0100
,
2000
0000
3001
0000
,
1000
0100
0010
0001
,
1000
1000
1000
0000
,
0001
0100
0010
0100
,
0002
0003
0020
0030
,
0200
2300
3020
0230
,
0301
0001
0001
0000
,
0100
0100
0100
0000
,
0010
0010
0010
0000
,
1000
1000
1000
0000
,
0100
0100
0100
0000
,
0010
0010
0010
0000
,
2000
0000
3000
0002
0000
0003
0200
0000
,
0300
0020
0000
0030
1000
0000
0001
0000
,
1000
0010
1000
0010
,
0100
0001
0100
0001
,
0010
0100
0010
0100
,
1000
0010
1000
0010
,
0200
0000
0000
0000
,
0000
0000
0300
0000
,
0000
0020
2030
3002
,
0203
0320
0230
0302
,
1003
0000
0001
0000
,
1000
0000
0010
0000
,
0100
0000
0010
0000
,
1000
0001
1000
0001
1000
0000
0000
0000
,
0011
0000
1100
0000
,
0101
0000
1010
0000
,
0110
0000
1001
0000
,
1100
0000
0101
0000
,
2000
0000
3002
0000
,
0203
0000
0320
0000
,
2030
0000
3200
0000
,
0320
0000
0032
0000
,
2003
0000
3002
0000
,
0203
0000
0320
0000
,
0230
0000
0302
0000
,
2003
0000
3200
0000
,
0320
0000
0030
0000
;

//---------------dance-single - TaroNuke----------------
#NOTES:
     dance-single:
     TaroNuke:
     Medium:
     6:
     0.394,0.475,0.056,0.168,0.000:
0000
0000
0000
0000
,
0000
0000
0000
0000
,
0000
0000
0000
0000
,
0000
0000
0000
0000
,
1000
0100
1000
0000
0001
0100
0001
0000
,
1000
0100
0010
0000
0100
1000
0010
0000
,
0100
0001
0100
0000
0010
1000
0010
0000
,
0100
0001
0010
0000
0100
0010
0001
0000
,
1000
0100
1000
0100
,
0001
0100
0001
0100
,
1000
0010
0001
0000
,
1000
0010
0001
0000
,
0001
0100
0001
0100
,
1000
0100
1000
0100
,
0001
0010
1000
0000
,
0001
0010
1000
0000
,
1000
0010
1000
0010
,
0001
0010
0001
0010
,
1000
0100
0001
0000
,
1000
0100
0001
0000
,
0001
0010
0001
0010
,
1000
0010
1000
0010
,
0002
0003
0200
0300
,
0020
2030
3200
0320
,
0031
0001
0001
0001
,
0100
0100
0100
0100
,
0010
0010
1000
1000
,
0010
0010
0100
0100
,
0001
0001
0001
0001
,
1000
1000
1000
1000
,
1100
0000
0000
1100
0000
0000
0110
0000
,
0000
0011
0000
0000
1001
0000
1000
0000
,
0001
0100
0001
0000
1000
0010
1000
0000
,
0001
0010
0001
0000
1000
0100
1000
0000
,
0001
0010
0100
0000
1000
0100
0010
0000
,
0001
0100
0010
0100
0001
0010
0100
0000
,
2000
0000
0000
0000
,
0000
0000
0000
0000
,
0000
3020
0230
0320
,
2030
3020
0230
0302
,
1003
0000
0100
1000
0010
0000
0100
0001
,
0010
0000
0100
1000
0100
0000
0010
0001
,
0010
0000
0100
1000
0010
0000
0100
0001
,
0100
0000
0010
1000
0010
0100
0010
0000
,
1000
0000
0100
0010
0001
0000
0010
0100
,
1000
0000
0010
0100
0001
0000
0010
0001
,
1000
0000
0100
1000
0001
0000
0010
0001
,
0100
0000
0001
0010
0001
0100
0001
0000
,
1000
1000
0001
0001
,
0100
0100
0010
0010
,
1000
1000
0001
0001
,
0010
0010
0100
0100
,
1000
1000
0010
0010
,
0100
0100
0001
0001
,
1000
1000
0010
0010
,
0100
0000
0001
0000
1000
0010
0100
0001
,
0020
0000
0030
0000
;
