#TITLE:Marunouchi survivor;
#SUBTITLE:;
#ARTIST:DJ SHARPNEL;
#TITLETRANSLIT:;
#SUBTITLETRANSLIT:;
#ARTISTTRANSLIT:;
#GENRE:Anime Remix;
#CREDIT:AznPunk07/Frozen_Heat/GuardianFrozen;
#MENUCOLOR:#fe638d;
#METERTYPE:DDR;
#BANNER:Marunouchi surviver-bn.png;
#BACKGROUND:[Week 3] - Marunouchi survivor-bg.png;
#LYRICSPATH:;
#CDTITLE:!cdtitle.png;
#MUSIC:Marunouchi surviver.mp3;
#OFFSET:-0.075;
#SAMPLESTART:46.785;
#SAMPLELENGTH:9.600;
#SELECTABLE:YES;
#LISTSORT:;
#DISPLAYBPM:200.000;
#BPMS:0.000=200.400,31.500=100.200,31.625=200.400,31.750=400.800,32.000=200.400,424.000=100.200,424.250=200.400,424.500=400.800,425.000=200.400,426.000=100.200,426.250=200.400,426.500=400.800,427.000=200.400;
#STOPS:;
#BGCHANGES:83.000=[Week 3] - Marunouchi survivor.avi=1.000=1=0=1,
95.750=[Week 3] - Marunouchi survivor.avi=0.000=0=0=1,
99.000=[Week 3] - Marunouchi survivor.avi=0.900=0=0=1,
192.000=[Week 3] - Marunouchi survivor.avi=1.000=0=0=1,
252.000=[Week 3] - Marunouchi survivor.avi=1.200=0=0=1,
272.000=[Week 3] - Marunouchi survivor.avi=1.000=0=0=1,
296.000=[Week 3] - Marunouchi survivor.avi=1.800=0=0=1,
364.000=[Week 3] - Marunouchi survivor.avi=1.000=0=0=1,
428.000=[Week 3] - Marunouchi survivor.avi=1.600=0=0=1,
440.000=[Week 3] - Marunouchi survivor-bg.png=1.000=1=0=1,
99999=-nosongbg-=1.000=0=0=0 // don't automatically add -songbackground-
;
#ATTACKS:;

//---------------dance-single - ----------------
#NOTES:
     dance-single:
     :
     Hard:
     9:
     0.731,0.786,0.421,0.195,0.120: // measure 1
0020
0100
1000
0100
,  // measure 2
1030
0100
1000
0100
,  // measure 3
0010
0001
0100
0001
,  // measure 4
0010
0000
0001
0000
1000
0000
0001
0010
,  // measure 5
0100
1000
0001
0100
,  // measure 6
0001
1000
0010
0100
,  // measure 7
0010
1000
0001
0010
,  // measure 8
0100
0020
0000
0032
0000
2003
0000
3001
,  // measure 9
0100
0000
0000
0001
0000
0000
0100
0000
0010
0000
0000
1000
0000
0000
0010
0000
,  // measure 10
1000
0000
0000
0100
0000
0000
1000
0000
0001
0000
0000
0010
0000
0000
0001
0000
,  // measure 11
1000
0000
0000
0100
0000
0000
0010
0000
0100
0000
0000
1000
0000
0000
0001
0000
,  // measure 12
0100
0000
0000
0010
0000
0000
0100
0000
0001
0000
0000
1000
0000
0000
0001
0000
,  // measure 13
0010
0000
0000
0100
0000
0000
0010
0000
0001
0000
0000
0100
0000
0000
0001
0000
,  // measure 14
1000
0000
0000
0001
0000
0000
1000
0000
0010
0000
0000
0100
0000
0000
0010
0000
,  // measure 15
1000
0000
0000
0100
0000
0000
1000
0000
0001
0000
0000
1000
0000
0000
0001
0000
,  // measure 16
0100
0020
0000
2030
0000
3002
0000
0013
,  // measure 17
0100
0000
0000
1000
0000
0000
0001
0000
0100
0000
0000
1000
0000
0000
0001
0000
,  // measure 18
1000
0000
0000
0100
0000
0000
0001
0000
1000
0000
0000
0100
0000
0000
0001
0000
,  // measure 19
0100
0000
0000
0010
0000
0000
0001
0000
0100
0000
0000
0010
0000
0000
0001
0000
,  // measure 20
1000
0000
0000
0100
0000
0000
0010
0000
1000
0000
0000
0100
0000
0000
0010
0000
,  // measure 21
1000
0000
0000
0010
0000
0000
0001
0000
1000
0000
0000
0010
0000
0000
0001
0000
,  // measure 22
0010
0000
0000
0100
0000
0000
0001
0000
0010
0000
0000
0100
0000
0000
0001
0000
,  // measure 23
0100
0000
0000
1000
0000
0000
0001
0000
0100
0000
0000
1000
0000
0000
0001
0000
,  // measure 24
0010
0000
0100
0000
0010
0000
0100
0000
0010
0100
0010
0100
0010
0100
0010
0100
,  // measure 25
0020
0000
0000
0000
,  // measure 26
0000
0000
0000
0000
,  // measure 27
0000
0000
0000
0030
,  // measure 28
1000
0000
1010
0000
0001
0010
0000
0011
,  // measure 29
0000
0100
1000
0100
1000
0000
1001
0000
,  // measure 30
0001
0100
0010
0100
0000
0010
1000
0010
,  // measure 31
0000
1000
0100
0010
0001
0000
0011
0000
,  // measure 32
0100
1000
0000
1000
0001
1000
0001
0000
,  // measure 33
0001
0200
0000
0320
0000
1030
0000
0000
,  // measure 34
1000
0010
0000
0100
0010
0100
0010
0000
,  // measure 35
0010
2000
0000
3002
0000
0103
0010
0100
,  // measure 36
0001
1000
0100
0000
0010
0001
0000
0010
,  // measure 37
0000
1000
0010
0001
0010
0100
1000
0000
,  // measure 38
0100
1000
0010
0100
0000
1000
0010
0100
,  // measure 39
0000
1000
0010
0100
0001
0000
0101
0000
,  // measure 40
1000
0010
0000
1000
0010
0001
0010
0000
,  // measure 41
0100
0002
0000
2003
0000
3100
0000
1000
,  // measure 42
0100
0010
0000
0100
0010
0001
0010
0000
,  // measure 43
0100
1000
0000
0020
0000
0230
0001
0300
,  // measure 44
0010
0100
0001
0000
0010
0100
0000
1000
,  // measure 45
0000
0001
1000
0010
0100
1000
0100
0000
,  // measure 46
0010
1000
0100
0001
0000
1000
0100
0001
,  // measure 47
0000
1000
0100
0001
0100
0000
0110
0000
,  // measure 48
0011
0000
0100
1000
0100
0010
0000
0100
,  // measure 49
0000
1000
0000
0001
0000
0100
0001
0000
,  // measure 50
1000
0010
0001
0010
0000
0100
0001
0100
,  // measure 51
0000
0001
1000
0000
0100
0010
1000
0010
,  // measure 52
0001
0100
0010
0100
0000
0010
1000
0100
,  // measure 53
0000
0100
1000
0000
0001
0000
0010
0100
,  // measure 54
1000
0001
0100
0001
0000
0100
0001
0000
,  // measure 55
1000
0000
0100
0010
0000
0100
1000
0000
,  // measure 56
0001
0000
0100
0010
0001
0010
0000
0200
,  // measure 57
0000
0000
1000
0000
0310
1000
0100
0010
,  // measure 58
0100
0000
1000
0010
0000
0010
0100
0002
,  // measure 59
0000
0000
0010
0000
1003
0010
0001
0010
,  // measure 60
0100
0010
0010
2000
0000
3100
0000
0200
,  // measure 61
0000
0310
0000
0100
0000
0010
0001
1000
,  // measure 62
0001
0001
0100
0002
0000
0013
0100
0010
,  // measure 63
0000
0001
0000
0010
0000
0100
1000
0100
,  // measure 64
0000
1000
0000
1001
0000
0010
0100
0010
,  // measure 65
0000
0001
0000
1001
0000
0100
0010
0001
,  // measure 66
0000
1000
0000
1001
0000
0001
0100
0001
,  // measure 67
0010
0000
0100
1000
0010
2000
0000
3001
,  // measure 68
0000
0001
0100
0001
0000
0010
0001
1000
,  // measure 69
0000
0010
1000
0100
0000
1000
0010
1000
,  // measure 70
0000
0010
0100
0001
0000
0010
0100
1000
,  // measure 71
0100
0000
0010
0001
0010
0100
1000
0000
,  // measure 72
0001
0000
0101
0000
1000
0100
0000
1100
,  // measure 73
0000
0010
1000
0010
0000
0100
0001
0100
,  // measure 74
0010
1000
0100
1000
0000
0010
0100
0001
,  // measure 75
0000
0010
0001
0010
0001
0000
0011
0000
,  // measure 76
1100
0000
1010
0000
1100
0000
0010
0200
,  // measure 77
0000
1000
0000
0310
0000
0001
0100
0001
,  // measure 78
0021
0000
0100
0000
0001
0000
0130
1000
,  // measure 79
0000
1010
0000
0011
0000
1000
0010
0100
,  // measure 80
0101
0000
1001
0000
0011
0000
0100
2000
,  // measure 81
0000
0010
0000
3001
0000
0100
0001
0000
,  // measure 82
0012
0000
0100
0000
0013
0000
0100
1000
,  // measure 83
0000
0001
0010
0100
1100
0000
0011
0000
,  // measure 84
1010
0000
0100
0000
1010
0000
0100
0001
,  // measure 85
0000
0101
0000
1100
0000
0010
0100
1000
,  // measure 86
0100
0000
0011
0000
0100
0000
0001
1000
,  // measure 87
0000
1001
0000
0101
0000
1000
0001
1000
,  // measure 88
0100
0000
1100
0000
1001
0000
0001
0100
,  // measure 89
0000
0101
0000
0011
0000
0100
0010
0000
,  // measure 90
0100
0000
0110
0000
1001
0000
1000
0010
,  // measure 91
0000
1000
0010
0100
0001
1000
0001
1000
,  // measure 92
0001
0100
0000
0001
0010
0001
1000
0000
,  // measure 93
0010
1000
0000
1010
0000
1000
0001
1000
,  // measure 94
0100
0010
0000
0100
1000
0100
0010
0000
,  // measure 95
0001
1000
0000
0101
0000
0010
0100
0001
,  // measure 96
0010
1000
0010
0100
0010
0001
1000
0001
,  // measure 97
0000
1000
0010
0100
0010
1000
0001
0000
,  // measure 98
1010
0000
0101
0000
0110
0000
0010
1000
,  // measure 99
0000
1010
0000
0100
0010
1000
0001
0010
,  // measure 100
0100
1000
0000
0100
0010
0100
0001
0000
,  // measure 101
0100
1000
0000
1100
0000
0001
0010
0100
,  // measure 102
1000
0000
1010
0000
1001
0000
0010
1000
,  // measure 103
0000
1100
0000
0011
0000
0100
0010
0100
,  // measure 104
1000
0001
1000
0000
0001
0100
0000
0001
,  // measure 105
0000
0010
0001
1000
0010
0100
0010
0000
,  // measure 106
1000
0000
0011
0000
1001
0000
0001
0100
,  // measure 107
0010
0000
1000
0010
1000
0000
0001
0000
,  // measure 108
1000
0000
0110
0000
0001
0010
0000
0011
,  // measure 109
0000
0100
1000
0100
0000
0010
0100
1000
,  // measure 110
0100
0010
0000
1100
0000
1001
0000
0001
,  // measure 111
0101
0000
0000
0000
;

//---------------dance-single - ----------------
#NOTES:
     dance-single:
     :
     Easy:
     6:
     0.437,0.538,0.444,0.128,0.000: // measure 1
0000
0000
0000
0000
,  // measure 2
0000
0000
0000
0000
,  // measure 3
0000
0000
0000
0000
,  // measure 4
0000
0000
0000
0000
,  // measure 5
0001
0000
0100
0000
,  // measure 6
0010
0000
1000
0000
,  // measure 7
0001
0000
0010
0000
,  // measure 8
0100
0010
0001
1000
,  // measure 9
0010
0000
1000
0000
,  // measure 10
0001
0000
0100
0000
,  // measure 11
0010
0000
1000
0000
,  // measure 12
0001
0000
0010
0000
,  // measure 13
0100
0000
0010
0000
,  // measure 14
0001
0000
1000
0000
,  // measure 15
0010
0000
0100
0000
,  // measure 16
0001
0010
0001
1000
,  // measure 17
0010
0000
0100
0000
,  // measure 18
0001
0000
1000
0000
,  // measure 19
0100
0000
0010
0000
,  // measure 20
0100
0000
1000
0001
,  // measure 21
0100
0000
0000
0000
,  // measure 22
0010
0000
0000
0000
,  // measure 23
1000
0000
0001
0000
,  // measure 24
1000
0100
0010
0001
,  // measure 25
2002
0000
0000
0000
,  // measure 26
0000
0000
0000
0000
,  // measure 27
0000
0000
0000
3003
,  // measure 28
1001
0000
0100
0000
1001
0000
0000
0010
,  // measure 29
0000
0100
0010
0000
,  // measure 30
0001
0000
0000
0011
0000
0000
0000
1000
,  // measure 31
0000
0000
1010
1001
,  // measure 32
0001
0010
0100
0010
,  // measure 33
0002
0100
1000
0003
,  // measure 34
1000
0010
0100
0001
,  // measure 35
2000
0100
0001
3000
,  // measure 36
0010
0010
0200
0000
,  // measure 37
0301
1000
0001
1000
,  // measure 38
0100
0000
0011
0000
,  // measure 39
0100
0000
1010
0000
,  // measure 40
0001
0100
0010
1000
,  // measure 41
0020
0100
1000
0030
,  // measure 42
0100
0001
1000
0100
,  // measure 43
0020
0001
0100
0030
,  // measure 44
0001
1000
1100
0000
,  // measure 45
1000
0001
0101
1000
,  // measure 46
0001
0000
0000
1010
0000
0000
0000
1000
,  // measure 47
0000
0000
0011
1001
,  // measure 48
1000
0000
0100
0000
0010
0000
0000
0001
,  // measure 49
0000
1000
0001
0000
,  // measure 50
0100
0000
0010
0000
1000
0000
0000
0010
,  // measure 51
0000
0100
0001
0000
,  // measure 52
1000
0100
0010
0100
,  // measure 53
1000
0010
0100
0000
,  // measure 54
0001
0010
0100
0010
,  // measure 55
0001
0100
0010
0010
,  // measure 56
1000
0000
0000
1010
0000
0000
0000
0001
,  // measure 57
0000
1000
0001
0000
,  // measure 58
0001
0000
0000
0011
0000
0000
0000
1000
,  // measure 59
0000
0001
0100
0000
,  // measure 60
0010
0100
0010
0000
,  // measure 61
1000
0001
1000
0000
,  // measure 62
0001
0001
0010
0100
,  // measure 63
0010
0001
1000
0001
,  // measure 64
0202
0000
0303
0000
,  // measure 65
2200
0000
3300
0000
,  // measure 66
0022
0000
0033
0000
,  // measure 67
2020
0000
3030
0000
,  // measure 68
0001
1000
0100
0010
,  // measure 69
0001
1000
0010
0100
,  // measure 70
0010
1000
0001
0010
,  // measure 71
0100
0010
0001
1000
,  // measure 72
1010
0100
0011
1000
,  // measure 73
1010
0001
0011
0100
,  // measure 74
1100
0000
0000
0101
0000
0000
0000
1100
,  // measure 75
0000
0000
0101
0110
,  // measure 76
0101
0010
0101
0010
,  // measure 77
1000
0001
0100
0010
,  // measure 78
1100
0001
1100
0001
,  // measure 79
0100
0010
1000
0001
,  // measure 80
0110
0110
0001
1000
,  // measure 81
0001
0100
1010
1010
,  // measure 82
0011
0100
0011
0100
,  // measure 83
1000
0001
1000
0000
,  // measure 84
1010
0100
1010
0100
,  // measure 85
0001
1000
0001
0010
,  // measure 86
1001
0100
1001
0100
,  // measure 87
0001
1000
0010
0100
,  // measure 88
0110
0110
1000
0001
,  // measure 89
1000
0100
0011
1001
,  // measure 90
0101
0010
1000
0001
,  // measure 91
1000
0100
0010
0100
,  // measure 92
1000
0100
0000
0100
1000
0000
1000
0000
,  // measure 93
0001
0100
0001
0010
,  // measure 94
0001
0100
0000
0100
0001
0000
1000
0000
,  // measure 95
0010
0100
0001
1000
,  // measure 96
1100
0001
0100
0001
,  // measure 97
0101
1000
1001
0110
,  // measure 98
1001
0010
0100
0001
,  // measure 99
1000
0100
0010
0001
,  // measure 100
1100
0001
1000
0001
,  // measure 101
0100
0001
0000
0100
0000
0001
0000
0000
,  // measure 102
1000
0110
0001
0110
,  // measure 103
0001
1000
0000
0010
0000
1000
0000
0000
,  // measure 104
0001
1000
1001
0000
,  // measure 105
0010
0100
0110
0110
,  // measure 106
0001
1000
0010
0100
,  // measure 107
0020
0030
0200
0300
,  // measure 108
0001
0000
1000
0000
1001
0000
0000
0100
,  // measure 109
0000
0010
0100
0001
,  // measure 110
1000
0100
0000
0001
0000
0100
0000
1000
,  // measure 111
0001
0000
0000
0000
;

//---------------dance-single - ----------------
#NOTES:
     dance-single:
     :
     Medium:
     8:
     0.579,0.579,0.301,0.060,0.124: // measure 1
0002
0000
0100
0000
0000
0100
0000
0000
,  // measure 2
0013
0000
0100
0000
0000
0100
0000
0000
,  // measure 3
1000
0000
0001
0000
0000
0001
0000
0000
,  // measure 4
0100
0000
0010
0000
0000
0010
0000
0000
,  // measure 5
1000
0000
0100
0000
0000
0100
0000
0000
,  // measure 6
1000
0000
0001
0000
0000
0001
0000
0000
,  // measure 7
0100
0000
0010
0000
0000
0010
0000
0000
,  // measure 8
1000
0001
0000
1000
0000
0001
0000
0000
,  // measure 9
1000
0000
0000
0100
0000
0000
0000
0000
1000
0000
0000
0100
0000
0000
0000
0000
,  // measure 10
0010
0000
0000
0001
0000
0000
0000
0000
0010
0000
0000
0001
0000
0000
0000
0000
,  // measure 11
1000
0000
0000
0010
0000
0000
0000
0000
1000
0000
0000
0001
0000
0000
0000
0000
,  // measure 12
1000
0000
0000
0100
0000
0000
0000
0000
0010
0000
0000
0001
0000
0000
0000
0000
,  // measure 13
0100
0000
0000
0001
0000
0000
0000
0000
1000
0000
0000
0001
0000
0000
0000
0000
,  // measure 14
0010
0000
0000
0001
0000
0000
0000
0000
0010
0000
0000
0001
0000
0000
0000
0000
,  // measure 15
0010
0000
0000
0001
0000
0000
0000
0000
1000
0000
0000
0010
0000
0000
0000
0000
,  // measure 16
0100
0000
0000
0010
0000
0000
0000
0000
1000
0000
0000
0100
0000
0000
0000
0000
,  // measure 17
0010
0000
0000
0001
0000
0000
0000
0000
0001
0000
0000
1000
0000
0000
0000
0000
,  // measure 18
0010
0000
0000
1000
0000
0000
0000
0000
1000
0000
0000
0100
0000
0000
0000
0000
,  // measure 19
0010
0000
0000
0100
0000
0000
0000
0000
0100
0000
0000
1000
0000
0000
0000
0000
,  // measure 20
1000
0000
0000
0001
0000
0000
0000
0000
0100
0000
0000
0001
0000
0000
0000
0000
,  // measure 21
0001
0000
0000
0010
0000
0000
0000
0000
0001
0000
0000
1000
0000
0000
0000
0000
,  // measure 22
1000
0000
0000
0010
0000
0000
0000
0000
0100
0000
0000
0001
0000
0000
0000
0000
,  // measure 23
0001
0000
0000
0010
0000
0000
0000
0000
0100
0000
0000
1000
0000
0000
0000
0001
,  // measure 24
0000
0000
1000
0000
0000
0000
0000
0001
0000
0000
0000
0000
1000
0000
0000
0200
,  // measure 25
0000
0000
0000
0000
,  // measure 26
0000
0000
0000
0000
,  // measure 27
0000
0000
0000
0300
,  // measure 28
1001
0000
0110
0000
0001
1000
0000
1001
,  // measure 29
0000
1000
0100
1000
0000
0001
0100
0000
,  // measure 30
0001
0000
0001
0010
0000
0010
0100
1000
,  // measure 31
0000
1000
0010
0000
1000
0000
0001
0000
,  // measure 32
1000
0100
0000
1000
0100
0000
0010
0000
,  // measure 33
0100
1000
0000
0100
0000
1000
0000
0000
,  // measure 34
0001
0100
0000
0001
0100
0000
0010
0000
,  // measure 35
0100
0001
0000
0100
0000
0001
0000
0000
,  // measure 36
0010
0000
0010
0000
0010
0100
0000
0100
,  // measure 37
0000
0100
0010
0000
0010
0100
0010
0000
,  // measure 38
0001
0000
0001
1000
0000
1000
0000
0010
,  // measure 39
0000
0010
0000
0100
0001
0100
0001
0000
,  // measure 40
1000
0010
0000
1000
0100
0000
1000
0000
,  // measure 41
0010
1000
0000
0100
0000
1000
0000
0010
,  // measure 42
0100
0001
0000
0010
0001
0000
0100
0000
,  // measure 43
0010
0100
0000
0001
0000
0010
0100
0000
,  // measure 44
0010
0000
0001
0010
0100
0010
0001
0000
,  // measure 45
1000
0000
0010
0100
1000
0100
0010
0000
,  // measure 46
1000
0000
1000
0100
0000
0100
0010
0100
,  // measure 47
0000
0010
0001
0010
0100
0000
1100
0000
,  // measure 48
0021
0100
0031
0000
,  // measure 49
1000
0010
0001
0010
,  // measure 50
1020
0100
1030
0000
,  // measure 51
0100
0000
0001
0000
1000
0000
0001
1000
,  // measure 52
0001
0000
1000
0001
0000
1000
0000
0010
,  // measure 53
0000
0100
0001
0000
1000
0000
0100
0010
,  // measure 54
0100
0000
1000
0100
0010
0001
0000
1000
,  // measure 55
0000
0001
0000
0100
0000
0010
1000
0000
,  // measure 56
0001
0000
0001
0010
0001
0000
0001
1000
,  // measure 57
0000
1000
0001
0000
1000
0000
1000
0010
,  // measure 58
1000
0000
1000
0100
0000
0100
0000
0010
,  // measure 59
0000
0100
1000
0000
0010
0000
0100
0000
,  // measure 60
0001
0100
0001
0100
0000
0010
0000
0100
,  // measure 61
0000
0010
1000
0000
0001
0000
1000
0000
,  // measure 62
0100
0000
0010
0100
0000
1000
0000
0100
,  // measure 63
0000
0010
0000
0001
0000
1000
0000
1001
,  // measure 64
0000
0100
0000
0010
0000
1010
0000
0011
,  // measure 65
0000
0100
0000
0001
0000
1100
0000
1010
,  // measure 66
0000
0100
0000
0001
0000
0011
0000
0100
,  // measure 67
0010
0000
0100
1000
0100
0010
0100
1000
,  // measure 68
0000
0001
0000
0100
0000
0010
0000
1010
,  // measure 69
0000
0100
0000
0001
0000
1000
0000
0011
,  // measure 70
0000
0010
0000
0100
0000
0001
0100
0000
,  // measure 71
1000
0000
0001
0000
1000
0001
1000
0001
,  // measure 72
1000
0000
0010
0000
0100
0001
0000
1000
,  // measure 73
0000
0001
0000
1000
0000
0001
0000
0010
,  // measure 74
0001
0010
0000
0100
0000
0010
0100
1000
,  // measure 75
0000
0001
0010
0100
1000
0000
1100
0000
,  // measure 76
1000
0000
0100
0000
1010
0000
0100
0010
,  // measure 77
0000
0100
0000
0001
0000
1000
0001
1000
,  // measure 78
0010
0000
1010
0000
0110
0000
0100
0001
,  // measure 79
0000
1000
0000
0100
0000
0010
0100
1000
,  // measure 80
0001
0000
0001
1000
0001
0000
0001
1000
,  // measure 81
0000
1000
0000
0010
1000
0010
0100
0000
,  // measure 82
0001
0000
0010
0000
0011
0000
0100
1000
,  // measure 83
0000
0100
0000
1000
0001
0000
1000
0000
,  // measure 84
1010
0000
1001
0000
1010
0000
0100
0001
,  // measure 85
0000
1000
0000
0001
0000
1000
0000
0000
,  // measure 86
0011
0000
1001
0000
0011
0000
1000
0001
,  // measure 87
0000
1000
0000
0010
0000
1000
0000
0100
,  // measure 88
0010
0000
0011
0000
0100
0000
1000
0100
,  // measure 89
0000
1000
0000
0001
0100
0001
1000
0000
,  // measure 90
0010
0100
0001
1000
,  // measure 91
0001
0011
0110
1100
,  // measure 92
1001
0000
0010
0000
1001
0000
0010
0100
,  // measure 93
0000
0001
0000
1000
0000
0001
1000
0000
,  // measure 94
0100
0000
0011
0000
0100
0000
0010
1000
,  // measure 95
0000
0001
0000
0100
0000
0001
0010
0000
,  // measure 96
0100
1000
0100
0000
0010
0001
0000
1000
,  // measure 97
0000
0010
0000
0100
0001
0100
0010
0000
,  // measure 98
1000
0010
0100
0001
,  // measure 99
1000
1100
0001
0101
,  // measure 100
0001
0100
0000
0001
0100
0001
0100
0000
,  // measure 101
0010
1000
0000
1010
0000
1001
0000
1000
,  // measure 102
0100
1000
0000
0100
1000
0100
1000
0000
,  // measure 103
1000
0001
0000
0011
0000
0010
0100
0010
,  // measure 104
0100
0000
0100
1000
0100
1000
0100
0000
,  // measure 105
1000
0000
0001
0100
0001
0100
0010
0000
,  // measure 106
1000
0001
0010
0100
,  // measure 107
0220
0330
2002
3003
,  // measure 108
1000
0000
1001
0000
0001
0100
0000
0001
,  // measure 109
0000
1000
0100
1000
0000
0001
0100
0000
,  // measure 110
0001
1000
0000
0001
0000
0010
0000
0100
,  // measure 111
0010
0000
0000
0000
;
