#TITLE:白の魔法の光;
#SUBTITLE:;
#ARTIST:こどものなみだ;
#TITLETRANSLIT:Light of White Magic;
#SUBTITLETRANSLIT:;
#ARTISTTRANSLIT:Kodomo no Namida;
#GENRE:;
#CREDIT:Meseki;
#MENUCOLOR:;
#BANNER:Light of White Magic-bn.png;
#BACKGROUND:Light of White Magic-bg.png;
#LYRICSPATH:;
#CDTITLE:cdtitle.png;
#MUSIC:Light of White Magic.mp3;
#OFFSET:-0.025;
#SAMPLESTART:79.205;
#SAMPLELENGTH:9.600;
#SELECTABLE:YES;
#LISTSORT:;
#BPMS:0.000=200.000;
#STOPS:;
#TICKCOUNT:0.000=2;
#BGCHANGES:;
#KEYSOUNDS:;
#ATTACKS:;

//---------------dance-single - ----------------
#NOTES:
     dance-single:
     :
     Medium:
     6:
     0.369,0.529,0.030,0.168,0.005: // measure 1
0000
0000
0000
0000
,  // measure 2
0000
0000
0000
0000
,  // measure 3
0000
0000
0000
0000
,  // measure 4
0000
0000
0000
0000
,  // measure 5
0000
0000
0000
0000
,  // measure 6
0000
0000
0000
0000
,  // measure 7
0000
0000
0000
0000
,  // measure 8
0000
0000
0000
0000
,  // measure 9
0000
0000
0000
0000
,  // measure 10
1000
0010
1000
0010
,  // measure 11
0100
0001
0100
0001
,  // measure 12
1000
0100
1000
0100
,  // measure 13
0010
0001
0010
0001
,  // measure 14
1000
0010
0100
0010
,  // measure 15
1000
0010
0100
0010
,  // measure 16
1000
0100
0010
0100
,  // measure 17
1000
0000
0001
0000
0010
0000
0001
1000
,  // measure 18
0000
0000
0020
0130
,  // measure 19
0000
0001
0000
0000
0010
0000
0100
0000
,  // measure 20
1000
0000
0010
0000
,  // measure 21
0100
0000
0001
0010
,  // measure 22
0001
0000
1000
0000
,  // measure 23
0000
0100
0000
0000
0001
0000
0100
0000
,  // measure 24
1000
0000
0010
0000
,  // measure 25
1000
0000
0000
0000
0000
0100
0010
0100
,  // measure 26
0010
0000
0100
0000
,  // measure 27
1000
0001
0200
0000
,  // measure 28
0301
0010
0200
0000
,  // measure 29
2300
3000
0200
0300
,  // measure 30
1000
0010
0100
0001
,  // measure 31
1000
0100
0020
0000
,  // measure 32
0130
0000
0010
0000
0002
0000
0000
0003
,  // measure 33
0010
0001
0100
0001
0010
0000
0100
0000
,  // measure 34
1000
0100
0002
0003
,  // measure 35
0100
1000
0010
1000
,  // measure 36
0001
0010
0100
0010
,  // measure 37
0001
0100
0010
0100
,  // measure 38
1000
0100
0001
0000
,  // measure 39
1000
0100
0010
0100
,  // measure 40
1000
0001
0100
0001
,  // measure 41
1000
0100
0010
0000
,  // measure 42
0000
0100
0001
0000
,  // measure 43
1000
0010
0001
0010
,  // measure 44
0100
1000
0010
1000
,  // measure 45
0001
0100
0010
0100
,  // measure 46
0001
0010
1000
0000
,  // measure 47
0010
0001
1000
0001
,  // measure 48
0000
0010
0100
0010
,  // measure 49
0000
0100
1000
0000
,  // measure 50
0000
0010
0001
0000
,  // measure 51
0010
0000
0000
0000
1000
0100
1000
0000
,  // measure 52
0010
0000
0000
0100
0001
0000
0000
0000
,  // measure 53
0010
0000
0000
0000
0100
1000
0100
0000
,  // measure 54
1000
0000
0001
0100
,  // measure 55
0010
0000
0000
0000
1000
0001
1000
0000
,  // measure 56
0010
0000
0000
0100
0001
0000
0000
0000
,  // measure 57
1000
0000
0000
0000
0100
0010
0100
0000
,  // measure 58
0110
0000
0000
0000
,  // measure 59
0001
0000
0000
0000
1000
0010
1000
0000
,  // measure 60
0001
0000
0000
0100
0010
0000
0000
0000
,  // measure 61
1000
0000
0000
0000
0100
0010
0001
0000
,  // measure 62
0010
0000
0100
1000
,  // measure 63
0010
0000
0000
0000
0100
0001
0010
0000
,  // measure 64
0001
0000
0000
0010
1000
0000
0000
0000
,  // measure 65
0010
0000
0000
0000
0001
0010
0001
0010
,  // measure 66
0100
0000
0020
0031
,  // measure 67
0000
0000
0000
1000
0000
0000
0000
0000
0010
0000
0000
0000
0100
0000
0000
0000
,  // measure 68
0001
0000
0010
0000
,  // measure 69
0100
0000
0001
0100
,  // measure 70
0010
0000
0001
0000
,  // measure 71
0000
1000
0000
0000
0001
0000
0010
0000
,  // measure 72
0100
0000
0010
0000
,  // measure 73
0001
0000
0000
0000
0000
1000
0100
0010
,  // measure 74
0001
0000
0100
0000
,  // measure 75
0010
1000
0200
0000
,  // measure 76
0310
0001
0200
0000
,  // measure 77
0320
0030
2000
3000
,  // measure 78
0001
0010
0100
1000
,  // measure 79
0100
0010
0002
0000
,  // measure 80
0103
0010
0002
0000
,  // measure 81
0013
1000
0100
0001
,  // measure 82
0100
0010
0100
0010
0001
0000
0011
0000
,  // measure 83
2002
0000
3003
0000
;

//---------------dance-single - ----------------
#NOTES:
     dance-single:
     :
     Easy:
     4:
     0.272,0.366,0.020,0.158,0.005: // measure 1
0000
0000
0000
0000
,  // measure 2
0000
0000
0000
0000
,  // measure 3
0000
0000
0000
0000
,  // measure 4
0000
0000
0000
0000
,  // measure 5
0000
0000
0000
0000
,  // measure 6
0000
0000
0000
0000
,  // measure 7
0000
0000
0000
0000
,  // measure 8
0000
0000
0000
0000
,  // measure 9
0000
0000
0000
0000
,  // measure 10
1000
0000
0010
0000
,  // measure 11
1000
0000
0010
0000
,  // measure 12
0100
0000
0001
0000
,  // measure 13
0100
0000
0001
0000
,  // measure 14
0010
0000
0100
0000
,  // measure 15
0010
0000
0100
0000
,  // measure 16
1000
0000
0001
0000
,  // measure 17
1000
0100
0010
0001
,  // measure 18
0000
0000
0020
0030
,  // measure 19
0000
0100
0000
0000
1000
0000
0000
0000
,  // measure 20
0010
0000
0001
0000
,  // measure 21
0010
0000
1000
0000
,  // measure 22
0001
0000
0010
0000
,  // measure 23
0000
0100
0000
0000
0010
0000
0000
0000
,  // measure 24
1000
0000
0010
0000
,  // measure 25
0100
0000
0000
1000
,  // measure 26
0010
0000
0100
0000
,  // measure 27
0001
0000
2000
3000
,  // measure 28
0100
0000
0002
0003
,  // measure 29
0200
0300
2000
3000
,  // measure 30
0010
0100
0100
0000
,  // measure 31
0001
0000
0020
0030
,  // measure 32
0100
0000
0002
0003
,  // measure 33
0100
1000
0100
0000
,  // measure 34
1000
0100
0020
0030
,  // measure 35
0000
0100
0010
0100
,  // measure 36
0000
0010
0100
0010
,  // measure 37
0000
0100
0010
0100
,  // measure 38
0000
0010
0001
0000
,  // measure 39
0000
1000
0010
1000
,  // measure 40
0000
0010
1000
0010
,  // measure 41
0000
1000
0100
0000
,  // measure 42
0000
0010
0001
0000
,  // measure 43
0000
0100
0001
0100
,  // measure 44
0000
0010
1000
0010
,  // measure 45
0000
0100
0001
0100
,  // measure 46
0000
0001
0010
0000
,  // measure 47
0000
0100
0010
0100
,  // measure 48
0000
1000
0001
1000
,  // measure 49
0000
0100
0001
0000
,  // measure 50
0000
0100
1000
0000
,  // measure 51
0001
0000
1000
0010
,  // measure 52
0100
0000
0100
0000
,  // measure 53
0100
0000
0010
1000
,  // measure 54
0001
0000
1000
0000
,  // measure 55
0100
0000
0010
0010
,  // measure 56
0001
0000
0010
0000
,  // measure 57
1000
0000
0010
0001
,  // measure 58
1001
0000
0000
0000
,  // measure 59
1000
0000
1000
0001
,  // measure 60
0010
0000
0100
0000
,  // measure 61
1000
0000
1000
0010
,  // measure 62
0100
0000
0001
1000
,  // measure 63
1000
0000
0100
0010
,  // measure 64
0010
0000
0001
0000
,  // measure 65
0010
0000
0100
1000
,  // measure 66
0100
0000
0000
0000
,  // measure 67
0000
0000
0000
1000
0000
0000
0000
0000
0010
0000
0000
0000
0000
0000
0000
0000
,  // measure 68
0100
0000
0010
0000
,  // measure 69
1000
0000
0001
0000
,  // measure 70
0010
0000
0100
0000
,  // measure 71
0000
1000
0000
0000
0010
0000
0000
0000
,  // measure 72
0100
0000
0001
0000
,  // measure 73
0010
0000
0000
1000
,  // measure 74
0010
0000
0001
0000
,  // measure 75
1000
1000
0200
0300
,  // measure 76
0010
0001
0200
0300
,  // measure 77
0020
0030
2000
3000
,  // measure 78
0001
0100
0010
0000
,  // measure 79
0100
0100
0002
0003
,  // measure 80
1000
0100
0002
0003
,  // measure 81
0100
1000
0100
0000
,  // measure 82
1000
0100
0010
0000
,  // measure 83
2002
0000
3003
0000
;

//---------------dance-single - ----------------
#NOTES:
     dance-single:
     :
     Hard:
     8:
     0.440,0.651,0.099,0.325,0.005: // measure 1
0000
0000
0000
0000
,  // measure 2
0000
0000
0000
0000
,  // measure 3
0000
0000
0000
0000
,  // measure 4
0000
0000
0000
0000
,  // measure 5
0000
0000
0000
0000
,  // measure 6
0000
0000
0000
0000
,  // measure 7
0000
0000
0000
0000
,  // measure 8
0000
0000
0000
0000
,  // measure 9
0000
0000
0000
0000
,  // measure 10
1000
0001
0000
0000
0010
0100
1000
0100
,  // measure 11
0000
0000
0000
0000
1000
0100
0010
0001
,  // measure 12
0000
0010
0000
0000
0100
1000
0100
0010
,  // measure 13
0000
0000
0000
0000
0001
0100
0010
1000
,  // measure 14
0000
0010
0000
0000
1000
0001
0010
0100
,  // measure 15
0000
0000
0000
0000
1000
0100
0010
0001
,  // measure 16
0000
1000
0000
0000
0010
0100
0001
0100
,  // measure 17
0000
0000
0000
0000
0010
1000
0100
0001
,  // measure 18
0000
0000
0200
1300
,  // measure 19
0000
0010
0000
0000
0001
0000
0010
0000
,  // measure 20
1000
0000
0001
0000
,  // measure 21
1000
0000
0010
0100
,  // measure 22
0001
0000
0010
0000
,  // measure 23
0000
0100
0000
0000
0001
0000
0100
0000
,  // measure 24
1000
0000
0001
0000
,  // measure 25
0010
0000
0000
0000
0000
0001
0100
0010
,  // measure 26
1000
0000
0100
0000
,  // measure 27
1000
0100
0010
0001
0020
0000
0000
0000
,  // measure 28
0130
0001
0200
0000
,  // measure 29
0320
0030
0002
0003
,  // measure 30
1000
1010
0010
0110
,  // measure 31
0100
0010
1000
0100
0020
0000
0000
0000
,  // measure 32
1030
0000
0010
0000
0002
0000
0000
0003
,  // measure 33
0010
0100
1000
0100
0001
0000
0100
0000
,  // measure 34
1000
0010
0002
0003
,  // measure 35
0010
0000
2000
0000
0010
3000
0100
0000
,  // measure 36
0010
0000
0002
0000
1000
0003
0010
0000
,  // measure 37
0100
0000
2000
0000
0010
3000
0001
0000
,  // measure 38
0100
1200
0301
0000
,  // measure 39
1000
0000
0200
0000
0010
0300
1000
0000
,  // measure 40
0010
0000
2000
0000
0100
3000
0001
0000
,  // measure 41
0100
2000
3010
0000
,  // measure 42
0000
0002
0103
0000
,  // measure 43
1001
0000
0002
0000
0010
0003
1000
0000
,  // measure 44
0100
0000
0020
0000
0100
0030
0001
0000
,  // measure 45
1000
0000
0200
0000
0010
0300
1000
0000
,  // measure 46
0100
0201
1300
0000
,  // measure 47
0011
0000
0002
0000
0010
0003
0100
0000
,  // measure 48
0000
0000
0020
0000
0001
0030
1000
0000
,  // measure 49
0000
0020
0031
0000
,  // measure 50
0100
2000
3010
0000
,  // measure 51
0001
0000
0000
0000
0010
1000
0001
1000
,  // measure 52
0010
0000
0000
0100
0001
0000
0000
0000
,  // measure 53
0010
0000
0000
0000
0100
0001
0100
0010
,  // measure 54
0001
0000
0000
0000
0100
0000
0010
1000
,  // measure 55
0001
0000
0000
0000
0010
1000
0010
0001
,  // measure 56
1000
0000
0000
0010
0001
0000
0000
0000
,  // measure 57
0010
0000
0000
0000
1000
0100
0010
0000
,  // measure 58
1001
0000
0000
0000
,  // measure 59
0001
0000
0000
0000
0010
0100
0001
0100
,  // measure 60
1000
0000
0000
0010
0001
0000
0000
0000
,  // measure 61
0010
0000
0000
0000
0100
0010
1000
0100
,  // measure 62
0010
0000
0000
0000
0100
0000
0010
0001
,  // measure 63
1000
0000
0000
0000
0001
0100
0010
1000
,  // measure 64
0001
0000
0000
0010
1000
0000
0000
0000
,  // measure 65
0010
0000
0000
0000
0001
0010
0100
1000
,  // measure 66
0100
0000
0000
0000
0020
0000
0031
1000
,  // measure 67
0001
0000
0000
0010
0000
0000
0000
0000
1000
0000
0000
0000
0010
0000
0000
0000
,  // measure 68
0001
0000
1000
0000
,  // measure 69
0100
0000
0001
0100
,  // measure 70
0010
0000
0001
0000
,  // measure 71
0000
0100
0000
0000
0010
0000
1000
0000
,  // measure 72
0100
0000
0001
0000
,  // measure 73
0100
0000
0000
0000
0000
1000
0010
0100
,  // measure 74
0001
0000
1000
0000
,  // measure 75
0100
0010
0001
0100
0020
0000
0000
0000
,  // measure 76
0031
0010
2000
0000
,  // measure 77
3020
0030
0200
0300
,  // measure 78
0001
0011
0010
0110
,  // measure 79
0100
1000
0010
0100
0020
0000
0000
0000
,  // measure 80
1030
0100
0002
0000
,  // measure 81
0103
1000
0010
0100
0001
0000
0010
0000
,  // measure 82
0001
0100
0001
1000
0100
0010
0001
0100
,  // measure 83
2002
0000
3003
0000
;

//---------------dance-single - ----------------
#NOTES:
     dance-single:
     :
     Beginner:
     2:
     0.166,0.244,0.020,0.168,0.005: // measure 1
0000
0000
0000
0000
,  // measure 2
0000
0000
0000
0000
,  // measure 3
0000
0000
0000
0000
,  // measure 4
0000
0000
0000
0000
,  // measure 5
0000
0000
0000
0000
,  // measure 6
0000
0000
0000
0000
,  // measure 7
0000
0000
0000
0000
,  // measure 8
0000
0000
0000
0000
,  // measure 9
0000
0000
0000
0000
,  // measure 10
1000
0000
0000
0000
,  // measure 11
0000
0000
0000
0000
,  // measure 12
0100
0000
0000
0000
,  // measure 13
0000
0000
0000
0000
,  // measure 14
0010
0000
0000
0000
,  // measure 15
0000
0000
0000
0000
,  // measure 16
0001
0000
0000
0000
,  // measure 17
0000
0000
0000
0000
,  // measure 18
0000
0000
0000
0000
,  // measure 19
0000
1000
0000
0000
0000
0000
0000
0000
,  // measure 20
0100
0000
0000
0000
,  // measure 21
1000
0000
0000
0000
,  // measure 22
0010
0000
0000
0000
,  // measure 23
0000
0100
0000
0000
0000
0000
0000
0000
,  // measure 24
0001
0000
0000
0000
,  // measure 25
0010
0000
0000
0000
,  // measure 26
0001
0000
0001
0000
,  // measure 27
0100
0000
0020
0030
,  // measure 28
0000
0000
2000
3000
,  // measure 29
0001
0000
0001
0000
,  // measure 30
0010
0000
0010
0000
,  // measure 31
0001
0000
2000
3000
,  // measure 32
0000
0000
0020
0030
,  // measure 33
0100
0000
0000
0000
,  // measure 34
0001
0000
0020
0030
,  // measure 35
0000
0001
0000
1000
,  // measure 36
0000
0010
0000
0100
,  // measure 37
0000
0001
0000
0010
,  // measure 38
0000
0200
0300
0000
,  // measure 39
0000
1000
0000
0010
,  // measure 40
0000
1000
0000
0001
,  // measure 41
0000
0020
0030
0000
,  // measure 42
0000
0200
0300
0000
,  // measure 43
0000
1000
0000
1000
,  // measure 44
0000
0010
0000
0010
,  // measure 45
0000
0100
0000
0100
,  // measure 46
0000
0002
0003
0000
,  // measure 47
0000
0010
0000
0010
,  // measure 48
0000
0001
0000
0001
,  // measure 49
0000
0200
0300
0000
,  // measure 50
0000
0020
0030
0000
,  // measure 51
1000
0000
0001
0000
,  // measure 52
1000
0000
0000
0000
,  // measure 53
0100
0000
0000
0000
,  // measure 54
0010
0000
0001
0000
,  // measure 55
0010
0000
0000
0000
,  // measure 56
0001
0000
0100
0000
,  // measure 57
0010
0000
0000
0000
,  // measure 58
1001
0000
0000
0000
,  // measure 59
1000
0000
0010
0000
,  // measure 60
1000
0000
0000
0000
,  // measure 61
0100
0000
0010
0000
,  // measure 62
0100
0000
0000
0000
,  // measure 63
1000
0000
0100
0000
,  // measure 64
0010
0000
0000
0000
,  // measure 65
0001
0000
0010
0000
,  // measure 66
0100
0000
0000
0000
,  // measure 67
0000
0000
0000
1000
0000
0000
0000
0000
0000
0000
0000
0000
0000
0000
0000
0000
,  // measure 68
0010
0000
0000
0000
,  // measure 69
0100
0000
0000
0000
,  // measure 70
0001
0000
0000
0000
,  // measure 71
0000
0100
0000
0000
0000
0000
0000
0000
,  // measure 72
0010
0000
0000
0000
,  // measure 73
1000
0000
0000
0000
,  // measure 74
0001
0000
0001
0000
,  // measure 75
0010
0000
0002
0003
,  // measure 76
0000
0000
0200
0300
,  // measure 77
0010
0000
0010
0000
,  // measure 78
1000
0000
1000
0000
,  // measure 79
0100
0000
0020
0030
,  // measure 80
0000
0000
0002
0003
,  // measure 81
0010
0000
0100
0000
,  // measure 82
1000
0000
0001
0000
,  // measure 83
2002
0000
3003
0000
;
