#TITLE:Light Shine;
#SUBTITLE:;
#ARTIST:Ryu☆;
#TITLETRANSLIT:;
#SUBTITLETRANSLIT:;
#ARTISTTRANSLIT:;
#CREDIT:;
#BANNER:Light Shine bn.png;
#BACKGROUND:Light Shine bg.png;
#LYRICSPATH:;
#CDTITLE:;
#MUSIC:Light Shine.mp3;
#OFFSET:-0.440;
#SAMPLESTART:12.385;
#SAMPLELENGTH:13.620;
#SELECTABLE:YES;
#BPMS:0.000=140.000;
#STOPS:;
#BGCHANGES:;

//---------------dance-single - ----------------
#NOTES:
     dance-single:
     :
     Hard:
     9:
     0.685,0.665,0.382,0.206,0.422:
0000
0000
0000
0000
,
1000
0000
0100
0000
0010
0000
0001
0000
0100
0000
0000
0100
0010
0000
1000
0000
,
0100
0000
0000
0100
0001
0000
0100
0000
2000
0000
0010
0000
0000
0000
3010
0000
,
1000
0000
0001
0000
0010
0000
0001
0000
1000
0000
0000
1000
0010
0000
0100
0000
,
0002
0000
0000
0000
1003
0000
0100
1000
0200
0000
0010
0000
0000
0000
0310
0000
,
0100
0000
0010
0000
0001
1000
0001
1000
0001
0000
0001
0000
0100
0000
0100
0000
,
0000
0000
0001
0000
1000
0000
0100
0000
1000
0000
0001
0000
1000
0001
1000
0001
,
1000
0010
0100
0001
0010
0100
1000
0000
,
1100
0000
0011
0000
0102
0100
0103
0000
,
0001
0100
0010
1000
0100
0001
0100
0000
,
1100
0000
1010
0000
0210
0010
0310
0000
,
0100
0010
1000
0001
0010
0001
1000
0000
,
1001
0000
1100
0000
1002
1000
1003
0000
,
0001
0100
0010
1000
0100
0001
0100
0000
,
0101
0000
1100
0000
2010
0010
3010
0000
,
1000
0000
0010
0000
0100
0000
0001
0100
0001
0000
0100
0000
0010
1000
0010
1000
,
0010
1000
0100
0010
0001
0000
0100
0010
,
1000
0000
0100
0000
0001
0000
0100
0000
1000
0000
0010
0000
0100
0001
0000
1000
,
0000
0010
1000
0000
0100
0000
0000
0000
0110
0000
0000
0000
0010
0000
0001
0000
,
0100
0000
0001
0100
0001
0000
0100
0000
0010
0000
0000
1000
0000
0000
1001
0000
,
0000
0000
1000
0000
0100
0000
1000
0100
0000
0000
0010
0000
0001
0000
0010
0000
,
0001
0100
0000
0010
0000
1000
0000
0010
0000
0100
0001
0000
0100
0010
0000
1000
,
0010
0000
1000
0001
0000
0000
0010
0000
0001
0010
0000
0100
1000
0000
0001
0010
,
0000
0001
1000
0000
0010
1000
0000
0001
0000
0000
0010
0000
0000
0100
1000
0000
,
1100
0000
0000
0100
0000
0000
0010
0000
0000
0001
0000
0000
1000
0000
0000
0010
,
0000
0100
0000
0001
0000
0000
0010
0100
0000
0000
1000
0001
0000
0000
1000
0000
,
0010
1000
0000
0100
0000
0000
1000
0000
0100
0000
0010
0001
0010
0000
0000
0001
,
0100
0000
0000
0000
0100
0010
0100
0000
0010
0000
1000
0000
0001
0100
0001
0000
,
0101
0000
0000
0001
0000
0100
0001
0000
0100
0000
0010
0000
1000
0000
0100
0000
,
0110
0000
0000
0010
0000
0001
0010
0000
0001
0000
0100
0000
0010
0000
1000
0000
,
0001
0100
0001
0000
1000
0000
0100
0000
1000
0010
0000
0000
0100
0000
0001
0000
,
0010
0000
0000
0100
0000
1000
0001
0000
1000
0000
0100
0000
1000
0000
1001
0000
,
0001
0000
0100
0000
0010
0000
1000
0010
1000
0000
0001
0000
0010
0001
0010
0001
,
0010
0100
1000
0001
0100
0010
1000
0000
,
1001
0000
0101
0000
1001
1000
1100
0000
,
1000
0100
0010
0001
0100
0010
1000
0000
,
1100
0000
0110
0000
0011
0001
0101
0000
,
0001
0100
0010
1000
0100
0001
0100
0000
,
1100
0000
1010
0000
0110
0101
0110
0000
,
0010
1000
0100
0010
0001
0010
0100
0000
,
1100
0000
1010
0000
0110
0101
0110
0000
,
0010
0000
1000
0100
0000
1000
0100
0000
0010
0001
0010
0000
0100
1000
0100
1000
,
0010
0000
0000
0100
0000
0000
0010
0000
0000
1000
0000
0000
0001
0000
0000
0100
,
0000
0010
0000
1000
0000
0000
0100
0010
0000
0000
0001
1000
0000
0000
0001
0000
,
0100
0001
0000
0010
0000
0000
0001
0000
0010
0000
0100
1000
0100
0000
0000
1000
,
0010
0000
0000
0000
0010
0100
0010
0000
0100
0000
0001
0000
1000
0010
1000
0000
,
1010
0000
0000
1000
0000
0010
1000
0000
0010
0000
0100
0000
0001
0000
0010
0000
,
0110
0000
0000
0100
0000
1000
0100
0000
1000
0000
0010
0000
0100
0000
0001
0000
,
1000
0010
1000
0000
0001
0000
0010
0000
0001
0100
0000
0000
0010
0000
1000
0000
,
0100
0000
0010
0100
0000
0010
0100
0000
1000
0001
1000
0000
0001
0100
0001
0100
,
0001
0100
0010
2000
3000
0001
0010
0200
,
0300
1000
0010
0100
0001
1000
0002
0000
,
1003
0010
0100
0002
0003
0010
0100
1000
,
0020
0000
2030
0000
3002
0010
0013
0000
,
0110
0100
1000
0002
0003
0010
0001
0200
,
0300
0010
1000
0100
0010
0001
2000
0000
,
3010
1000
0001
0020
0030
0001
0100
0010
,
2000
0000
0000
0000
3200
0000
0000
0000
0310
0000
0001
0000
1000
0000
0010
1000
,
0002
0000
0000
0000
,
0003
0000
0000
0000
;

//---------------dance-single - ----------------
#NOTES:
     dance-single:
     :
     Beginner:
     1:
     0.111,0.171,0.029,0.000,0.000: // measure 1
0000
0000
0000
0000
,  // measure 2
1000
0000
0000
0000
,  // measure 3
0001
0000
0000
0000
,  // measure 4
0010
0000
0000
0000
,  // measure 5
0100
0000
0000
0000
,  // measure 6
1000
0000
0000
0000
,  // measure 7
0001
0000
0000
0000
,  // measure 8
0010
0000
0000
0000
,  // measure 9
0001
0000
0001
0000
,  // measure 10
0001
0000
0000
0000
,  // measure 11
1000
0000
1000
0000
,  // measure 12
1000
0000
0000
0000
,  // measure 13
0100
0000
0100
0000
,  // measure 14
0100
0000
0000
0000
,  // measure 15
0010
0000
0010
0000
,  // measure 16
0010
0000
0000
0000
,  // measure 17
0001
0000
0000
0000
,  // measure 18
1000
0000
0000
0000
,  // measure 19
0100
0000
0000
0000
,  // measure 20
1000
0000
1000
0000
,  // measure 21
1000
0000
0000
0000
,  // measure 22
0010
0000
0000
0000
,  // measure 23
0100
0000
0000
0000
,  // measure 24
0001
0000
0001
0000
,  // measure 25
0001
0000
0000
0000
,  // measure 26
0010
0000
0000
0000
,  // measure 27
0100
0000
0000
0000
,  // measure 28
1000
0000
1000
0000
,  // measure 29
1000
0000
0000
0000
,  // measure 30
0001
0000
0000
0000
,  // measure 31
0010
0000
0000
0000
,  // measure 32
0100
0000
0100
0000
,  // measure 33
0100
0000
0000
0110
,  // measure 34
0100
0000
0000
0000
,  // measure 35
1000
0000
1000
0000
,  // measure 36
1000
0000
0000
0000
,  // measure 37
0001
0000
0001
0000
,  // measure 38
0001
0000
0000
0000
,  // measure 39
0010
0000
0010
0000
,  // measure 40
0010
0000
0000
0000
,  // measure 41
0100
0000
0100
0000
,  // measure 42
0100
0000
0000
0110
,  // measure 43
0100
0000
0000
0000
,  // measure 44
1000
0000
0000
0000
,  // measure 45
0001
0000
0000
0000
,  // measure 46
0010
0000
0010
0000
,  // measure 47
0010
0000
0000
0000
,  // measure 48
0100
0000
0000
0000
,  // measure 49
1000
0000
0000
0000
,  // measure 50
0001
0000
0001
0000
,  // measure 51
0001
0000
0000
0000
,  // measure 52
1000
0000
0000
0000
,  // measure 53
0010
0000
0000
0000
,  // measure 54
0100
0000
0100
0000
,  // measure 55
0100
0000
0000
0000
,  // measure 56
0001
0000
0000
0000
,  // measure 57
0010
0000
0000
0000
,  // measure 58
1000
0000
1000
0000
,  // measure 59
1001
0000
0000
0000
;

//---------------dance-single - ----------------
#NOTES:
     dance-single:
     :
     Easy:
     3:
     0.277,0.256,0.029,0.000,0.000: // measure 1
0000
0000
0000
0000
,  // measure 2
1000
0100
0010
0001
,  // measure 3
1000
0010
0100
0000
,  // measure 4
0001
0010
1000
0010
,  // measure 5
0001
0000
0100
0000
,  // measure 6
0010
1000
0100
0100
,  // measure 7
0000
1000
0100
0110
,  // measure 8
0010
0001
1000
0010
,  // measure 9
1000
0001
1000
0000
,  // measure 10
0001
0010
0100
1000
,  // measure 11
0001
0010
0001
0000
,  // measure 12
0100
0010
1000
0010
,  // measure 13
0100
0001
0010
0000
,  // measure 14
0100
1000
0001
0010
,  // measure 15
0001
1000
0010
0000
,  // measure 16
1000
1000
0001
0001
,  // measure 17
1000
0010
0100
0000
,  // measure 18
0001
0010
0100
0000
,  // measure 19
1000
0001
0010
0000
,  // measure 20
0001
1000
0010
0000
,  // measure 21
1000
0010
0100
0000
,  // measure 22
0001
0010
0100
0000
,  // measure 23
1000
0001
0010
0000
,  // measure 24
0001
1000
0010
0000
,  // measure 25
1000
0010
0100
0001
,  // measure 26
1000
0100
0010
0000
,  // measure 27
0001
0010
0100
1000
,  // measure 28
0001
0010
0001
0000
,  // measure 29
1000
0010
0100
0001
,  // measure 30
0010
0100
1000
0000
,  // measure 31
0100
0010
0001
1000
,  // measure 32
0010
0100
0001
0010
,  // measure 33
0100
0100
1000
1000
,  // measure 34
0001
0010
0001
1000
,  // measure 35
0010
1000
0100
0000
,  // measure 36
1000
0100
0010
0001
,  // measure 37
1000
0010
0100
0000
,  // measure 38
0001
0010
1000
0010
,  // measure 39
0001
0100
0010
0000
,  // measure 40
1000
0100
0001
0100
,  // measure 41
1000
0010
0100
0000
,  // measure 42
0001
1000
0010
1010
,  // measure 43
0010
0100
0001
0010
,  // measure 44
1000
0010
0001
0000
,  // measure 45
0100
0010
1000
0100
,  // measure 46
0001
0100
1000
0000
,  // measure 47
0100
0010
0001
1000
,  // measure 48
0010
0100
0001
0010
,  // measure 49
1000
0010
0001
0100
,  // measure 50
0010
1000
0100
0010
,  // measure 51
0001
1000
0000
0001
,  // measure 52
0000
1000
0010
0100
,  // measure 53
0000
0001
0000
0010
,  // measure 54
0100
1000
0100
0010
,  // measure 55
0000
0001
0000
0100
,  // measure 56
0000
0010
1000
0100
,  // measure 57
0000
1000
0000
0100
,  // measure 58
0010
0001
0100
0010
,  // measure 59
1001
0000
0000
0000
;

//---------------dance-single - ----------------
#NOTES:
     dance-single:
     :
     Medium:
     5:
     0.490,0.483,0.275,0.167,0.000: // measure 1
0000
0000
0000
0000
,  // measure 2
1000
0100
1000
0000
0001
0000
0100
0001
,  // measure 3
0100
0000
0010
1000
0020
0000
0130
0000
,  // measure 4
0001
0010
0001
0000
1000
0000
0100
1000
,  // measure 5
0200
0310
0002
1003
,  // measure 6
0010
1000
0010
0000
0100
0001
0100
0001
,  // measure 7
0000
0010
0100
0000
1000
0000
1001
0000
,  // measure 8
1000
0010
1000
0000
0001
0010
0001
0000
,  // measure 9
0101
0110
1020
1030
,  // measure 10
1000
0100
1000
0000
0001
0100
0001
0000
,  // measure 11
0101
0110
2010
3010
,  // measure 12
1000
0010
0100
0000
0001
0010
0100
0000
,  // measure 13
1100
0011
0102
0103
,  // measure 14
0010
1000
0100
0000
0010
0001
0100
0000
,  // measure 15
0101
1010
2100
3100
,  // measure 16
1000
0100
1000
0000
0001
1000
0010
1000
,  // measure 17
0001
0000
0010
0001
0010
0000
0001
0000
,  // measure 18
0100
0000
0010
1000
0010
0000
1000
0000
,  // measure 19
0001
1000
0001
0000
1000
0000
0100
0000
,  // measure 20
0010
0001
0010
0000
0001
0100
0001
0000
,  // measure 21
1000
0000
0100
1000
0000
0100
1000
0000
,  // measure 22
0100
0010
0100
0000
0010
0001
0010
0000
,  // measure 23
0001
0000
1000
0000
0100
1000
0100
0000
,  // measure 24
0010
0001
0010
0000
0001
0100
0001
0000
,  // measure 25
1000
0000
0100
0000
0001
0000
0100
1000
,  // measure 26
0100
0000
1000
0000
0010
0000
0001
0010
,  // measure 27
0001
0000
0010
0000
1000
0000
0001
1000
,  // measure 28
0001
1000
0100
1000
,  // measure 29
1001
0000
1000
0000
0010
0000
0100
0010
,  // measure 30
0100
0000
0001
0000
0100
0000
0001
0010
,  // measure 31
0001
0000
0010
0000
0100
0000
1000
0100
,  // measure 32
1000
0000
0100
0000
0010
0000
0001
0010
,  // measure 33
0001
0100
0010
0000
1000
0100
1000
0001
,  // measure 34
0010
0001
0010
0000
0001
0100
0001
0000
,  // measure 35
0101
0110
2010
3010
,  // measure 36
1000
0100
1000
0000
0001
0100
0001
0000
,  // measure 37
0101
0110
2010
3010
,  // measure 38
1000
0100
0010
0000
0001
0100
0010
0000
,  // measure 39
0110
1010
2001
3001
,  // measure 40
1000
0100
0010
0000
0001
0100
0010
0000
,  // measure 41
0110
1010
2001
3001
,  // measure 42
1000
0010
0100
0001
0100
0010
1000
0000
,  // measure 43
0001
0000
0010
0000
1000
0000
0010
0001
,  // measure 44
0010
0000
0001
0000
0100
0000
1000
0100
,  // measure 45
1000
0000
0100
0000
0001
0000
1000
0001
,  // measure 46
1000
0001
0010
0001
,  // measure 47
1001
0000
0001
0000
0100
0000
0010
0100
,  // measure 48
0010
0000
1000
0000
0010
0000
1000
0100
,  // measure 49
1000
0000
0100
0000
0010
0000
0001
0010
,  // measure 50
0001
0000
0010
0000
0100
0000
1000
0100
,  // measure 51
1000
0010
0100
0010
0000
0100
0001
0010
,  // measure 52
0000
0100
1000
0001
0010
0001
1000
0000
,  // measure 53
0010
1000
0100
0010
0000
0001
0100
0010
,  // measure 54
2000
3002
0023
0031
,  // measure 55
0010
0100
1000
0001
0000
0010
0001
0100
,  // measure 56
0000
0010
1000
0100
0001
0100
2000
0000
,  // measure 57
3010
1000
0100
0010
0000
0001
0100
0010
,  // measure 58
2000
0000
3002
0000
0013
0001
1000
0001
,  // measure 59
1001
0000
0000
0000
;
