#TITLE:Let Go;
#SUBTITLE:;
#ARTIST:Edison Glass;
#TITLETRANSLIT:;
#SUBTITLETRANSLIT:;
#ARTISTTRANSLIT:;
#GENRE:;
#CREDIT:Telperion;
#BANNER:Let Go-bn.png;
#BACKGROUND:Let Go-bg.png;
#LYRICSPATH:;
#CDTITLE:;
#MUSIC:Let Go.ogg;
#OFFSET:-1.052200;
#SAMPLESTART:25.052000;
#SAMPLELENGTH:22.587999;
#SELECTABLE:YES;
#DISPLAYBPM:169.998993;
#BPMS:0.000000=169.998993,200.000000=84.999496,206.000000=169.998993,210.000000=84.999496,216.000000=169.998993,220.000000=84.999496,223.000000=169.998993,235.000000=84.999496,240.000000=169.998993,246.000000=84.999496,251.000000=169.998993,257.000000=84.999496,260.000000=169.998993;
#STOPS:;
#DELAYS:;
#TIMESIGNATURES:0.000000=4=4
;
#BGCHANGES:;
#KEYSOUNDS:;
#ATTACKS:;

//---------------dance-single - Telperion----------------
#NOTES:
     dance-single:
     Telperion:
     Hard:
     9:
     0.589,0.600,0.450,0.337,0.078,386.000,52.000,39.000,17.000,0.000,0.000,0.000,0.589,0.600,0.450,0.337,0.078,386.000,52.000,39.000,17.000,0.000,0.000,0.000: // measure 1
0000
0000
0000
0000
,  // measure 2
2000
0000
3001
1000
0200
0000
0310
0100
,  // measure 3
2000
0000
3001
0100
0110
0000
0110
0000
,  // measure 4
0002
0000
1003
0001
0200
0000
0310
1000
,  // measure 5
0200
0000
0310
0100
1100
1000
1000
0000
,  // measure 6
0001
1000
0010
0100
0001
0010
0200
0000
,  // measure 7
1300
0100
0001
0100
0110
0000
0110
0000
,  // measure 8
0001
1000
1020
0000
0130
0001
0021
0000
,  // measure 9
0130
1000
0010
0100
1000
0100
0001
0000
,  // measure 10
1000
0100
1000
0100
1000
0100
1000
0100
,  // measure 11
1000
0000
0001
0000
1000
0000
0001
0000
1000
0000
0001
0010
0001
1000
0001
0000
,  // measure 12
0100
0010
1000
0010
0100
0000
0110
0000
,  // measure 13
0001
1000
0100
0010
0100
0000
1100
0000
,  // measure 14
2000
0001
0000
3100
1000
0000
1100
0000
,  // measure 15
0002
1000
0000
0103
0001
0000
0011
0000
,  // measure 16
0010
0000
0100
0000
0010
0000
0001
0000
0010
0000
0000
0000
1001
0000
0000
0001
,  // measure 17
0100
1000
0100
1000
0100
0010
0100
0000
,  // measure 18
0002
0010
0000
1003
0001
0000
0101
0000
,  // measure 19
2000
0001
0000
3010
1000
0000
1010
0000
,  // measure 20
0001
0010
0100
1000
0001
0000
0101
0000
,  // measure 21
1000
0010
1000
0001
0100
0010
0010
0000
,  // measure 22
1000
0100
0020
0000
0000
0000
0030
0000
,  // measure 23
0001
0100
0020
0000
0000
0000
0130
0000
,  // measure 24
0101
0000
0000
0000
0001
0000
0011
0000
0000
0000
1000
0000
1010
0000
0000
1000
,  // measure 25
0100
0001
0100
0001
0100
0010
0100
0000
,  // measure 26
1000
0001
1000
0010
1000
0001
1000
0010
,  // measure 27
1000
0001
1000
0010
0110
0000
0110
0000
,  // measure 28
1000
0001
1000
0010
1000
0001
1000
0010
,  // measure 29
0100
0000
0001
0000
1000
0000
0100
0000
1000
0000
0001
0000
0010
0000
0000
0001
0000
0000
0010
0000
0000
0000
0000
0000
,  // measure 30
0100
1000
1020
0000
0130
0001
0021
0000
,  // measure 31
0130
0010
0001
1000
0110
0000
0110
0000
,  // measure 32
0001
0100
1000
0100
0001
0010
1000
0010
,  // measure 33
0001
0000
0001
0000
0000
1000
0010
0000
1000
0000
0000
0001
0010
0000
0000
0000
,  // measure 34
0001
0100
0001
0100
0001
0100
0001
0100
,  // measure 35
0001
0000
1000
0000
0001
0000
1000
0000
0001
0000
0010
0001
1000
0001
1000
0000
,  // measure 36
0000
0000
0010
1000
0100
0000
1000
0001
,  // measure 37
0001
0000
0010
0001
0100
0000
0010
1000
,  // measure 38
1000
0000
0010
0100
0001
0000
0010
0100
,  // measure 39
0100
0000
0010
0000
1001
0000
0010
0100
,  // measure 40
0100
0000
0001
1000
0000
0000
1100
0000
,  // measure 41
1000
0000
0001
0010
0000
0001
0001
0000
,  // measure 42
1000
0100
0002
0000
0000
0000
0003
0000
,  // measure 43
0100
1000
0020
0000
0000
0000
0030
0000
,  // measure 44
0001
0010
2000
0000
0000
0000
3000
0000
,  // measure 45
0200
0320
0032
0003
,  // measure 46
1000
0001
0100
0000
0010
0100
1000
0100
,  // measure 47
0001
1000
0100
0000
0010
0100
0001
0100
,  // measure 48
1000
0001
0010
0100
0000
1000
1010
0000
,  // measure 49
0110
0100
0001
0010
0000
0110
0110
0000
,  // measure 50
2001
0001
0001
3002
,  // measure 51
0M03
0000
0000
0000
0010
0000
0000
0000
0000
0010
0000
0000
0010
0000
0000
0000
,  // measure 52
0000
0010
0000
0000
0010
0000
0000
0000
1M02
0000
0000
0000
1000
0000
0000
0000
,  // measure 53
1000
2003
0M00
3010
,  // measure 54
0000
0010
0000
0000
0010
0000
0000
0000
0000
0010
0000
0000
0010
0000
0000
0000
,  // measure 55
1M02
0013
2001
3010
,  // measure 56
0M00
0001
0000
0000
0001
0000
0000
0000
0000
1000
0000
0000
1MM0
0000
0000
0000
,  // measure 57
1001
0011
0110
2200
,  // measure 58
0000
3300
2001
0001
,  // measure 59
0001
3001
0000
0MM0
,  // measure 60
0010
0010
0110
0000
0100
0000
0220
0000
,  // measure 61
M33M
1002
1000
1000
,  // measure 62
1003
0000
0000
0000
0MM0
0000
0010
0010
,  // measure 63
0110
0100
0220
M33M
,  // measure 64
0001
1010
1000
0011
,  // measure 65
0000
0000
0M00
0000
1000
0100
1100
0001
,  // measure 66
M101
0110
0110
1010
,  // measure 67
1002
0000
0000
0013
0001
0000
0010
0100
,  // measure 68
0000
0100
0000
1000
0001
1000
0000
0010
,  // measure 69
0100
0000
0010
1000
0000
1000
0000
0001
,  // measure 70
1000
0001
0010
0100
0010
0000
0001
0010
,  // measure 71
0000
0010
0000
0100
1000
0100
0000
1000
,  // measure 72
0010
0100
0010
1000
0000
1000
0001
0010
,  // measure 73
0200
0000
0000
0000
,  // measure 74
0300
0000
0000
0000
;

//---------------dance-single - Telperion----------------
#NOTES:
     dance-single:
     Telperion:
     Medium:
     7:
     0.405,0.442,0.138,0.346,0.000,272.000,16.000,40.000,21.000,0.000,0.000,0.000,0.405,0.442,0.138,0.346,0.000,272.000,16.000,40.000,21.000,0.000,0.000,0.000:
0000
0000
0000
0000
,
1000
0000
0001
1000
0100
0000
0010
0000
,
0100
0000
0010
0001
0200
0000
0300
0000
,
0001
0000
1000
0001
0100
0000
0010
0000
,
1000
0000
0010
0100
0002
0000
0003
0000
,
1000
0000
0100
0010
0001
0000
1000
0000
,
0010
0000
1000
0001
0100
0000
0100
0000
,
0010
1000
0010
0000
0100
0001
0100
0000
,
0001
0000
0001
1000
0100
0010
0001
0000
,
2000
0000
0000
0000
,
0002
0000
3003
0000
,
0001
0100
0000
0001
2000
0000
0100
0000
,
3001
0100
0000
0001
1000
0000
0100
0000
,
0010
0100
0000
1000
0002
0000
0010
0000
,
1003
0100
0000
0010
0100
0000
1000
0000
,
0001
0100
0000
0100
0010
0000
0100
0000
,
0001
0010
0100
1000
0100
0010
0001
0000
,
1000
0001
0000
1000
0020
0000
0100
0000
,
1030
0001
0000
0010
0001
0000
0100
0000
,
0010
1000
0000
0001
2000
0000
0010
0000
,
3100
0010
0000
0010
0100
1000
0001
0000
,
0100
0020
2000
3030
,
0100
0020
0002
0033
,
1000
0000
0001
0010
0000
1000
0010
0000
,
0001
0100
0010
1000
0010
0100
0001
0000
,
0010
0001
0010
0000
0100
0010
0100
0000
,
1000
0100
1000
0000
2020
0000
3030
0000
,
0001
0010
0001
0000
0010
0100
0010
0000
,
0200
0000
0000
0000
0301
0100
1000
0000
,
0010
1000
0010
0000
0100
0010
0100
0000
,
0001
0100
0001
0000
0022
0000
0033
0000
,
1000
0010
1000
0000
0010
0100
0010
0000
,
0100
0001
0000
0010
1000
0000
0010
0001
,
0200
0000
0000
0000
,
0320
0001
1000
0130
,
0001
0011
1000
1010
,
0001
0000
0101
0000
1000
0000
0100
0010
,
0001
0000
0011
0000
0001
0000
1000
0010
,
0100
0000
0010
0000
1000
0000
0100
0010
,
0001
0000
0010
0100
0000
0000
0011
0000
,
1000
0000
0010
0100
0000
0000
0010
0000
,
2000
0000
0000
3000
,
0002
0000
0000
0003
,
0200
0000
0000
0300
,
0010
0100
0002
0003
,
2000
0001
0010
3000
,
0002
0000
1000
0000
0010
0000
0003
0001
,
0100
0000
0010
0100
0000
0100
0001
1000
,
0001
0010
0001
0010
0100
1000
0010
0000
,
0100
0010
0100
0220
,
M00M
0000
0000
0000
,
0000
0330
1MM0
0001
,
1000
2002
0MM0
0000
,
0000
0000
0000
3003
,
M01M
0100
0010
0220
,
0000
0000
0330
M00M
,
0010
0110
1100
2002
,
0000
3003
0010
0100
,
0010
0220
0000
M33M
,
0000
0000
0000
0000
,
M00M
0001
1000
0001
,
0022
0000
MM33
0000
,
0000
0000
0000
00MM
,
1000
0001
1000
2020
,
0000
3M0M
0000
0000
,
M030
0100
0001
0100
,
0010
0000
0000
1000
0010
0000
0100
0001
,
0000
0000
0000
0010
0001
0000
0010
0100
,
0010
0000
0100
1000
0000
0000
0000
1000
,
0010
0000
0100
0010
0100
0000
0001
0100
,
0000
0000
0000
0001
0010
0000
0100
0010
,
0001
0000
1000
0001
0000
0000
0000
0100
,
2000
0000
0000
0000
,
3000
0000
0000
0000
;

//---------------dance-single - Telperion----------------
#NOTES:
     dance-single:
     Telperion:
     Easy:
     4:
     0.269,0.316,0.164,0.277,0.000,167.000,19.000,32.000,34.000,0.000,0.000,0.000,0.269,0.316,0.164,0.277,0.000,167.000,19.000,32.000,34.000,0.000,0.000,0.000:
0000
0000
0000
0000
,
1000
1000
0001
0001
,
0100
0100
0000
0110
,
0001
0001
1000
1000
,
0100
0100
0000
0110
,
1000
0100
1000
0100
,
0010
0001
0000
0011
,
0001
0100
0001
0100
,
0010
1000
0010
0110
,
0002
0000
0000
0000
,
2000
0000
3003
0000
,
0200
0000
0000
0000
,
0020
0000
0330
0000
,
0002
0000
0000
0000
,
0200
0000
0303
0000
,
2000
0000
0000
0000
,
0020
0000
3030
0000
,
0100
0001
0200
0000
,
0310
1000
0020
0000
,
1030
0100
2000
0000
,
3001
0010
0002
0000
,
0003
0000
0010
0020
,
0000
0130
0200
0300
,
1000
0100
0010
0002
,
2000
0000
0000
3003
,
0010
0010
0010
0010
,
0010
0010
0110
1001
,
0010
0010
0010
0010
,
0010
1000
0012
1003
,
0010
0100
0010
1000
,
0001
1000
0200
0300
,
0010
0100
0010
0001
,
1000
0001
0100
0110
,
0000
1000
0100
0010
,
0001
0100
0020
0030
,
0000
1010
0000
0110
,
0000
0101
0000
1000
,
0000
0011
0000
0110
,
0000
1100
0000
0001
,
0000
1010
0000
0110
,
0000
0011
0000
1000
,
0020
0000
0000
0000
,
0230
0000
0000
0000
,
0302
0000
0000
0000
,
1003
0001
0010
0000
,
0200
0000
0000
0000
,
2300
0000
0000
0000
,
3010
0010
0000
0110
,
1001
0000
0000
0000
,
0001
0010
0100
2000
,
300M
000M
000M
000M
,
000M
000M
100M
0100
,
0010
0002
M000
M003
,
M000
M000
M000
M000
,
M001
0100
0010
2000
,
000M
000M
300M
000M
,
1000
0010
0100
0002
,
0003
0000
1000
0100
,
0010
0002
0000
M003
,
M000
M000
M000
M000
,
M000
0001
0010
0100
,
2000
0000
300M
000M
,
000M
000M
000M
000M
,
1000
0010
0100
0002
,
0000
M000
M000
M003
,
M000
0001
0100
0010
,
1000
0000
0001
0000
,
0010
0001
1000
0000
,
0001
0000
0010
0001
,
1000
0000
0010
0000
,
1000
0001
1000
0000
,
0010
0000
1000
0001
,
0020
0000
0000
0000
,
0030
0000
0000
0000
;

//---------------dance-single - Telperion----------------
#NOTES:
     dance-single:
     Telperion:
     Beginner:
     2:
     0.105,0.125,0.043,0.061,0.000,73.000,5.000,7.000,0.000,0.000,0.000,0.000,0.105,0.125,0.043,0.061,0.000,73.000,5.000,7.000,0.000,0.000,0.000,0.000:
0000
0000
0000
0000
,
1000
0000
0000
0000
,
0001
0000
0001
0000
,
1000
0000
0000
0000
,
0001
0000
1000
0000
,
0001
0000
0000
0000
,
1000
0000
1000
0000
,
0001
0000
0000
0000
,
0100
0000
0010
0000
,
0010
0000
0000
0000
,
0100
0000
0000
0000
,
0001
0000
0000
0000
,
0010
0000
0000
0000
,
0100
0000
0000
0000
,
0010
0000
0000
0000
,
0001
0000
0000
0000
,
0100
0000
0000
0000
,
0010
0000
0000
0000
,
1000
0000
0000
0000
,
0010
0000
0000
0000
,
0100
0000
0000
0000
,
0001
0000
0001
0000
,
1000
0000
1000
0000
,
0100
0000
0100
0000
,
0010
0000
0010
0000
,
0001
0000
0000
0000
,
0001
0000
1001
0000
,
1000
0000
0000
0000
,
1000
0000
1001
0000
,
0100
0000
0000
0000
,
0100
0000
0110
0000
,
0010
0000
0000
0000
,
0010
0000
0110
0000
,
0001
0000
0000
0000
,
1000
0000
0000
0000
,
0010
0000
0000
0000
,
0010
0000
0000
0000
,
0100
0000
0000
0000
,
0100
0000
0000
0000
,
0001
0000
0000
0000
,
0001
0000
0000
0000
,
1000
0000
0000
0000
,
1000
0000
0000
0000
,
0100
0000
0000
0000
,
0010
0000
0000
0000
,
0001
0000
0000
0000
,
0010
0000
0000
0000
,
0100
0000
0000
0000
,
1000
0000
0000
0000
,
0020
0000
0000
0000
,
0030
0000
0000
0000
,
0000
0000
0020
0000
,
0000
0000
0030
0000
,
0000
0000
0000
0000
,
0020
0000
0000
0000
,
0030
0000
0000
0000
,
0020
0000
0000
0000
,
0030
0000
0200
0000
,
0000
0000
0300
0000
,
0000
0000
0000
0000
,
0000
0200
0000
0000
,
0000
0300
0000
0000
,
0000
0000
0000
0000
,
0200
0000
0000
0000
,
0300
0000
0000
0000
,
0000
0100
0000
0000
,
0010
0000
0000
0000
,
0000
0000
0010
0000
,
0000
0000
0000
0000
,
0010
0000
0000
0000
,
0000
0000
0010
0000
,
0000
0000
0000
0000
,
1001
0000
0000
0000
;
