#TITLE:Laplace;
#SUBTITLE:;
#ARTIST:sakuzyo / 140;
#TITLETRANSLIT:;
#SUBTITLETRANSLIT:;
#ARTISTTRANSLIT:;
#GENRE:;
#CREDIT:;
#MENUCOLOR:;
#METERTYPE:DDR;
#BANNER:Laplace.png;
#BACKGROUND:Laplace-bg.png;
#LYRICSPATH:;
#CDTITLE:;
#MUSIC:Laplace.mp3;
#OFFSET:-0.293;
#SAMPLESTART:40.528;
#SAMPLELENGTH:12.000;
#SELECTABLE:YES;
#LISTSORT:;
#BPMS:0.000=155.000,133.000=77.500,141.000=155.000,189.000=77.500,203.000=155.000;
#STOPS:68.000=1.161
,203.000=1.161
;
#BGCHANGES:-0.584=Laplace.avi=1.000=0=0=1,
99999=-nosongbg-=1.000=0=0=0 // don't automatically add -songbackground-
;
#ATTACKS:;

//---------------dance-single - ----------------
#NOTES:
     dance-single:
     :
     Hard:
     8:
     0.496,0.528,0.277,0.089,0.161: // measure 1
0000
0000
0000
0000
,  // measure 2
0000
0000
0000
0000
,  // measure 3
0000
0000
0000
0000
,  // measure 4
0000
0000
0000
0000
,  // measure 5
0000
0000
0000
0000
,  // measure 6
0000
0000
0000
0000
,  // measure 7
1000
0000
0010
0100
0000
0001
0010
0100
,  // measure 8
0000
0000
0000
0000
0000
0000
0010
0000
0001
0000
0000
0100
0000
0000
0010
0000
,  // measure 9
1000
0000
0010
0100
0000
0001
0010
0110
,  // measure 10
0000
0000
0000
0000
0000
0000
0001
0000
0010
0000
0000
0100
0000
0000
1000
0000
,  // measure 11
0001
0000
0100
0000
0010
0000
0000
0100
0010
0000
0100
0000
0001
0000
0000
0000
,  // measure 12
1000
0000
0100
0000
0010
0000
0000
0100
0010
0000
0001
0000
0100
0000
0010
0000
,  // measure 13
0001
0000
0010
0000
0100
0000
0000
0001
1000
0000
0100
0000
0010
0000
0000
0000
,  // measure 14
0100
0000
0010
0000
0001
0000
0000
0100
0010
0000
1000
0000
0001
0000
0100
0000
,  // measure 15
0010
0000
0001
0000
0010
0000
0000
0100
0001
0000
1000
0000
0100
0000
0000
0000
,  // measure 16
0010
0000
0100
0000
0010
0000
0000
0001
0100
0000
0010
0000
1000
0000
0001
0000
,  // measure 17
0100
0000
1000
0000
0100
0000
0000
0001
0010
0000
0100
0000
1000
0000
0001
0000
,  // measure 18
2002
3003
0000
0000
0110
0000
0000
0000
0100
0000
0000
0000
0010
0000
0100
0000
,  // measure 19
1000
0100
0001
0000
0010
0100
0000
1000
,  // measure 20
0001
0000
0100
0000
0010
0000
0100
0001
,  // measure 21
1000
0100
0010
0000
0100
0010
0000
0001
,  // measure 22
0100
0010
0001
0000
0010
0000
1000
0001
,  // measure 23
0010
0100
0010
0000
0001
0100
0000
0010
,  // measure 24
1000
0000
0001
0000
1000
0000
0100
0010
,  // measure 25
0100
1000
0001
0000
0100
0010
0000
0100
,  // measure 26
0010
1000
1100
0000
0100
0000
0010
0001
,  // measure 27
0100
0000
0101
0000
0100
0000
0010
1000
,  // measure 28
0001
0000
1000
0100
1000
0000
0000
0010
0000
0000
0100
0000
0000
0000
0010
0000
,  // measure 29
1000
0001
0011
0000
0010
0000
1100
0000
,  // measure 30
1001
0000
0101
0000
0100
0010
1000
0000
,  // measure 31
1000
0001
0000
1000
0100
0000
0101
0000
,  // measure 32
0110
0000
1010
0000
1000
0001
0011
0000
,  // measure 33
0001
0100
0220
0000
0030
0000
0001
0000
,  // measure 34
0301
1001
1010
1100
,  // measure 35
0110
0011
0101
0110
,  // measure 36
1010
0000
0000
0001
1001
0000
1000
0000
0100
0000
0000
0010
0001
0000
1000
0000
,  // measure 37
0010
0000
0000
0000
0100
0000
0010
0000
1000
0000
0000
0100
0010
0000
0000
0100
,  // measure 38
0000
0000
0010
0000
0011
0000
0000
0000
0001
0000
0000
0010
0100
0000
1000
0000
,  // measure 39
0010
0000
0101
0000
0100
0010
1000
0100
,  // measure 40
1000
0001
1001
0000
1000
0000
0010
0100
,  // measure 41
0000
0010
1000
0000
0010
0100
0000
0001
0100
0000
0001
0000
0010
0000
0000
0000
,  // measure 42
0001
0000
1000
0000
0010
0000
0000
0100
0010
0000
1000
0000
0001
0010
0001
0000
,  // measure 43
0100
0010
0000
0100
0000
0010
0100
0000
0010
0000
1000
0000
0001
1000
0001
1000
,  // measure 44
0001
0000
0010
0000
0200
0000
0000
0000
0310
0000
0000
0001
1000
0000
0010
0000
,  // measure 45
0100
0000
0000
0000
0010
0000
1000
0000
0100
0000
0010
0000
0001
0100
0001
0000
,  // measure 46
0010
0000
0100
0000
1000
0100
0000
0010
0100
0000
1000
0000
0010
0000
0100
0000
,  // measure 47
0001
2001
0000
0010
,  // measure 48
3010
0000
0000
0000
0110
0100
0000
0000
0001
0000
0000
0000
1000
0000
0000
0100
,  // measure 49
0010
0100
0010
0000
0001
0000
1000
0000
,  // measure 50
0010
0100
0001
1000
0100
0010
0100
1000
,  // measure 51
0010
0000
0100
0000
1000
0000
0100
0000
0001
0000
1000
0000
2002
3003
0000
0000
,  // measure 52
0110
0010
1000
0100
0010
0001
0010
0100
,  // measure 53
0010
0100
1000
0010
0100
1000
0100
0001
,  // measure 54
1000
0010
0100
0010
0100
0001
0010
0100
,  // measure 55
1000
0100
0010
0100
1000
0010
0100
1000
,  // measure 56
0100
0001
1000
0010
0100
1000
0100
0001
,  // measure 57
0010
0100
1000
0100
0010
0100
0001
0100
,  // measure 58
1000
0010
0100
0001
0010
0100
1000
2002
,  // measure 59
0000
0000
0003
0000
0000
0000
3001
0010
0000
0100
1000
0000
0010
0100
0010
0100
,  // measure 60
0010
0000
0000
0000
;

//---------------dance-single - ----------------
#NOTES:
     dance-single:
     :
     Medium:
     6:
     0.380,0.396,0.206,0.197,0.040: // measure 1
0000
0000
0000
0000
,  // measure 2
0000
0000
0000
0000
,  // measure 3
0000
0000
0000
0000
,  // measure 4
0000
0000
0000
0000
,  // measure 5
0000
0000
0000
0000
,  // measure 6
0000
0000
0000
0000
,  // measure 7
2000
0000
0000
0200
0000
3000
0000
0020
,  // measure 8
0000
0000
0300
0000
0000
0000
0130
0000
1000
0000
0000
0010
0000
0000
0100
0000
,  // measure 9
0002
0000
0000
0020
0000
0033
0000
0110
,  // measure 10
0000
0000
0000
0000
0000
0000
0100
0000
1000
0000
0000
0001
0000
0000
0100
0000
,  // measure 11
0001
0000
0010
0000
0100
0010
0100
0000
,  // measure 12
1000
0000
0010
0000
0100
0010
0100
0000
,  // measure 13
0001
0000
1000
0000
0100
1000
0100
0000
,  // measure 14
0010
0000
0001
0000
0100
0001
0100
0000
,  // measure 15
0001
0000
1000
0000
0010
1000
0010
0000
,  // measure 16
0100
0000
0010
0000
1000
0100
1000
0000
,  // measure 17
0100
0000
0010
0000
0001
0100
0001
0000
,  // measure 18
1001
0000
0110
0000
0100
0000
0010
1000
,  // measure 19
0000
0001
0010
0000
0100
0000
0010
0100
,  // measure 20
0010
0000
0001
0000
0100
0000
0001
1000
,  // measure 21
0000
0010
1000
0000
0010
0000
0100
0010
,  // measure 22
0100
0000
0001
0000
0010
0000
0100
0010
,  // measure 23
0000
0001
0100
0000
0001
0000
1000
0001
,  // measure 24
1000
0000
0010
0000
0100
0000
0001
0010
,  // measure 25
0000
0100
0010
0000
0001
0000
0100
0001
,  // measure 26
0100
0000
0110
0000
0100
0000
0001
0010
,  // measure 27
0001
1001
1000
0010
,  // measure 28
0000
0000
0100
0000
0010
0000
0000
1000
0000
0000
0001
0000
0000
0000
1000
0000
,  // measure 29
0100
1100
1000
1010
,  // measure 30
0110
0101
0001
1000
,  // measure 31
0001
0010
0000
0001
0100
0000
0110
0000
,  // measure 32
0101
1001
1000
1010
,  // measure 33
0010
0220
0000
0000
,  // measure 34
0330
0000
2001
0000
0020
3000
0200
0030
,  // measure 35
0002
0300
0020
0003
0200
0030
0020
0300
,  // measure 36
0002
0030
1003
0010
1000
0000
0010
0000
,  // measure 37
0100
0000
0001
0010
0001
0000
0010
0000
,  // measure 38
0100
0000
1000
0100
1000
0000
0001
0000
,  // measure 39
0100
0201
0000
0020
,  // measure 40
0330
0000
1001
0000
1000
0000
0010
0100
,  // measure 41
0010
0000
0000
0000
1000
0000
0000
0100
0000
0000
0010
0000
0001
0000
0000
0000
,  // measure 42
1000
0010
0100
0000
0010
1000
0001
0000
,  // measure 43
0100
0000
0000
0010
0000
0000
0100
0000
0010
0000
0000
0000
1000
0000
0000
0000
,  // measure 44
0001
0100
0020
0000
0130
0000
0010
0100
,  // measure 45
0001
0000
1000
0000
0010
0100
0020
0000
,  // measure 46
0130
0000
0000
0000
0001
0000
0000
0010
0000
0000
0100
0000
1000
0000
0000
0000
,  // measure 47
0001
2002
0000
0000
,  // measure 48
3003
0000
0000
0000
1000
0001
0000
0000
0100
0000
0000
0000
0010
0000
0000
1000
,  // measure 49
0100
0010
0001
0000
0100
0000
0010
0000
,  // measure 50
0100
0000
0010
0100
0001
0010
0100
0010
,  // measure 51
0001
0100
0010
1000
0001
0010
0110
0000
,  // measure 52
1001
0000
0001
0000
0010
0100
1000
0000
,  // measure 53
0010
0000
0100
0000
0010
0100
0001
0000
,  // measure 54
0010
0000
0100
0000
0010
0001
0100
0000
,  // measure 55
0010
0100
0001
1000
0100
0000
1000
0000
,  // measure 56
1001
0000
0001
0000
0100
0010
0100
0000
,  // measure 57
0101
0000
0001
0000
0010
0100
0010
0000
,  // measure 58
0001
0010
0100
0000
0010
0001
0100
0002
,  // measure 59
0000
0000
0000
0000
0000
0000
1003
0000
0000
0100
0000
0000
0010
0000
0001
0000
,  // measure 60
1001
0000
0000
0000
;

//---------------dance-single - ----------------
#NOTES:
     dance-single:
     :
     Easy:
     4:
     0.271,0.343,0.116,0.188,0.004: // measure 1
0000
0000
0000
0000
,  // measure 2
0000
0000
0000
0000
,  // measure 3
0000
0000
0000
0000
,  // measure 4
0000
0000
0000
0000
,  // measure 5
0000
0000
0000
0000
,  // measure 6
0000
0000
0000
0000
,  // measure 7
2000
0000
0000
0020
0000
3000
0000
0200
,  // measure 8
0000
0030
0310
0100
,  // measure 9
0002
0000
0000
2000
0000
3003
0000
1100
,  // measure 10
0000
0000
0100
0001
,  // measure 11
1000
0010
0100
0000
,  // measure 12
0010
0100
0001
0010
,  // measure 13
0100
0010
0001
0000
,  // measure 14
1000
0010
0100
0010
,  // measure 15
0100
0001
0010
0000
,  // measure 16
0100
0010
0001
0100
,  // measure 17
0010
1000
0001
0100
,  // measure 18
0110
0110
0100
0001
,  // measure 19
0000
0010
0100
0010
,  // measure 20
0001
0100
0010
1000
,  // measure 21
0000
0001
1000
0100
,  // measure 22
0010
0100
0010
0001
,  // measure 23
0000
0100
0010
0100
,  // measure 24
0001
0010
0100
0010
,  // measure 25
0000
0001
0000
1000
,  // measure 26
0001
0100
0010
0000
,  // measure 27
0100
0001
0010
0000
,  // measure 28
0100
0000
0010
0000
0000
0001
0000
0000
,  // measure 29
1000
0010
0000
0100
,  // measure 30
0001
0010
0000
0100
,  // measure 31
0010
0001
0000
1000
,  // measure 32
0010
0100
0000
0010
,  // measure 33
0000
0220
0000
0000
,  // measure 34
0330
0000
0210
0000
0002
0300
0020
0003
,  // measure 35
0200
0030
2000
0300
0200
3000
0020
0300
,  // measure 36
0002
0030
1003
0000
0010
0000
0000
0000
,  // measure 37
0100
0001
0010
0000
,  // measure 38
0100
0010
0001
0000
,  // measure 39
0100
0120
1000
1000
,  // measure 40
1030
1001
0001
1000
,  // measure 41
0000
0001
0000
0000
0100
0000
0010
0000
,  // measure 42
1000
0001
0000
1000
,  // measure 43
0001
0000
1000
0010
,  // measure 44
0100
0020
1030
0000
,  // measure 45
0001
1000
0010
0000
,  // measure 46
0001
0010
0100
0010
,  // measure 47
0001
2002
0000
0000
,  // measure 48
3003
0000
0000
0000
1001
0000
0000
0000
0001
0000
0000
0000
0100
0000
0000
0001
,  // measure 49
0000
1000
0010
0000
0100
0000
0001
0000
,  // measure 50
0010
0000
0100
0010
0001
0000
0100
0010
,  // measure 51
1000
0000
0100
0010
0100
0000
1001
0000
,  // measure 52
0110
0100
0001
0010
,  // measure 53
0100
0010
0001
0100
,  // measure 54
0001
1000
0100
0010
,  // measure 55
0001
0010
0100
0010
,  // measure 56
0001
0100
0010
1000
,  // measure 57
0001
0010
0100
0010
,  // measure 58
0001
0000
0100
0000
0010
0000
0000
0201
,  // measure 59
0000
0000
0000
0020
0000
0000
0330
0000
,  // measure 60
0110
0000
0000
0000
;
