#TITLE:Fairy Tail Main Theme;
#SUBTITLE:;
#ARTIST:Yasuharu Takanashi;
#TITLETRANSLIT:;
#SUBTITLETRANSLIT:;
#ARTISTTRANSLIT:;
#CREDIT:348;
#BANNER:Fairy Tail Main Theme Banner.png;
#BACKGROUND:Fairy Tail Main Theme Background.png;
#LYRICSPATH:;
#CDTITLE:;
#MUSIC:Fairy Tail Main Theme.ogg;
#OFFSET:-0.729;
#SAMPLESTART:9.455;
#SAMPLELENGTH:15.000;
#SELECTABLE:YES;
#BPMS:0.000=110.000;
#STOPS:;
#BGCHANGES:;

//---------------dance-single - ----------------
#NOTES:
     dance-single:
     :
     Beginner:
     1:
     0.067,0.088,0.000,0.000,0.000:
0000
0000
0000
0000
,
0000
0000
0000
0000
,
0000
0000
0000
0000
,
0000
0000
0000
0000
,
1000
0000
0000
0000
,
1000
0000
0000
0000
,
1000
0000
0000
0000
,
1000
0000
0000
0000
,
0001
0000
0000
0000
,
0001
0000
0000
0000
,
0001
0000
0000
0000
,
0001
0000
0000
0000
,
0100
0000
0000
0000
,
0010
0000
0000
0000
,
1000
0000
0000
0000
,
0010
0000
0000
0000
,
0010
0000
0000
0000
,
1000
0000
0000
0000
,
0001
0000
0000
0000
,
0100
0000
0000
0000
,
0100
0000
0000
0000
,
0001
0000
0000
0000
,
1000
0000
0000
0000
,
0010
0000
0000
0000
,
0100
0000
0000
0000
,
0001
0000
0000
0000
,
1000
0000
1000
0000
,
1000
0000
0000
0000
,
0001
0000
0001
0000
,
0001
0000
0000
0000
,
0100
0000
0100
0000
,
0100
0000
0000
0000
,
0010
0000
0010
0000
,
0010
0000
0000
0000
,
1000
0000
0000
0000
,
0001
0000
1000
0000
,
0010
0000
0000
0000
,
0100
0000
0010
0000
,
0100
0000
0000
0000
,
0010
0000
0100
0000
,
0001
0000
0000
0000
,
1000
0000
0001
0000
,
1000
0000
0000
0000
,
0100
0000
0000
0000
,
1000
0000
0000
0000
,
0100
0000
0000
0000
,
0010
0000
0000
0000
,
0001
0000
0000
0000
,
0010
0000
0000
0000
,
0001
0000
0000
0000
,
1000
0000
0000
0000
,
0001
0000
0000
0000
,
0100
0000
0000
0000
,
0000
0000
0000
0000
,
0010
0000
0000
0000
;

//---------------dance-single - ----------------
#NOTES:
     dance-single:
     :
     Easy:
     2:
     0.139,0.156,0.000,0.081,0.000:
0000
0000
0000
0000
,
0000
0000
0000
0000
,
0000
0000
0000
0000
,
0000
0000
0000
0000
,
1000
0000
0100
0000
,
1000
0000
0100
0000
,
0010
0000
0001
0000
,
0010
0000
0001
0000
,
0100
0000
0010
0000
,
1000
0000
0001
0000
,
1000
0000
0001
0000
,
0100
0000
0010
0000
,
2000
0000
0000
3000
,
0002
0000
0000
0003
,
1000
1000
0100
0000
,
0010
0000
0001
0000
,
0001
0001
0010
0000
,
0100
0000
1000
0000
,
0001
0000
0100
0100
,
0100
0000
0001
0000
,
1000
0000
0010
0010
,
0010
0000
1000
0000
,
0001
0000
0010
0000
,
0100
0000
1000
0000
,
0001
0000
0100
0000
,
0010
0000
1000
0000
,
0001
0000
0001
0000
,
0100
0100
0100
0000
,
0010
0000
0010
0000
,
1000
1000
1000
0000
,
1000
0000
1000
0000
,
0010
0010
0010
0000
,
0100
0000
0100
0000
,
0001
0001
0001
0000
,
2000
0000
3100
0000
,
1000
0100
1000
0000
,
0002
0000
0013
0000
,
0001
0010
0001
0000
,
0200
0000
0301
0000
,
0100
0001
0100
0000
,
0020
0000
1030
0000
,
0010
1000
0010
0000
,
1000
0000
1000
0000
,
1000
0000
1000
0100
,
0100
0000
0100
0000
,
0100
0000
0100
0010
,
0010
0000
0010
0000
,
0010
0000
0010
0001
,
0001
0000
0001
0000
,
0001
0000
0001
1000
,
0002
0000
0000
0003
,
0200
0000
0000
0300
,
0020
0000
0000
0000
,
0000
0000
0000
0030
,
2000
0000
0000
0000
,
3000
0000
0000
0000
;

//---------------dance-single - ----------------
#NOTES:
     dance-single:
     :
     Medium:
     5:
     0.332,0.379,0.211,0.349,0.000: // measure 1
0000
0000
0000
0000
,  // measure 2
0000
0000
0000
0000
,  // measure 3
0000
0000
0000
0000
,  // measure 4
0000
0000
0000
0000
,  // measure 5
1000
0100
1000
0010
,  // measure 6
0100
0001
0010
0001
,  // measure 7
0100
0001
1000
0010
,  // measure 8
1000
0001
0100
0010
,  // measure 9
1000
0000
0100
0000
1000
0001
1000
0000
,  // measure 10
0001
0000
0010
0000
0001
1000
0001
0000
,  // measure 11
0100
0000
0001
0000
0100
0010
0100
0000
,  // measure 12
0010
0000
1000
0000
0010
0100
0010
0000
,  // measure 13
2000
0100
0010
3001
,  // measure 14
0002
0010
0100
1003
,  // measure 15
1001
0000
0110
0000
,  // measure 16
1000
0001
1100
0101
,  // measure 17
1001
0000
0110
0000
,  // measure 18
0001
1000
0011
1010
,  // measure 19
0110
0000
1001
0000
,  // measure 20
0100
0010
1010
1100
,  // measure 21
0110
0000
1001
0000
,  // measure 22
0010
0100
0101
0011
,  // measure 23
0002
0103
0200
0310
,  // measure 24
0020
1030
2000
3001
,  // measure 25
2000
3100
0200
0310
,  // measure 26
0020
0031
0002
1003
,  // measure 27
0001
0000
0010
0001
0010
0000
0001
0000
,  // measure 28
1000
0000
0100
0000
1000
0100
1000
0000
,  // measure 29
0001
0000
0100
0010
0100
0000
0001
0000
,  // measure 30
1000
0010
0100
1001
,  // measure 31
0010
0000
0100
0001
0100
0000
0010
0000
,  // measure 32
1000
0000
0010
0000
1000
0010
1000
0000
,  // measure 33
0100
0000
1000
0001
1000
0000
0100
0000
,  // measure 34
1000
0001
0100
0110
,  // measure 35
0002
0000
0103
0010
0100
0000
0010
1000
,  // measure 36
0020
2030
3002
0203
,  // measure 37
0320
0000
1030
0001
1000
0000
0001
0010
,  // measure 38
0002
0203
0320
2030
,  // measure 39
3200
0000
1300
0010
1000
0000
0010
0100
,  // measure 40
0020
0230
0302
2003
,  // measure 41
3020
0000
1030
0100
1000
0000
0001
1000
,  // measure 42
0002
2003
3020
0130
,  // measure 43
0101
0000
1000
0100
2000
0000
3001
0010
,  // measure 44
0002
0000
1003
0001
1000
0000
0110
0000
,  // measure 45
1010
0000
0010
1000
0020
0000
0130
0001
,  // measure 46
0200
0000
0310
0100
0010
0000
1001
0000
,  // measure 47
1100
0000
0001
0010
0002
0000
0103
0010
,  // measure 48
0200
0000
0310
1000
0010
1000
0010
0000
,  // measure 49
0011
0000
1000
0100
2000
0000
3010
0100
,  // measure 50
0020
0000
1030
0001
1000
0001
1000
0000
,  // measure 51
0020
1000
0001
0130
,  // measure 52
0200
0001
1000
0310
,  // measure 53
0220
0000
0000
0000
,  // measure 54
0000
0000
0000
0330
,  // measure 55
2002
0000
0000
0000
,  // measure 56
3003
0000
0000
0000
;

//---------------dance-single - ----------------
#NOTES:
     dance-single:
     :
     Hard:
     8:
     0.519,0.513,0.138,0.316,0.203: // measure 1
0000
0000
0000
0000
,  // measure 2
0000
0000
0000
0000
,  // measure 3
0000
0000
0000
0000
,  // measure 4
0000
0000
0000
0000
,  // measure 5
1000
0100
0001
0100
1000
0100
0001
0100
,  // measure 6
1000
0010
0001
0010
1000
0010
0001
0010
,  // measure 7
1000
0100
0010
0100
1000
0001
0010
0100
,  // measure 8
0010
0001
1000
0100
0010
0001
1000
0001
,  // measure 9
1000
0000
0010
0000
0100
0000
0010
0000
1000
0000
0001
0000
0100
0000
0010
0100
,  // measure 10
0001
0000
0010
0000
0100
0000
1000
0000
0010
0000
0100
0000
0001
0000
1000
0001
,  // measure 11
1000
0000
0100
0000
0010
0000
0100
0000
0001
0000
0100
0000
1000
0000
0100
0010
,  // measure 12
0001
0000
1000
0000
0001
0000
1000
0000
0010
0100
0010
0100
0010
0000
1000
0000
,  // measure 13
0001
0000
0100
0010
0100
0000
0001
1000
0002
0000
0010
0000
0100
0000
1003
0000
,  // measure 14
1000
0000
0010
0100
0010
0000
1000
0001
2000
0000
0010
0000
0100
0000
3001
0000
,  // measure 15
2000
0000
3002
0000
1003
0100
1100
0000
,  // measure 16
0001
0010
0100
1000
0001
0100
0101
0000
,  // measure 17
0002
0000
0023
0000
0031
0010
0011
0000
,  // measure 18
1000
0000
0100
0000
0010
0000
0001
0000
1000
0001
1000
0000
0001
0000
1010
0000
,  // measure 19
2000
0000
3200
0000
1300
0010
1010
0000
,  // measure 20
0001
0100
0010
1000
0010
0100
0011
0000
,  // measure 21
0200
0000
0320
0000
0130
0001
0101
0000
,  // measure 22
1000
0000
0010
0000
0100
0000
0001
0000
0100
0010
0100
0000
0001
0000
1100
0000
,  // measure 23
0001
0000
0100
0001
0010
0000
0010
0001
0100
0000
0010
0000
1001
0000
0000
0000
,  // measure 24
1000
0000
0001
1000
0100
0000
0100
1000
0001
0000
1000
0000
0110
0000
0000
0000
,  // measure 25
0001
0000
0010
0001
0010
0000
0100
1000
0100
0000
1000
0000
0110
0000
0000
0000
,  // measure 26
1000
0000
0001
1000
0001
0000
0100
0000
0001
1000
0001
1000
0001
0000
0010
0000
,  // measure 27
0002
0000
0000
0000
0103
0000
0010
0000
2000
0000
0000
3001
1000
0000
0100
0000
,  // measure 28
1000
0000
0100
0000
0010
0000
0100
0000
1000
0010
0100
0000
0001
0000
0100
0000
,  // measure 29
0020
0000
0000
0000
1030
0000
0001
0000
0200
0000
0000
0310
0100
0000
0001
0000
,  // measure 30
0100
0000
0001
0000
0010
0000
0001
1000
0100
0000
0010
0000
1001
0000
0000
0000
,  // measure 31
2000
0000
0000
0000
3100
0000
0010
0000
0200
0000
0000
1300
0010
0000
0100
0000
,  // measure 32
0010
0000
1000
0000
0100
0000
0010
0000
0001
0010
0100
0000
1000
0000
0001
0000
,  // measure 33
0020
0000
0000
0000
0031
0000
0100
0000
0002
0000
0000
0013
0001
0000
0100
0000
,  // measure 34
1000
0000
0100
0000
0001
0000
1000
0001
0100
0000
0010
0000
1001
0000
0000
0000
,  // measure 35
1000
0000
0010
0000
0100
0000
0010
0000
1000
0000
0001
0010
0100
0000
1000
0000
,  // measure 36
0002
0203
0320
2030
,  // measure 37
3001
0000
0100
0000
1000
0000
0100
0000
0001
0000
1000
0100
1000
0000
0001
0000
,  // measure 38
2000
3200
0302
0203
,  // measure 39
1300
0000
1000
0000
0100
0000
0001
0100
1000
0000
0100
0000
0010
0000
0001
0000
,  // measure 40
2000
3200
0302
0023
,  // measure 41
1030
0000
0100
0000
0010
0000
0010
0100
1000
0000
0001
0000
0100
0000
0001
0000
,  // measure 42
0200
0000
0000
0000
0320
0000
0000
0000
1030
0001
1000
0001
2000
0000
0000
0000
,  // measure 43
3001
0000
0100
0010
0100
0000
0001
0000
1000
0000
0100
0010
0001
0000
1000
0000
,  // measure 44
0010
0000
0001
0010
1000
0000
0001
0000
1000
0000
0100
0000
0010
0000
1001
0000
,  // measure 45
0001
0000
1000
0100
1000
0000
0001
0000
0100
0000
0001
1000
0010
0000
1000
0000
,  // measure 46
0001
0000
0100
1000
0100
0000
0001
0000
0100
0000
0001
0000
1000
0000
0110
0000
,  // measure 47
0001
0000
1000
0100
0010
0000
0001
0000
0010
0100
1000
0000
0001
0000
1000
0000
,  // measure 48
0010
0000
0001
0010
1000
0000
0001
0000
0100
1000
0100
0000
0001
0000
1000
0000
,  // measure 49
0001
0000
0100
0010
0100
0000
0010
0000
1000
0000
0001
1000
0001
0000
0100
0000
,  // measure 50
0001
0010
0001
0010
0001
0000
1000
0000
0100
1000
0100
1000
0100
0000
0010
0000
,  // measure 51
0002
0100
0010
0100
1000
0100
0013
0000
,  // measure 52
2000
0010
0001
0010
0100
0010
3001
0000
,  // measure 53
0220
0000
0000
0000
,  // measure 54
0000
0000
0000
0330
,  // measure 55
2002
0000
0000
0000
,  // measure 56
3003
0000
0000
0000
;

//---------------dance-single - ----------------
#NOTES:
     dance-single:
     :
     Challenge:
     9:
     0.654,0.647,0.268,0.300,0.490: // measure 1
0000
0000
0000
0000
,  // measure 2
0000
0000
0000
0000
,  // measure 3
0000
0000
0000
0000
,  // measure 4
0000
0000
0000
0000
,  // measure 5
1000
0000
0100
1000
0100
0000
0010
0001
0010
0001
0010
0000
0001
0000
1000
0000
,  // measure 6
0001
0000
0010
0001
0010
0000
0100
1000
0100
1000
0100
0000
1000
0000
0001
0000
,  // measure 7
1000
0000
0010
0100
0010
0000
1000
0001
1000
0001
1000
0000
0010
0000
0100
0000
,  // measure 8
0001
1000
0001
1000
0001
0000
0100
0010
0100
0010
0100
0010
0100
0000
0001
0000
,  // measure 9
1100
0000
1000
0100
1000
0000
0001
0010
0001
0010
0002
0000
1000
0000
1003
0000
,  // measure 10
0011
0000
0001
0100
0001
0000
1000
0010
1000
0010
2000
0000
0001
0000
3010
0000
,  // measure 11
1001
0000
1000
0001
1000
0000
0010
0100
0010
0100
0020
0000
0100
0000
0130
0000
,  // measure 12
0100
0010
0100
0010
0100
0000
0001
1000
0001
1000
0001
1000
0001
0000
0100
0000
,  // measure 13
0001
0000
1000
0100
1000
0000
0100
0010
0100
0000
0010
0001
0010
0000
0001
0000
,  // measure 14
1000
0000
0001
0010
0001
0000
0010
0100
0010
0000
0100
1000
0100
0000
1000
0000
,  // measure 15
0002
0100
0103
0000
2000
0010
3010
0000
,  // measure 16
0002
0000
0100
0003
0100
0000
0100
0001
2000
0000
0010
0000
3010
0000
0000
0000
,  // measure 17
0020
1000
1030
0000
0200
0001
0301
0000
,  // measure 18
0020
0000
1000
0000
1030
0000
1000
0001
0200
0000
0001
0000
0301
0000
0001
1000
,  // measure 19
0002
0010
0013
0000
2000
0100
3100
0000
,  // measure 20
0002
0000
0010
0000
0013
0000
0010
0001
2000
0000
0100
0000
3100
0000
0000
0000
,  // measure 21
0002
1000
1003
0000
2000
0001
3001
0000
,  // measure 22
0020
0000
0100
0000
0100
0000
0130
0000
0100
0001
1000
0010
1000
0001
0100
0010
,  // measure 23
1000
0000
0001
0100
0010
0000
1000
0010
0100
0000
0001
1000
0002
0000
0000
0000
,  // measure 24
1003
0000
0010
1000
0100
0000
0010
0001
0100
0000
0110
0000
1001
0000
0000
0000
,  // measure 25
1000
0000
0001
0010
0100
0000
1000
0100
0010
0000
0001
1000
0001
0000
0110
0000
,  // measure 26
0001
0010
0100
1000
0001
0000
1000
0100
0010
0001
0100
0010
1000
0000
0110
0000
,  // measure 27
1000
0000
0100
1000
0010
0000
0100
0000
0001
0000
0010
0001
0100
0000
0010
0000
,  // measure 28
1000
0000
0100
0000
0010
0000
1001
0000
1000
0001
1000
0000
0010
0000
0110
0000
,  // measure 29
0001
0000
1000
0010
0100
0000
0001
0000
1000
0000
0001
0100
0010
0000
1000
0000
,  // measure 30
0010
0000
1000
0000
0001
0000
0110
0000
0010
0100
0010
0100
0010
0000
1001
0000
,  // measure 31
1000
0000
0010
0100
0001
0000
1000
0000
0001
0010
0100
1000
0001
0000
1000
0000
,  // measure 32
0010
0000
1000
0000
0010
0000
0110
0000
0100
0001
1000
0001
0100
0000
1001
0000
,  // measure 33
0001
0000
0010
0100
1000
0000
0001
0000
1000
0010
0100
0001
1000
0000
0001
0000
,  // measure 34
1000
0000
0010
0100
0010
0000
1000
0000
0001
0010
0100
1000
0100
0010
0001
1000
,  // measure 35
0002
0010
0010
0013
0200
1000
1000
1300
,  // measure 36
2000
0000
0001
0000
0001
0000
3001
0000
0001
1000
0100
0010
0100
1000
0001
0000
,  // measure 37
2000
0010
0010
3010
0200
0001
0001
0301
,  // measure 38
0200
0000
0010
0000
0010
0000
0310
0000
1000
0100
0010
0100
1000
0001
1000
0000
,  // measure 39
0002
0100
0103
0101
0020
1000
1030
1010
,  // measure 40
0002
0000
1000
0000
1003
0000
1001
0000
1000
0100
0010
0001
1000
0010
0100
0001
,  // measure 41
2000
0100
3100
1100
0020
0001
0031
0011
,  // measure 42
0020
0000
0100
0000
0130
0000
0110
0000
1000
0001
0100
0010
0100
0001
1000
0001
,  // measure 43
1000
0000
0100
1000
0100
0000
0010
0001
0010
0000
0001
1000
0001
0000
1001
0000
,  // measure 44
1000
0000
0001
0100
0010
0000
0010
0100
0001
1000
0001
0000
1100
0000
0011
0000
,  // measure 45
1000
0100
0010
0001
1000
0000
0001
0010
0100
0010
0001
0000
1010
0000
0101
0000
,  // measure 46
1000
0010
0100
0010
1000
0000
0001
1000
0001
0100
0010
1000
0001
0000
1001
0000
,  // measure 47
0001
0000
0100
1000
0100
0000
0010
0001
0010
0000
1000
0001
1000
0000
0110
0000
,  // measure 48
0001
0000
1000
0100
0010
0000
0010
0100
1000
0001
1000
0000
0011
0000
1010
0000
,  // measure 49
0001
0100
1000
0100
0001
0000
1000
0001
0100
0010
1000
0000
1100
0000
0101
0000
,  // measure 50
1000
0010
0001
0010
1000
0000
0001
0010
0100
1000
0010
0100
0001
0000
0110
0000
,  // measure 51
1000
0000
0010
0100
0010
0000
2000
0000
0001
0000
0010
0000
0100
0000
0010
0000
,  // measure 52
3001
0000
0100
0010
0100
0000
0002
0000
1000
0000
0100
0000
0010
0000
0103
0000
,  // measure 53
0220
0000
0000
0000
,  // measure 54
0000
0000
0000
0330
,  // measure 55
2002
0000
0000
0000
,  // measure 56
3003
0000
0000
0000
;
