#TITLE:bloomin' feeling;
#SUBTITLE:;
#ARTIST:Ryu☆;
#TITLETRANSLIT:;
#SUBTITLETRANSLIT:;
#ARTISTTRANSLIT:;
#GENRE:;
#MENUCOLOR:;
#BANNER:Bloomin' Feeling.png;
#BACKGROUND:Bloomin' Feeling-bg.png;
#LYRICSPATH:;
#CDTITLE:;
#MUSIC:bloomin' feeling.mp3;
#SAMPLESTART:0.050;
#SAMPLELENGTH:10.000;
#SELECTABLE:YES;
#ROWSPERBEAT:0=192;
#BEATSPERMEASURE:0=4;
#OFFSET:-1.75;
#BPMS:0.000=181.000;
#STOPS:;
#BGCHANGES:;

//---------------dance-single - ----------------
#ROWSPERBEAT:0=192;
#BEATSPERMEASURE:0=4;
#OFFSET:-1.700;
#BPMS:0.000=181.000;
#STOPS:;
#DELAYS:;
#TICKCOUNT:0.000=2;
#SPEED:0.000=1.000;
#MULTIPLIER:0.000=1;
#FAKES:;
#METERTYPE:DDR;
#ATTACKS:;
#NOTES:
     dance-single:
     :
     Beginner:
     2:
     0.130,0.173,0.000,0.000,0.000:
1000
0000
0000
0000
,
0001
0000
1000
0000
,
0100
0000
0000
0000
,
1000
0000
0001
0000
,
1000
0000
0000
0000
,
0100
0000
1000
0000
,
0001
0000
0000
0000
,
1000
0000
0000
0000
,
0100
0000
0000
0000
,
0010
0000
0100
0000
,
1000
0000
0000
0000
,
0001
0000
1000
0000
,
0000
0000
0100
0000
,
1000
0000
0100
0000
,
1000
0000
0100
0001
,
0000
0000
0100
0000
,
0000
0000
1000
0000
,
0000
0000
0100
0000
,
0000
0000
1000
0000
,
0000
0000
0100
0000
,
0000
0000
1000
0000
,
0000
0000
0001
0000
,
1000
0000
0000
0000
,
0001
0000
0000
0000
,
1000
0000
0000
0000
,
0001
0000
0000
0000
,
1000
0000
0000
0100
,
0000
0000
0000
0000
,
0010
0000
0000
0000
,
1000
0000
0000
0000
,
0001
0000
0000
0000
,
1000
0000
0000
0000
,
0100
0000
0010
0000
,
0100
0000
0010
0000
,
1000
0000
0001
0000
,
1000
0000
0001
0000
,
0100
0000
0010
0000
,
0100
0000
0010
0000
,
1000
0000
0001
0000
,
1000
0000
0000
0000
,
0100
0000
0000
0000
,
1000
0000
0100
0000
,
0000
0000
1000
0000
,
0000
0000
0001
0000
,
0000
0000
1000
0000
,
0000
0000
0001
0000
,
0000
0000
1000
0000
,
0000
0000
0001
0000
,
0000
0000
1000
0000
,
0000
0000
0001
0000
,
0000
0000
1000
0000
,
0000
0000
0001
0000
,
0000
0000
1000
0000
,
0000
0000
0100
0000
,
0000
0000
1000
0000
,
0000
0000
0000
0000
,
0001
0000
0000
0000
,
1000
0000
0001
0000
,
0000
0000
1000
0000
,
0000
0000
0100
0000
,
0000
0000
1000
0000
,
0000
0000
0001
0000
,
0000
0000
1000
0000
,
0000
0000
0100
0000
,
1000
0000
0000
0000
,
0001
0000
0100
0000
,
1000
0000
0100
0000
,
0001
0000
0000
0000
,
1000
0000
0100
0000
,
1000
0000
0001
0000
,
1000
0000
0100
0000
,
1000
0000
0001
0000
,
1000
0000
0000
0000
;

//---------------dance-single - ----------------
#ROWSPERBEAT:0=192;
#BEATSPERMEASURE:0=4;
#OFFSET:-1.700;
#BPMS:0.000=181.000;
#STOPS:;
#DELAYS:;
#TICKCOUNT:0.000=2;
#SPEED:0.000=1.000;
#MULTIPLIER:0.000=1;
#FAKES:;
#METERTYPE:DDR;
#ATTACKS:;
#NOTES:
     dance-single:
     :
     Easy:
     3:
     0.228,0.277,0.019,0.000,0.000:
1000
0001
1000
0000
,
0100
0000
1000
0000
,
0001
0000
0000
0000
,
1000
0000
0000
0000
,
0001
1000
0001
0000
,
1000
0100
1000
0000
,
0001
1000
0001
0000
,
1000
0100
1000
0000
,
0001
0000
1000
0000
,
0001
0100
1000
0000
,
1000
0000
1000
0000
,
1000
0100
0001
0000
,
0001
0000
1000
0000
,
0100
0000
1000
0000
,
0001
0000
1000
0000
,
0001
1000
0001
0000
,
0010
0100
0010
0000
,
1000
0100
1000
0000
,
1000
0100
0001
0000
,
0001
0100
1000
0000
,
1000
0100
0001
0000
,
0001
0010
1000
0000
,
1000
0100
1000
0000
,
0001
1000
0001
0000
,
1000
0000
0000
0000
,
1000
0000
0000
0000
,
0001
0000
0000
0000
,
0001
0000
0000
0000
,
0010
0000
0000
0000
,
0010
0000
0000
0000
,
0100
0000
0000
0000
,
0100
0000
0000
0000
,
1000
0000
0001
0000
,
1000
0000
0000
0000
,
0100
0000
0000
0000
,
0001
0000
0000
0000
,
1000
0000
0000
0000
,
0100
0000
0000
0000
,
0010
0000
0000
0000
,
0100
0000
0000
0000
,
1000
0000
0001
0000
,
1000
0000
0100
0000
,
1000
0000
0000
0000
,
0001
0000
1000
0000
,
0000
0000
0100
0000
,
1000
0000
0100
0000
,
0000
0000
0000
0000
,
1000
0000
0001
0000
,
1000
0000
0100
0000
,
1000
0100
1000
0000
,
0001
0000
0000
0000
,
1000
0100
1000
0000
,
0001
1000
0001
0000
,
1000
0010
1000
0000
,
0100
0000
0000
0000
,
1000
0100
0001
0000
,
1000
0010
1000
0100
,
1000
0001
1000
0000
,
0100
0010
0100
1000
,
0100
1000
0100
0000
,
0001
1000
0001
0000
,
1000
0100
1000
0000
,
0010
0100
0010
0001
,
0010
0001
0010
0000
,
1000
0100
1000
0100
,
0001
0100
0001
0000
,
1000
0100
0010
0001
,
1000
0100
0010
0000
,
1000
0001
1000
1001
,
0001
1000
0000
0000
,
0100
0010
0100
0010
,
0110
0000
0100
0000
,
1000
0000
0000
0000
;

//---------------dance-single - Copied from----------------
#ROWSPERBEAT:0=192;
#BEATSPERMEASURE:0=4;
#OFFSET:-1.700;
#BPMS:0.000=181.000;
#STOPS:;
#DELAYS:;
#TICKCOUNT:0.000=2;
#SPEED:0.000=1.000;
#MULTIPLIER:0.000=1;
#FAKES:;
#METERTYPE:DDR;
#ATTACKS:;
#NOTES:
     dance-single:
     Copied from:
     Medium:
     6:
     0.410,0.588,0.096,0.038,0.000:
1000
0100
0001
0100
,
0020
0000
0230
0000
2300
0000
0000
3000
,
0001
0000
0000
0000
,
1000
0000
0000
0000
,
1000
0000
0100
0000
1000
0010
1000
0000
,
0001
1000
0001
0000
,
1000
0100
1000
0001
,
1000
0001
1010
0000
,
0100
0000
1000
0000
0100
0001
0100
0000
,
1000
0001
1000
0000
,
0010
0000
1000
0000
0100
1000
0100
0000
,
0001
1000
0001
0000
,
1000
0000
0100
0000
1000
0100
1000
0000
,
0001
1000
0001
0000
,
0010
0100
0010
0100
,
1000
0001
1000
0000
,
0010
1000
0010
1000
,
0100
1000
0001
0000
,
1000
0100
1000
0100
,
0001
0100
0001
0100
0001
0000
0000
0000
,
1000
0100
1000
0100
,
0010
0100
0010
1000
,
0000
0001
1000
0001
,
1000
0001
1000
0100
,
0010
0000
0000
0000
,
1000
0000
0000
0000
,
1000
0000
0001
0000
,
1000
0001
1000
0001
,
1000
0100
1000
0100
,
1000
0001
1000
0001
,
1000
0001
1000
0100
,
1000
0100
1000
0000
,
1000
0001
1000
0001
1000
0001
1000
0010
,
1000
0010
1000
0010
1000
0010
1000
0100
,
1000
0100
1000
0100
1000
0100
1000
0001
,
1000
0001
1000
0001
1000
0001
1000
0000
,
1010
1100
1001
1010
,
1100
1001
1010
1100
,
0001
1000
0001
1000
0001
1000
0002
0000
,
0000
0003
0000
0000
,
1000
0000
0100
0000
1000
0100
1000
0000
,
0001
1000
0010
0000
,
1000
0000
0100
0000
1000
0100
1000
0000
,
0001
1000
0001
0000
,
0010
0000
0100
0000
0010
1000
0010
0000
,
0100
0001
0100
0000
,
1000
0000
0100
0000
0010
0100
0010
0000
,
0001
1000
0001
0000
,
1100
0001
0010
0001
,
0010
0100
1000
0000
,
0001
1000
0001
1000
,
0001
1000
0010
0000
,
0100
1000
0100
1000
,
0001
0010
1000
0000
,
0001
0000
1000
0000
0001
1000
0001
0000
,
0010
0100
1000
0000
,
0001
0000
1000
0000
1000
0010
0100
0000
,
0010
0100
0010
0000
,
1000
0000
0001
0000
1000
0001
1000
0000
,
0010
0100
0010
0000
,
1000
0000
0001
0000
1000
0001
1000
0000
,
0010
0100
0010
0000
,
1000
0100
1000
0001
,
1000
0001
0010
0000
,
0100
0000
1000
0000
0100
1000
0100
0000
,
0001
1000
0001
1000
,
0100
0000
0010
0000
0100
0010
0100
0010
,
0100
0010
0100
0010
0000
0000
0000
0000
,
1000
0000
0001
0000
0001
1000
0010
0000
,
0010
0100
0010
0100
,
1000
0100
1000
0100
,
1000
0100
0010
0001
1000
0000
0000
0000
,
0100
0000
0000
0000
;

//---------------dance-single - Copied from----------------
#ROWSPERBEAT:0=192;
#BEATSPERMEASURE:0=4;
#OFFSET:-1.700;
#BPMS:0.000=181.000;
#STOPS:;
#DELAYS:;
#TICKCOUNT:0.000=2;
#SPEED:0.000=1.000;
#MULTIPLIER:0.000=1;
#FAKES:;
#METERTYPE:DDR;
#ATTACKS:;
#NOTES:
     dance-single:
     Copied from:
     Hard:
     8:
     0.561,0.629,0.086,0.528,0.000:
1000
0000
0001
0000
0100
0001
0010
0000
,
0002
0000
2003
0000
3200
0000
0000
0300
,
0002
0000
0000
0000
,
2003
0000
3000
0000
,
0001
0000
1000
0000
0010
0100
0001
0000
,
2000
0000
3200
0000
0320
0000
0000
0030
,
1000
0000
0001
0000
0010
0001
0100
0010
,
1000
0100
1000
0100
0020
0000
0030
0000
,
1000
0000
0001
0000
1000
0001
1000
0000
,
0200
0000
0302
0000
2003
0000
0000
3000
,
0001
0000
1000
0000
0001
0010
0100
1000
,
0100
0001
0100
1000
0200
0000
0300
0000
,
1000
0000
0001
0000
1000
0001
1000
0001
,
0100
0100
0010
0000
0200
0000
0300
0000
,
1000
0000
0001
0000
1000
0100
0001
0100
,
1000
0010
0001
0010
2000
0000
3000
0000
,
0001
0000
1000
0000
0010
0100
0010
0000
,
2000
0000
3002
0000
0023
0000
0000
0030
,
1000
0000
0001
0000
1000
0001
1000
0100
,
0001
1000
0001
1000
0002
0000
0003
0000
,
1000
0000
0100
0000
0001
0100
1000
0100
,
0001
0001
0100
0000
2000
0000
3000
0000
,
0100
0000
0010
0000
0001
0010
0100
1000
,
0100
0010
0100
1000
0020
0000
0030
0000
,
1000
0100
1000
0100
,
0002
0000
2003
0000
,
3001
0100
0001
0100
,
0002
0000
2003
0000
,
3100
0001
0100
0001
,
2000
0000
3200
0000
,
0301
1000
0001
1000
,
0002
0000
0000
0000
0000
0000
0000
0000
0000
0000
0000
0000
0000
0000
0000
0000
0000
0000
0000
0000
0000
0000
0000
0000
0000
0000
0000
0000
0000
0000
0000
0000
0000
0000
0000
0000
0000
0000
0000
0000
0000
0000
0000
0000
0000
0000
0000
0000
0000
0000
0000
0000
0000
0000
0000
0000
0000
0000
0000
0000
0000
0000
0000
0000
0000
0000
0000
0000
0000
0000
0000
0000
0000
0000
0000
0000
0000
0000
0000
0000
0000
0000
0000
0000
0000
0000
0000
0000
0000
0000
0000
0000
0000
0000
0000
0000
0000
0000
0000
0000
0000
0000
0000
0000
0000
0000
0000
0000
0000
0000
0000
0000
0000
0000
0000
0000
0000
0000
0000
0000
0000
0000
0000
0000
0000
0000
0000
0000
0000
0000
0000
0000
0000
0000
0000
0000
0000
0000
0000
0000
0000
0000
0000
0000
0000
0000
0000
0000
0000
0000
0000
0000
0000
0000
0000
0000
0000
0000
0000
0000
0000
0000
0000
0000
0000
0000
0000
0000
0000
0000
0000
0000
0000
0000
0000
0000
0000
0000
0000
0000
0000
0000
0000
0000
0000
0000
0000
0000
0000
0000
0000
0000
0000
0000
0000
0000
0000
0000
0000
0000
0000
0000
0000
0000
0000
0000
0000
0000
0000
0000
0000
0000
0000
0000
0000
0000
0000
0000
0000
0000
0000
0000
0000
0000
0000
0000
0000
0000
0000
0000
0000
0000
0000
0000
0000
0000
0000
0000
0000
0000
0000
0000
0000
0000
0000
0000
0000
0000
0000
0000
0000
0000
0000
0000
0000
0000
0000
0000
0000
0000
0000
0000
0000
0000
0000
0000
0000
0000
0000
0000
0000
0000
0000
0000
0000
0000
0000
0000
0000
0000
0000
0000
0000
0000
0000
0000
0000
0000
0000
0000
0000
0000
0000
0000
0000
0000
0000
0000
0000
0000
0000
0000
0000
0000
0000
0000
0000
0000
0000
0000
0000
0000
0000
0000
0000
0000
0000
0000
0000
0000
0000
0000
0000
0000
0000
0000
0000
0000
0000
0000
0000
0000
0000
0000
0000
0000
0000
0000
0000
0000
0000
0000
0000
0000
0000
0000
0000
0000
0000
0000
0000
0000
0000
0000
0000
0000
0000
0000
0000
0000
0000
0000
0000
0000
0000
0000
0000
0000
0000
0000
0000
0000
0000
0000
0000
0000
0000
0000
0000
0000
0000
0000
0000
0000
0000
0000
0000
0000
0000
0000
0000
0000
0000
0000
0000
0000
0000
0000
0000
0000
0000
0000
0000
0000
0000
0000
0000
0000
0000
0000
0000
0000
0000
0000
0000
0000
0000
0000
0000
0000
0000
0000
0000
0000
0000
0000
0000
0000
0000
0000
0000
0000
0000
0000
0000
0000
0000
0000
0000
0000
0000
0000
0000
0000
0000
0000
0000
0000
0000
0000
0000
0000
0000
0000
0000
0000
0000
0000
0000
0000
0000
0000
0000
0000
0000
0000
0000
0000
0000
0000
0000
0000
0000
0000
0000
0000
0000
0000
0000
0000
0000
0000
0000
0000
0000
0000
0000
0000
0000
0000
0000
0000
0000
0000
0000
0000
0000
0000
0000
0000
0000
0000
0000
0000
0000
0000
0000
0000
0000
0000
0000
0000
0000
0000
0000
0000
0000
0000
0000
0000
0000
0000
0000
0000
0000
0000
0000
0000
0000
0000
0000
0000
0000
0000
0000
0000
0000
0000
0000
0000
0000
0000
0000
0000
0000
0000
0000
0000
0000
0000
0000
0000
0000
0000
0000
0000
0000
0000
0000
0000
0000
0000
0000
0000
0000
0000
0000
0000
0000
0000
0000
0000
0000
0000
0000
0000
0000
0003
0000
0000
0000
0000
0000
0000
0000
0000
0000
0000
0000
0000
0000
0000
0000
0000
0000
0000
0000
0000
0000
0000
0000
0000
0000
0000
0000
0000
0000
0000
0000
0000
0000
0000
0000
0000
0000
0000
0000
0000
0000
0000
0000
0000
0000
0000
0000
0000
0000
0000
0000
0000
0000
0000
0000
0000
0000
0000
0000
0000
0000
0000
0000
0000
0000
0000
0000
0000
0000
0000
0000
0000
0000
0000
0000
0000
0000
0000
0000
0000
0000
0000
0000
0000
0000
0000
0000
0000
0000
0000
0000
0000
0000
0000
0000
0000
0000
0000
0000
0000
0000
0000
0000
0000
0000
0000
0000
0000
0000
0000
0000
0000
0000
0000
0000
0000
0000
0000
0000
0000
0000
0000
0000
0000
0000
0000
0000
0000
0000
0000
0000
0000
0000
0000
0000
0000
0000
0000
0000
0000
0000
0000
0000
0000
0000
0000
0000
0000
0000
0000
0000
0000
0000
0000
0000
0000
0000
0000
0000
0000
0000
0000
0000
0000
0000
0000
0000
0000
0000
0000
0000
0000
0000
0000
0000
0000
0000
0000
0000
0000
0000
0000
0000
0000
0000
0000
0000
0000
0000
0000
,
1000
0100
1000
0100
1000
0100
1000
0100
,
0001
0100
0001
0100
0001
0100
0001
0100
,
1000
0100
1000
0100
1000
0100
0001
0100
,
0001
0100
0001
0100
0001
0100
0001
0100
,
1100
1001
1010
1000
,
1001
0000
0110
0000
0011
0000
0001
0100
,
0001
0100
0001
0100
0001
0100
0000
0000
,
2002
0000
0000
3003
,
1000
0000
0100
0000
0001
0100
0001
0100
,
0002
0000
2003
0000
3020
0000
0000
0030
,
0100
0000
0010
0000
0001
0010
0001
0010
,
0100
1000
0100
0001
0100
2000
0000
3000
,
0001
0000
0010
0000
0100
0010
0100
0000
,
0001
0001
0010
0000
0200
0000
0300
0000
,
0001
0000
1000
0000
0001
0100
0010
0000
,
0001
0010
1000
0010
0001
0000
0000
0000
,
0100
0000
0001
0000
1000
0100
0010
0001
,
0020
0000
2030
0000
3002
0000
0000
0003
,
1000
0000
0001
0000
1000
0100
0001
0100
,
1000
0010
0001
0010
2000
0000
3000
0000
,
0010
0000
0100
0000
0010
0100
0010
0100
,
0020
0000
2030
0000
3002
0000
0000
0003
,
1000
0000
0100
0000
0001
0100
0001
1000
,
0001
0100
0001
0010
0200
0000
0300
0000
,
1000
0000
0001
0000
0100
0001
0100
0001
,
0200
0000
0302
0000
2003
0000
0000
3000
,
0001
0000
1000
0000
0001
0100
0001
1000
,
0001
0100
1000
0100
0002
0000
0003
0000
,
1000
0000
0001
0000
1000
0001
1000
0000
,
0001
0001
0010
0000
0200
0000
0300
0000
,
1000
0000
0001
0000
0100
0001
0100
0010
,
0100
0001
0001
0100
0020
0000
0030
0000
,
1000
0000
0100
0000
0001
0100
0001
0100
,
0002
2003
3200
0301
,
0010
0000
0001
0000
0100
1000
0100
1000
,
0100
1000
0100
1000
0200
0000
0300
0000
,
0001
0000
1000
0000
0001
1000
0001
1000
,
0001
0001
1000
0000
0100
0000
0001
0000
,
1000
0000
0100
0000
0010
0100
0010
0100
,
0010
0100
0010
0100
0010
0000
0110
0000
,
2002
0000
0000
3003
;
