#TITLE:ブギートレイン'03;
#SUBTITLE:;
#ARTIST:藤本美貴;
#TITLETRANSLIT:BOOGIE TRAIN '03;
#SUBTITLETRANSLIT:;
#ARTISTTRANSLIT:MIKI FUJIMOTO;
#CREDIT:DigiMindAxel;
#BANNER:BOOGIE TRAIN '03.png;
#BACKGROUND:BOOGIE TRAIN '03-bg.png;
#LYRICSPATH:BOOGIE TRAIN '03.lrc;
#CDTITLE:DMAxel original simfile.png;
#MUSIC:BOOGIE TRAIN '03.mp3;
#OFFSET:-5.060;
#SAMPLESTART:66.096;
#SAMPLELENGTH:12.000;
#SELECTABLE:YES;
#BPMS:0.000=220.000,64.000=110.000,144.000=220.000;
#STOPS:;
#BGCHANGES:-18.000=BOOGIE TRAIN '03.avi=1.000=1=1=0,
99999=-nosongbg-=1.000=0=0=0 // don't automatically add -songbackground-
;

//---------------dance-single - ----------------
#NOTES:
     dance-single:
     :
     Easy:
     3:
     0.220,0.323,0.176,0.123,0.000:
1000
0000
0100
0000
,
1000
0000
0100
0000
,
0010
0000
0001
0000
,
0010
0000
0001
0000
,
0100
0000
0010
0000
,
0100
0000
0010
0000
,
1000
0000
0100
0000
,
0010
0000
0001
0000
,
0110
0000
0000
0000
,
1001
0000
0000
0000
,
0110
0000
0000
0000
,
1001
0000
0000
0000
,
0010
0000
1000
0000
,
0010
0000
0100
0000
,
0001
0000
0010
0000
,
0100
0000
1000
0000
,
0002
0000
0000
0000
,
2003
0000
3001
0000
,
2001
0000
0000
0000
,
3001
1001
0110
0010
,
0200
0000
0320
0000
,
2030
0000
3100
0000
,
0020
0000
0032
0000
,
0103
0100
0100
0000
,
0110
1000
0100
0010
,
0001
0100
0010
0100
,
0001
0010
0100
1000
,
0110
0000
0110
0000
,
0001
0010
0001
0010
,
0001
1000
0001
1000
,
0100
1000
0100
1000
,
0010
0100
0010
0100
,
0002
0000
0000
0000
1000
0000
0000
1003
,
0000
0000
1000
0001
,
1001
0000
0000
0000
,
0110
0000
0000
0000
,
0010
0000
0100
0000
,
0001
0000
0001
0000
,
0100
0000
0010
0000
,
1000
0000
1000
0000
,
0100
0000
0010
0000
,
0002
0000
0000
0000
,
1003
0000
0010
0000
,
0100
0000
0001
0000
,
1000
0000
1000
0000
,
0010
0000
0100
0000
,
0001
0000
0001
0000
,
0100
0000
0010
0000
,
1000
0000
0100
0000
,
0010
0000
0000
0000
,
1001
0000
0010
0000
,
1001
0000
0000
0000
,
0100
0000
0010
0000
,
0001
0000
1000
0000
,
0001
0000
0010
0000
,
0100
0000
1000
0000
,
0100
0000
0010
0000
,
0001
0000
1000
0000
,
0010
0000
0100
0000
,
0001
0000
1000
0000
,
1001
0000
0000
0000
,
0110
0000
0000
0000
,
1001
0000
0000
0000
,
0110
0000
0000
0000
,
0010
0000
0100
0000
,
0001
0000
0001
0000
,
0100
0000
0010
0000
,
1000
0000
1000
0000
,
2002
0000
0000
0000
,
0000
0000
0000
0000
3003
0000
0000
0220
,
0000
0000
0000
0000
,
0000
0000
0000
0000
,
0000
0000
0000
0000
,
0000
0000
0330
0000
;

//---------------dance-single - ----------------
#NOTES:
     dance-single:
     :
     Medium:
     5:
     0.346,0.454,0.185,0.185,0.018:
0001
0010
0001
0010
,
0001
0000
0000
0000
,
1000
0010
1000
0010
,
1000
0000
0000
0000
,
0010
0100
0010
0100
,
0010
0000
0000
0000
,
1000
0100
1000
0100
,
0010
0001
1000
0000
,
2002
0000
3003
0000
,
2200
0000
3300
0000
,
0022
0000
0033
0000
,
2002
0000
3003
0000
,
0010
0100
0010
0100
,
0010
0000
0000
0000
,
1000
0100
1000
0100
,
1000
0001
0010
0000
,
1002
1000
1000
1003
,
0210
0010
0310
0000
,
2001
0001
0001
3001
,
0100
0100
0100
0100
0110
0000
1000
0000
,
0001
0100
0001
0000
0100
0000
0001
0000
,
1000
0000
0100
0000
1000
0000
0000
0000
0010
0000
0000
0110
0000
0000
0000
0000
,
0001
0100
0001
0000
1000
0000
0100
0000
,
1000
0000
0001
0000
1000
0000
0001
0000
1000
0000
0000
0000
0000
0000
0000
1001
,
0000
0010
0100
1000
,
0001
0100
0010
1000
,
0100
0001
0100
1000
,
0002
0000
0000
0000
0203
0000
0000
0310
0000
0000
0000
0000
0000
0000
0000
0000
,
1000
0100
0010
0000
0001
1000
0001
0000
,
1000
0100
0010
0000
0001
1000
0001
0000
,
0010
0100
1000
0000
0010
0100
0010
0000
,
1000
0100
0010
0000
0100
0010
0100
0000
,
2000
0000
0000
0000
0001
0000
0000
0000
3001
0000
0000
0100
0000
0000
0120
0000
,
0000
1000
1030
0101
,
1001
1000
1000
1000
,
1001
0001
0001
0001
,
0100
0001
0100
0001
,
0100
0001
0100
0000
,
0010
1000
0010
1000
,
0010
1000
0010
1000
,
0100
0000
0010
0000
,
0001
0000
0000
1001
0000
0000
0000
0000
,
0100
0000
0001
0000
0010
0000
0000
0100
,
0000
1000
0010
0000
,
1000
0001
1000
0001
,
1000
0001
1000
0000
,
0010
0100
0010
0100
,
0010
0100
0010
0000
,
0100
0000
0001
0000
0010
0000
0000
0100
,
0000
0000
0000
0000
,
0110
0000
0000
0000
0110
0000
0000
1001
,
0000
0000
0000
0000
,
0100
1000
0100
1000
,
0010
0100
0010
0100
,
0001
0010
0001
0010
,
0100
1000
0100
1000
,
0001
0100
0001
0100
,
0010
0100
0010
0100
,
0001
0100
0001
0100
,
0001
0010
0100
1000
,
0002
0000
0000
0000
,
2003
0000
0000
0000
,
3002
0000
0000
0000
,
0203
0000
0000
0300
,
0010
1000
0010
1000
,
0010
0100
0010
0100
,
0001
0010
0001
0010
,
0100
1000
0001
0100
,
0001
0000
0000
0101
0000
0000
0001
0000
,
0000
1001
0000
0000
1000
0000
0000
2200
,
0000
0000
0000
0000
,
0000
0000
0000
0000
,
0000
0000
0000
0000
,
0000
0000
0000
0000
0000
3000
0300
0000
;

//---------------dance-single - ----------------
#NOTES:
     dance-single:
     :
     Hard:
     7:
     0.531,0.713,0.598,0.123,0.101: // measure 1
1000
0100
0010
0001
,  // measure 2
0100
0000
0010
0100
0000
0001
0000
0000
,  // measure 3
0100
1000
0100
0010
,  // measure 4
1000
0000
0001
1000
0000
0100
0000
0000
,  // measure 5
0001
0100
0010
0001
,  // measure 6
1000
0000
0001
0100
0000
1000
0000
0000
,  // measure 7
0100
0000
0010
0000
1000
0000
0001
0100
,  // measure 8
0001
0100
0001
1000
0000
0100
0000
0000
,  // measure 9
1100
0000
0000
1100
0000
0000
0100
0000
,  // measure 10
0101
0000
0000
0101
0000
0000
0001
0000
,  // measure 11
1001
0000
0000
1001
0000
0000
0100
0000
,  // measure 12
0110
0000
0000
0110
0000
0000
0002
0000
,  // measure 13
1003
0100
0001
0100
,  // measure 14
0010
0000
0001
1000
0000
0010
0000
1000
,  // measure 15
0001
0100
0001
0100
0000
0001
1000
0001
,  // measure 16
0000
1000
0001
1000
0001
1000
0100
0000
,  // measure 17
0201
0000
0010
0000
0301
0010
0100
0000
,  // measure 18
1020
0000
0000
0000
0100
0000
0000
0000
1030
0001
0000
0101
0000
0000
0000
0000
,  // measure 19
1002
0000
0100
0000
1003
0100
0010
0000
,  // measure 20
0101
0101
0110
0110
1001
0000
1001
0000
,  // measure 21
0001
0000
0100
0000
0020
0000
1000
0000
1030
0001
0000
0011
0000
0000
0100
0000
,  // measure 22
1000
0000
0001
0000
0010
0100
0000
1000
0100
0010
0000
1010
0000
0000
0000
0000
,  // measure 23
1000
0000
0010
0000
0100
0000
0001
0000
0010
0100
0000
1000
0000
0000
0001
0000
,  // measure 24
1100
0000
1100
0000
0110
0000
0110
0000
1001
0000
0000
0000
1001
0000
1000
0001
,  // measure 25
0000
0000
0100
0000
0001
0100
0000
0100
0010
0000
1000
0000
0100
0000
0010
0000
,  // measure 26
0001
0000
0100
0000
0010
1000
0000
1000
0100
0000
0010
0000
0100
0000
1000
0000
,  // measure 27
0010
0000
0100
0000
0001
0100
0000
0100
0010
0000
1000
0000
0100
0000
0010
0000
,  // measure 28
0011
0000
0000
0000
1010
0000
0000
0110
0000
0000
0010
0100
0000
0000
0000
0000
,  // measure 29
0001
0100
1000
0100
0002
0100
0103
0010
,  // measure 30
1000
0000
0100
0000
0001
0000
0100
0000
1000
0001
0000
0100
0000
0000
0001
0000
,  // measure 31
1000
0010
0001
0010
2000
0100
3100
1000
,  // measure 32
0001
0010
1000
0010
0001
1000
0010
0100
,  // measure 33
0120
0000
0000
0000
1000
0000
0000
0000
0031
0000
0000
0110
0000
0000
0210
0000
,  // measure 34
0000
0001
1300
0110
,  // measure 35
1001
0000
0010
0000
0100
0000
1000
0000
0001
0000
0010
0000
0100
0000
1000
0001
,  // measure 36
1000
0100
0010
0001
1000
0000
2000
0000
,  // measure 37
3001
0010
0001
1000
,  // measure 38
1100
0100
1100
0001
,  // measure 39
0100
1000
0100
0001
,  // measure 40
0101
0100
0101
1000
,  // measure 41
1100
0000
0101
0000
,  // measure 42
1001
0000
0000
1001
0000
0000
0000
0001
,  // measure 43
0100
0000
0010
0000
1000
0100
0000
0002
,  // measure 44
0000
0103
0110
0110
,  // measure 45
0100
0001
1000
0100
,  // measure 46
0101
0100
0101
1000
,  // measure 47
0010
0001
0010
1000
,  // measure 48
1100
0100
1100
0001
,  // measure 49
1001
0000
0000
0000
1100
0000
0000
0101
,  // measure 50
0000
1001
0000
0000
0100
0000
1000
0000
,  // measure 51
1100
0000
0000
0000
0101
0000
0000
0110
,  // measure 52
0000
0000
0100
0010
0000
0000
0000
0000
,  // measure 53
1000
0100
0001
0100
,  // measure 54
0010
0000
0001
1000
0000
0010
0000
0100
,  // measure 55
0001
0100
1000
0100
,  // measure 56
0010
0000
1000
0001
0000
0100
0000
0010
,  // measure 57
1000
0010
0001
0010
,  // measure 58
0100
0000
0001
1000
0000
0010
0000
0100
,  // measure 59
0001
0000
0100
0000
0010
0000
1000
0010
,  // measure 60
1000
0010
1000
0001
0000
0010
0000
0000
,  // measure 61
0101
0000
0000
0101
0000
0000
0100
0000
,  // measure 62
0110
0000
0000
0110
0000
0000
0010
0000
,  // measure 63
1010
0000
0000
1010
0000
0000
1000
0000
,  // measure 64
1001
0000
0000
1001
0000
0000
0002
0000
,  // measure 65
1003
0100
0001
0100
,  // measure 66
1000
0000
0010
0100
0000
0001
0000
1000
,  // measure 67
0001
0100
0001
0100
0000
0010
1000
0100
,  // measure 68
0000
1000
0100
1000
0001
0010
0100
1000
,  // measure 69
0100
0000
0000
1100
0000
0000
0101
0000
,  // measure 70
0000
1001
0000
0000
0101
0000
0000
0220
,  // measure 71
0000
0000
0000
0000
,  // measure 72
0000
0000
0000
0000
,  // measure 73
0000
0000
0000
0000
,  // measure 74
0000
0000
0000
0000
0000
0030
0300
0000
;

//---------------dance-single - ----------------
#NOTES:
     dance-single:
     :
     Beginner:
     2:
     0.119,0.184,0.141,0.000,0.000:
1000
0000
0000
0000
,
0000
0000
0000
0000
,
0001
0000
0000
0000
,
0000
0000
0000
0000
,
1000
0000
0000
0000
,
0000
0000
0000
0000
,
0001
0000
0000
0000
,
0000
0000
0000
0000
,
1001
0000
0000
0000
,
0100
0000
0000
0000
,
0010
0000
0000
0000
,
0100
0000
0000
0000
,
1001
0000
0000
0000
,
0000
0000
0000
0000
,
0001
0000
0000
0000
,
0000
0000
0000
0000
,
1001
0000
0000
0000
,
0001
0000
0000
0000
,
1000
0000
0000
0000
,
0001
0000
0000
0000
,
1001
0000
0000
0000
,
1000
0000
0000
0000
,
0001
0000
0000
0000
,
0100
0000
0000
0000
,
0010
0000
0100
0000
,
0010
0000
1000
0000
,
0001
0000
0100
0000
,
0010
0000
0000
0000
,
1000
0000
0001
0000
,
1000
0000
0100
0000
,
0010
0000
0001
0000
,
1000
0000
0001
0000
,
1001
0000
0000
0000
0000
0000
0000
1000
,
0000
0000
0001
0000
,
1001
0000
0000
0000
,
1001
0000
0000
0000
,
1000
0000
0001
0000
,
1000
0000
1000
0000
,
0010
0000
0100
0000
,
0010
0000
0010
0000
,
0110
0000
0000
0000
,
1000
0000
0000
0000
,
0001
0000
0000
0000
,
1000
0000
0000
0000
,
0001
0000
1000
0000
,
0001
0000
0001
0000
,
0100
0000
0010
0000
,
0100
0000
0100
0000
,
0110
0000
0000
0000
,
0001
0000
0000
0000
,
1001
0000
0000
0000
,
0000
0000
0000
0000
,
0001
0000
0000
0000
,
1000
0000
0000
0000
,
0001
0000
0000
0000
,
0010
0000
0000
0000
,
0100
0000
0000
0000
,
1000
0000
0000
0000
,
0001
0000
0000
0000
,
0100
0000
0000
0000
,
0110
0000
0000
0000
,
1001
0000
0000
0000
,
1001
0000
0000
0000
,
1001
0000
0000
0000
,
1000
0000
0000
0000
,
0001
0000
0000
0000
,
1000
0000
0000
0000
,
0100
0000
0000
0000
,
1001
0000
0000
0000
,
0000
0000
0000
0000
0000
0000
0000
1001
;
