#TITLE:I'm In Love Again -Y&Co. EURO MIX-;
#SUBTITLE:;
#ARTIST:Dj TAKA remixed by Y&Co.;
#TITLETRANSLIT:;
#SUBTITLETRANSLIT:;
#ARTISTTRANSLIT:;
#GENRE:EUROBEAT;
#CREDIT:;
#MENUCOLOR:;
#METERTYPE:DDR;
#BANNER:Banner - I'm In Love Again Remix - XREI.png;
#BACKGROUND:BG - I'm In Love Again Remix - XREI.png;
#LYRICSPATH:;
#CDTITLE:;
#MUSIC:I'm In Love Again -Y&Co. EURO MIX- XREI.mp3;
#OFFSET:0.120;
#SAMPLESTART:0.000;
#SAMPLELENGTH:13.500;
#SELECTABLE:YES;
#LISTSORT:;
#BPMS:0.000=150.000;
#STOPS:;
#BGCHANGES:;
#ATTACKS:;

//---------------dance-single - Stepped by XREI----------------
#NOTES:
     dance-single:
     Stepped by XREI:
     Easy:
     4:
     0.276,0.301,0.073,0.000,0.000: // measure 1
0000
0000
0000
0000
,  // measure 2
1000
0001
1000
1000
,  // measure 3
0001
1000
0001
0001
,  // measure 4
1000
0001
1000
1000
,  // measure 5
0001
1000
0001
0001
,  // measure 6
1000
0100
0010
0001
,  // measure 7
1000
0100
0010
0001
,  // measure 8
1000
0100
0010
0001
,  // measure 9
0000
0000
0000
0000
,  // measure 10
1000
0100
1000
0100
,  // measure 11
0010
0001
0010
0001
,  // measure 12
0000
1000
0100
1000
,  // measure 13
0100
1000
0001
0000
,  // measure 14
0000
0001
0100
0001
,  // measure 15
0100
0010
1000
0010
,  // measure 16
1000
0000
0001
0000
1000
0000
0001
1000
,  // measure 17
0000
1000
0000
1000
0000
0000
0000
0000
,  // measure 18
1000
0000
1000
0000
,  // measure 19
1000
0000
0001
0000
,  // measure 20
0001
0000
0001
0000
,  // measure 21
1000
0000
1000
0000
,  // measure 22
1000
0000
0001
0000
,  // measure 23
0001
0000
0001
0000
,  // measure 24
1000
0000
0001
0000
,  // measure 25
1000
0000
0000
0000
,  // measure 26
1000
0100
1000
0100
,  // measure 27
1000
0010
1000
0100
,  // measure 28
1000
0000
0000
0000
,  // measure 29
0001
0100
0001
0010
,  // measure 30
0001
0000
0000
0000
,  // measure 31
1000
0100
1000
0100
,  // measure 32
0010
0001
0010
0001
,  // measure 33
1000
0000
0000
0000
,  // measure 34
1000
1000
0010
0010
,  // measure 35
0001
0001
0100
0100
,  // measure 36
1000
1000
0001
0001
,  // measure 37
0000
1000
0100
0010
,  // measure 38
0001
1000
0001
1000
,  // measure 39
1001
0001
1000
0001
,  // measure 40
1001
0000
0000
0000
,  // measure 41
1001
0000
1001
0000
,  // measure 42
1001
0000
0000
0000
,  // measure 43
0001
0001
1000
1000
,  // measure 44
0001
1000
0001
0000
,  // measure 45
0001
0001
1000
1000
,  // measure 46
0001
1000
0001
0000
,  // measure 47
1000
1000
0100
0100
,  // measure 48
0010
0010
0001
0001
,  // measure 49
1000
0001
1000
0000
,  // measure 50
0001
0001
0001
0000
,  // measure 51
1000
0001
1000
1000
,  // measure 52
0001
1000
0001
0001
,  // measure 53
0100
0010
0100
0100
,  // measure 54
0010
0100
0010
0010
,  // measure 55
1000
0100
0010
0001
,  // measure 56
1000
0100
0010
0001
,  // measure 57
1001
0000
0000
0000
,  // measure 58
1001
0000
0000
0000
,  // measure 59
0001
0010
0001
0010
,  // measure 60
0100
1000
0100
1000
,  // measure 61
0000
0001
0010
0001
,  // measure 62
0010
0001
1000
0000
,  // measure 63
0000
1000
0010
1000
,  // measure 64
0010
0100
0001
0100
,  // measure 65
0001
0000
1000
0000
0001
0000
1000
0001
,  // measure 66
0000
0001
0000
0001
0000
0000
0000
0000
,  // measure 67
1001
0000
0000
0000
;

//---------------dance-single - ----------------
#NOTES:
     dance-single:
     :
     Beginner:
     1:
     0.227,0.216,0.000,0.000,0.000:
0000
0000
0000
1000
,
0000
1000
0000
1000
,
0000
1000
0000
1000
,
0000
1000
0000
1000
,
0000
1000
0000
1000
,
0000
1000
0000
1000
,
0000
1000
0000
1000
,
0000
1000
0000
1000
,
0000
1000
0000
1000
,
0000
1000
0000
1000
,
0000
1000
0000
1000
,
0000
1000
0000
1000
,
0000
1000
0000
1000
,
0000
1000
0000
1000
,
0000
1000
0000
1000
,
0000
1000
0000
1000
,
0000
1000
0000
1000
,
0000
1000
1000
1000
,
0000
1000
1000
1000
,
1000
1000
1000
1000
,
1000
1000
1000
1000
,
1000
1000
1000
1000
,
1000
1000
1000
1000
,
1000
1000
1000
1000
,
1000
1000
1000
1000
,
1000
1000
1000
1000
,
1000
1000
1000
1000
,
1000
1000
1000
1000
,
1000
1000
1000
1000
,
1000
1000
1000
1000
,
1000
1000
1000
1000
,
1000
1000
1000
1000
,
1000
1000
1000
1000
,
1000
1000
1000
1000
,
1000
1000
1000
1000
,
1000
1000
1000
1000
,
1000
1000
1000
1000
,
1000
1000
1000
1000
,
1000
1000
1000
1000
,
1000
1000
1000
1000
,
1000
1000
1000
1000
,
1000
1000
1000
1000
,
1000
1000
1000
1000
,
1000
1000
1000
1000
,
1000
1000
1000
1000
,
1000
1000
1000
1000
,
1000
1000
1000
1000
,
1000
1000
1000
1000
,
1000
1000
1000
1000
,
1000
1000
1000
1000
,
1000
1000
1000
1000
,
1000
1000
1000
0000
,
1000
1000
1000
1000
;

//---------------dance-single - Stepped by XREI----------------
#NOTES:
     dance-single:
     Stepped by XREI:
     Hard:
     8:
     0.438,0.451,0.173,0.000,0.068:
0000
0000
0000
0000
,
1000
0000
0000
0000
0001
0000
0000
1000
0000
1000
0000
0000
0000
0000
0000
0000
,
0001
0000
0000
0000
0100
0000
0000
0001
0000
0001
0000
0000
0000
0000
0000
0000
,
1000
0000
0000
0000
0100
0000
0000
1000
0000
1000
0000
0000
0000
0000
0000
0000
,
0001
0000
0000
0000
0100
0000
0000
0001
0000
0001
0000
0000
0000
0000
0000
0000
,
1000
0100
0010
0100
,
1000
0100
0010
0001
,
1000
0100
0010
0001
,
1001
0000
0000
0000
,
1000
0010
1000
0010
1000
0001
1000
0001
,
0000
1000
0100
1000
0100
1000
0001
1000
,
0000
0001
1000
0001
1000
0001
1000
0001
,
0000
0100
0010
0000
0110
0000
0000
0000
,
1000
0100
0010
0001
1000
0100
0010
0010
,
0000
0001
0100
0010
1000
0100
1000
1000
,
0000
0001
0100
0001
1000
0000
0001
1000
,
0000
1001
0000
1001
0000
0000
0000
0000
,
1000
0100
0001
0000
0001
0100
1000
0000
,
0100
1000
0100
0000
0001
0010
0001
0000
,
0100
0010
1000
0000
0100
0010
0001
0000
,
0100
0010
1000
0000
0001
0010
0100
0000
,
1000
0100
1000
0000
0010
1000
0010
0000
,
0100
0001
0010
0000
0001
0010
0001
0000
,
0001
1000
0001
0000
0010
1000
0001
0000
,
1000
0001
0000
0001
0000
0001
0000
0000
,
1000
0100
1000
0000
0100
0010
0100
0000
,
0001
0100
1000
0100
0001
0100
1000
0100
,
0000
0010
0001
0010
0000
0001
0100
0001
,
0000
0001
1000
0010
1000
0010
1000
0001
,
0000
0100
0010
0100
0000
0010
0100
0010
,
0000
0100
0010
1000
0100
0010
0001
1000
,
0000
0000
1001
0000
1000
0001
1001
0000
,
1000
0001
0001
0000
0010
0100
1000
0000
,
0000
0000
0000
1000
0000
0001
0000
1000
,
0000
0100
0000
0010
0000
0001
1000
0010
,
0000
0000
1000
0001
0000
0100
0010
0000
,
0001
1000
0010
0000
0000
0000
1001
0000
,
0001
0001
0000
1001
0000
0000
1000
1000
,
0000
1001
0000
0000
0001
0010
0100
1000
,
0000
0000
0000
0000
,
1001
1010
0110
0000
,
1001
1001
0000
0000
0000
0000
0000
0000
,
1000
0000
0000
0000
0100
0000
0000
0000
1000
0000
0100
0000
0000
0100
0000
0000
,
0000
0100
0000
0000
0000
0100
0000
0000
0000
0000
0000
0000
0000
0000
0000
0000
,
0010
0000
0000
0000
0001
0000
0000
0000
0010
0000
0001
0000
0000
0001
0000
0000
,
0000
0001
0000
0000
0000
0001
0000
0000
0000
0000
0000
0000
1000
0000
0000
0000
,
1000
0010
0100
0010
0000
1000
0000
0001
,
0010
0000
0001
0000
0100
0000
0000
0000
1000
0000
0001
0000
1000
0000
0000
0001
,
0000
0001
0001
0000
0000
0000
0000
0000
,
0000
0000
1000
0100
,
0001
0000
0100
0000
1000
0010
0000
0100
,
0000
0001
0000
0001
0000
0000
0001
0000
,
1000
0000
0001
0000
0100
0010
0000
1000
,
0000
0001
0000
0001
0000
0000
0000
0100
,
0010
0000
1000
0000
1000
0000
0000
0100
,
1000
0001
0001
0000
,
1000
0010
1000
0010
1000
0010
1000
0000
,
1001
0100
0010
0001
,
1001
0000
1000
0100
0010
0100
1000
0001
,
0000
1000
0100
0001
0100
1000
0100
0100
,
0000
0010
0001
0010
0001
1000
0100
1000
,
0000
1000
0100
0000
0001
0000
0100
0000
,
0000
0010
0001
0010
0001
1000
0001
1000
,
0000
0010
1000
0010
1000
0001
1000
0001
,
0000
1000
1000
0001
0000
0000
0001
1000
,
0000
1001
0000
1001
0000
0000
0000
0000
,
1001
0000
0000
0000
;

//---------------dance-single - Stepped by XREI----------------
#NOTES:
     dance-single:
     Stepped by XREI:
     Medium:
     6:
     0.324,0.301,0.173,0.000,0.000:
0000
0000
0000
0000
,
1000
0000
0001
0000
1000
1000
0000
0000
,
0010
0000
0100
0000
0010
0010
0000
0000
,
1000
0000
0100
0000
0010
0010
0000
0000
,
0100
0000
0010
0000
0100
0100
0000
0000
,
1000
0100
1000
0001
,
0010
0001
1000
0100
,
1000
0100
0010
0001
,
0011
0000
0000
0000
,
1000
0000
0100
0000
1000
0000
0100
0010
,
0000
0000
0001
0000
1000
0000
0001
1000
,
0000
1000
0010
1000
,
0100
1000
1100
0000
,
0000
0000
0001
0000
0100
0000
0001
0100
,
0000
0000
0010
0000
1000
0000
0010
1000
,
0000
0000
0001
0000
1000
0000
0001
1000
,
0000
1001
0000
1001
0000
0000
0000
0000
,
0010
1000
0010
0001
,
0010
1000
0100
1000
,
0010
1000
0100
1000
,
0010
0001
0010
1000
,
0010
1000
0100
1000
,
0100
1000
0100
1000
,
0010
1000
0100
1000
,
0010
0000
0000
0000
,
1000
0100
0001
0100
,
1000
0010
0001
0010
,
1000
0100
0001
0010
,
1000
0100
0001
0010
,
1000
0100
0000
1000
,
0100
1000
0100
0010
,
0001
0010
0001
1000
,
0001
0000
0000
0001
,
0001
0100
0100
1000
,
1000
0010
0010
0001
,
0001
1000
1000
0000
,
0001
0010
0100
1000
,
0001
1000
0010
1010
,
0000
0010
0100
0110
,
0000
0010
1000
1010
,
0000
0101
0000
0000
,
1001
1001
0000
0000
0000
0000
0000
0000
,
0001
0000
1000
0000
0001
0001
0000
1000
,
0000
0001
0000
0001
0000
0000
0000
0000
,
1000
0000
0001
0000
1000
1000
0000
0001
,
0000
0001
0000
0000
0000
0000
1000
1000
,
0000
0100
0000
0010
0010
0000
0000
0001
,
0000
0100
0000
0010
1000
0000
0001
0000
,
0001
0001
0000
0000
0000
0000
1001
0000
,
0110
1001
0000
0000
,
1000
0100
0010
0001
,
1000
0001
0001
0000
,
0010
1000
0100
0010
,
0100
1000
0001
1000
,
0100
0010
0001
1000
,
0100
0010
0001
1000
,
1001
1000
0100
0010
,
0110
0000
0000
0000
,
0001
0000
0010
0000
0001
0000
0010
0100
,
0000
0000
1000
0000
0001
0000
1000
0001
,
0000
0001
0100
0001
,
0010
0001
0011
0000
,
0000
0000
1000
0000
0010
0000
1000
0010
,
0000
0000
0100
0000
0001
0000
0100
0001
,
0000
0000
1000
0000
0001
0000
1000
0001
,
0000
0011
0000
1100
0000
0000
0000
0000
,
1001
0000
0000
0000
;
