#TITLE:THE BLACK KNIGHT;
#SUBTITLE:;
#ARTIST:L.E.D.;
#TITLETRANSLIT:;
#SUBTITLETRANSLIT:;
#ARTISTTRANSLIT:;
#CREDIT:;
#BANNER:;
#BACKGROUND:;
#LYRICSPATH:;
#CDTITLE:;
#MUSIC:The Black Knight.mp3;
#OFFSET:-0.052;
#SAMPLESTART:96.640;
#SAMPLELENGTH:12.000;
#SELECTABLE:YES;
#BPMS:0.000=154.000;
#STOPS:34.750=0.390
,49.750=0.390
,80.750=0.390
,209.000=1.169
,238.000=1.169
;
#BGCHANGES:;

//---------------dance-single - ----------------
#NOTES:
     dance-single:
     :
     Hard:
     9:
     0.612,0.603,0.143,0.048,0.231:
0000
0000
0000
0000
,
0000
0000
0000
0000
,
0000
0000
0000
0000
,
0000
0000
0000
0000
,
0000
0000
0000
0000
,
1001
0000
0010
0000
0001
0000
0100
0010
,
1001
0000
0100
0000
0001
0000
0010
0100
,
1001
0000
0100
0010
1001
0000
0010
0100
,
0001
0000
0010
0000
0100
0000
1000
0000
0001
0100
0001
0100
0001
0000
0100
0000
,
1000
0100
0001
0100
1000
0100
0001
0010
,
0100
1000
0001
0100
0010
1000
0001
0010
,
1000
0010
0001
0010
1000
0010
0001
0100
,
0010
1000
0001
0020
0130
1000
0010
0100
,
0001
0010
0100
0010
0001
0100
0010
1000
,
0001
0100
0010
0010
1000
0100
0010
0100
,
1000
0010
0100
0001
0010
0100
1000
0010
,
0100
0000
0001
0000
0010
0000
0100
0000
1000
0000
0000
0010
0000
0000
0100
0000
,
0000
0010
0000
0000
1000
0000
0100
0000
0001
0000
0000
0010
0000
0000
0100
0000
,
0000
0010
0000
0000
0001
0000
0100
0000
1000
0000
0000
0100
0000
0000
0010
0000
,
0000
0100
0000
0000
1000
0000
0010
0000
0001
0000
0000
0100
0000
0000
0010
0000
,
0000
0100
0000
0000
0001
0000
0000
0010
0000
0000
0100
0000
0000
1000
0000
0000
,
0001
0000
0100
0000
1000
0000
0000
0010
0000
0000
0100
0000
0000
0001
0000
0000
,
1000
0000
0010
0000
0001
0000
0000
0100
0000
0000
0010
0000
0000
1000
0000
0000
,
0001
0010
0100
1000
2100
0000
3001
0010
,
0012
0000
0000
0000
1003
0000
0000
0010
0000
0000
0100
0000
0000
0001
0000
0000
,
1000
0000
0010
0000
0001
0000
0000
0100
0000
0000
0010
0000
0000
1000
0000
0000
,
0001
0000
0010
0000
1000
0000
0000
0100
0000
0000
0010
0000
0000
0001
0000
0000
,
1000
0100
0001
0100
0100
0010
1000
0001
,
0002
0000
0000
0000
0103
0000
0010
0000
1000
0000
0000
0100
0000
0000
1000
0000
,
0010
0000
0100
0000
0001
0000
0010
0000
0001
0000
0000
0100
0000
0000
0010
0000
,
1000
0000
0100
0000
0010
0000
0100
0000
1000
0000
0000
0010
0000
0000
0100
0000
,
0001
0000
0010
0000
0001
0000
0100
0000
0010
0000
0000
1000
0000
0000
0100
0000
,
0011
0000
0000
0000
0101
0000
0010
0000
1000
0000
0000
0001
0000
0000
0100
0000
,
1000
0000
0100
0000
0001
0000
0010
0000
0100
0000
0000
1000
0000
0000
0100
0000
,
0001
0000
0100
0000
1000
0000
0010
0000
0100
0000
0000
0001
0000
0000
0010
0000
,
1000
0010
0001
0100
1010
0000
0100
1000
,
0011
0000
1000
0010
0100
0010
1000
0100
,
1000
0010
0100
0001
0010
0001
0100
0010
,
0100
0001
0010
0100
1000
0010
0100
0001
,
0010
0001
0100
0010
0010
0100
0001
0001
,
0100
0010
1000
0100
1000
0010
0100
0010
,
1000
0100
0010
0001
0010
0100
0010
0001
,
0100
0010
0100
0001
0010
0100
1000
0010
,
0100
0001
1000
0010
0010
0100
0010
0010
,
1010
0000
0101
0010
1000
0100
0010
0001
,
0100
0010
1000
0001
0010
0100
0010
0001
,
0100
0010
1000
0001
0100
0010
0100
0001
,
0010
0100
1000
0010
0100
0001
0010
0100
,
0011
0000
1100
0010
0001
0100
0010
1000
,
0100
0000
0011
0100
0010
1000
0001
0100
,
0010
0000
0101
0010
1000
0000
1010
0100
,
0001
0000
0000
0000
0100
0000
0010
0000
1000
0000
0001
0000
1000
0010
1000
0000
,
0001
0100
0001
0000
2000
0000
0000
0000
3100
0000
0010
0000
0001
0000
0000
0000
,
0100
0010
1000
0000
0001
0010
0100
0000
,
1000
0010
0100
0000
0010
0100
0001
0000
,
0010
0001
0100
0000
1000
0010
1000
0010
,
0001
0010
1000
0010
0001
0010
0001
0010
,
1000
0010
0001
0010
1000
0100
1000
0100
,
0001
0100
1000
0100
0001
0100
0001
0100
,
1000
0100
1000
0000
0001
0100
0001
0000
2001
0000
0000
0000
3100
0000
0010
0000
,
0001
0000
0100
0000
0010
0000
0000
1000
0000
0000
0100
0000
1000
0000
0010
0000
,
0100
0000
0001
0000
0010
0000
0000
0100
0000
0000
0001
0000
0100
0000
1000
0000
,
0010
0000
0100
0000
0001
0000
0000
1000
0000
0000
0010
0000
0100
0000
0001
0000
,
0010
0000
0100
0000
1000
0000
0000
0010
0000
0000
0001
0000
0010
0000
1000
0000
,
0100
0000
0010
0000
0100
0000
0000
1000
0000
0000
0010
0000
0100
0000
0001
0000
,
0010
0000
0100
0000
1000
0000
0000
0100
0000
0000
0001
0000
0100
0000
1000
0000
,
0010
0000
0100
0000
0001
0000
0000
0010
0000
0000
0100
0000
1000
0000
0010
0000
,
0100
0000
0001
0000
0010
0000
0000
0100
0000
0000
0001
0000
0100
1000
0100
0000
,
1000
0000
0010
0000
0100
0000
0000
0001
0000
0000
0010
0000
0001
0100
0001
0000
,
0010
0000
0100
0000
1000
0000
0000
0010
0000
0000
0001
0000
0010
1000
0010
0000
,
0100
0000
0001
0000
0010
0000
0000
0100
0000
0000
1000
0000
0010
0100
0010
0000
,
0100
0000
0001
0000
1000
0000
0000
0010
0000
0000
0001
0000
0010
1000
0010
0000
,
0100
0000
0010
0000
1000
0000
0000
0100
0000
0000
0010
0000
0001
0100
0001
0000
,
1000
0000
0010
0000
0100
0000
0000
0010
0000
0000
0001
0000
0010
0000
1000
0000
,
0010
0000
1000
0000
0100
0000
0001
0000
0100
0000
0001
0000
0100
1000
0100
0000
,
1000
0010
1000
0000
0001
0010
0001
0000
0100
0010
0100
0010
0000
0000
0000
0000
;

//---------------dance-single - ----------------
#NOTES:
     dance-single:
     :
     Challenge:
     10:
     0.717,0.844,0.191,0.024,0.685:
0000
0000
0000
0000
,
0000
0000
0000
0000
,
0000
0000
0000
0000
,
0000
0000
0000
0000
,
0000
0000
0000
0000
,
1001
0000
0000
0000
0000
0000
0000
0010
,
1001
0000
0000
0000
0000
0000
0000
0010
,
1000
0100
1000
0100
0010
0001
0010
0001
,
1000
0010
1000
0010
0100
0001
0100
0001
0010
0100
0010
0100
1000
0010
0100
0000
,
0001
0000
1000
0000
0000
0000
0100
0000
0001
0000
1000
0000
0000
0100
0010
0000
,
1000
0000
0001
0000
0000
0000
0010
0000
1000
0000
0001
0000
0000
0100
0010
0000
,
0000
0100
0001
0000
0000
0100
0010
0000
0000
0100
0001
0100
0000
0100
0010
0000
,
0000
0100
1000
0000
0000
0100
0020
0000
1030
0000
0100
0000
1000
0000
0000
0000
,
0010
0100
0001
0000
1000
0100
0001
0000
,
0100
1000
0010
0010
0100
0001
1000
0000
,
0010
0000
0100
0000
0001
0000
0000
0000
1000
0000
0010
0000
0100
0001
0100
0001
,
0100
0000
0010
0000
1000
0100
1000
0100
1000
0000
0000
0100
0000
0000
0001
0000
,
0000
1000
0000
0000
0010
0000
0100
0000
1000
0000
0000
0100
0000
0000
0001
0000
,
0000
1000
0000
0000
0010
0000
0100
0000
1000
0000
0000
0010
0000
0000
0001
0000
,
0000
1000
0000
0000
0100
0000
0010
0000
1000
0000
0000
0010
0000
0000
0001
0000
,
0000
1000
0000
0000
0100
0000
0000
0001
0000
0000
1000
0000
0000
0010
0000
0000
,
0001
0000
1000
0000
0100
0000
0000
0001
0000
0000
1000
0000
0000
0010
0000
0000
,
0100
0000
0001
0000
1000
0000
0000
0100
0000
0000
0001
0000
0000
1000
0000
0000
,
0010
0001
0011
0011
0100
0010
1100
1100
,
0010
0000
0100
0000
0010
0000
0000
0001
0000
0000
1000
0000
0000
0100
0000
0000
,
0001
0000
1000
0000
0010
0000
0000
0001
0000
0000
1000
0000
0000
0100
0000
0000
,
0010
0000
1000
0000
0001
0000
0000
0100
0000
0000
1000
0000
0000
0001
0000
0000
,
0100
1000
1100
0001
0001
0110
0001
1100
,
0110
0000
0000
0000
0100
0001
0100
0000
0010
0000
1000
0100
0000
1000
0100
0000
,
0010
0001
0100
0000
0010
1000
0010
0000
0100
0000
0001
0010
0000
0001
0010
0000
,
0100
1000
0010
0000
0100
0001
0100
0000
0010
0000
1000
0100
0000
1000
0100
0000
,
0010
0001
1000
0000
0010
0100
0010
0000
0100
0000
0001
0010
0000
0001
0010
0000
,
0100
1000
0001
0000
0100
0010
0100
0000
0001
0000
0010
0100
0000
0010
0100
0000
,
1000
0010
0100
0000
0001
0100
0001
0000
0100
0000
0010
1000
0000
0010
1000
0000
,
0100
1000
0010
0000
0100
0001
0100
0000
0010
0000
0100
0001
0000
0100
0001
0000
,
0010
0001
1000
0000
0010
0100
0010
0000
0100
0000
0010
1000
0000
0010
1000
0000
,
0100
1000
0001
0000
0100
0000
0010
0000
1000
0000
0000
0000
0001
0000
1000
0000
,
0100
0000
1000
0010
0100
0001
1000
0100
,
0001
0100
1000
0010
0100
0000
1000
0001
,
0100
0000
0011
1000
1000
0011
0100
0100
,
0011
0000
1000
0010
0100
0000
0001
1000
,
0100
0000
0000
0000
1000
0000
0000
0010
0000
0000
0001
0000
1000
0000
0000
0100
,
0000
0000
0001
0000
1000
0100
1000
0100
1000
0000
0000
0000
0001
0100
0001
0100
,
0001
0000
1100
0001
0001
1100
0010
0010
,
1100
0000
0000
0000
0001
0100
0010
0100
0001
0000
1000
0000
0010
0000
0000
0100
,
0000
0000
0001
0000
1000
0000
0100
0001
0000
0100
0002
0000
0000
0000
0100
0000
,
0103
0000
0000
0000
0100
0000
0000
1000
0000
0000
0010
0000
0100
0000
0000
0001
,
0000
0000
0010
0000
0001
0100
0001
0000
1000
0100
1000
0000
0001
0010
0001
0000
,
1000
0010
1000
0000
0001
0000
0100
0000
0010
0000
0000
0000
1000
0000
0010
0000
,
0100
0000
0001
1000
0100
1000
0001
0010
,
0001
0000
1000
0100
1000
0100
0010
0001
,
0010
0000
0001
0000
1000
0010
1000
0010
0100
0001
0100
0001
1000
0100
1000
0100
,
0010
0001
0010
0001
2000
0000
0000
0000
0100
0000
0000
0000
0100
0000
0000
0000
,
0100
0100
0001
0001
,
0001
0001
0010
0010
,
0010
0000
0000
0000
3010
0000
0000
0000
0100
0001
0010
0000
0010
0001
0100
0000
,
0010
0000
1000
0100
0000
1000
0100
0000
0010
0001
0100
0000
0010
0000
0001
0000
,
0010
0000
0100
0001
0000
0100
0001
0100
0010
1000
0100
0000
1000
0000
0010
0000
,
0100
0000
0001
0010
0000
0010
0001
0100
0010
1000
0010
1000
0100
0010
0100
0010
,
0001
0100
0001
0100
0010
1000
0010
1000
0001
0000
0000
0000
1000
0010
0100
0000
,
1000
0000
0100
0000
0001
0000
0010
0001
0000
0100
0010
0000
1000
0100
0001
0000
,
0100
0000
1000
0000
0010
0000
0100
0010
0000
0100
0001
0000
1000
0010
0100
0000
,
0001
0000
1000
0000
0100
0000
0001
0100
0000
0010
0100
0000
1000
0010
0100
0000
,
0010
0000
1000
0000
0100
1000
0100
0000
0010
0001
0010
0000
0001
0100
0010
0000
,
1000
0000
0100
0000
0001
0000
0100
1000
0000
0010
0100
0000
0001
0010
1000
0000
,
0010
0000
0001
0000
0100
0000
0010
1000
0000
0100
0010
0000
0001
0100
0001
0000
,
0010
0000
0001
0000
0100
0000
1000
0100
0000
0010
0100
0000
0010
1000
0100
0010
,
0000
0100
0000
1000
0000
0100
0010
0001
0000
0100
0000
0001
0010
0100
1000
0000
,
0100
0000
0001
0000
0100
0000
1000
0010
0000
0100
0010
0000
1000
0100
0001
0000
,
0100
0000
1000
0000
0010
0000
0100
0001
0000
0010
0100
0000
1000
0010
0100
0000
,
0001
0000
0010
0000
1000
0000
0010
0001
0000
0100
0001
0000
0010
0100
1000
0000
,
0010
0000
0001
0000
0010
1000
0100
0000
0010
0001
0100
0000
0001
0010
0100
0000
,
1000
0000
0001
0000
0100
0000
1000
0100
0000
0010
0100
0000
0001
0010
0100
0000
,
1000
0000
0010
0000
0001
0000
0010
1000
0000
0100
0010
0000
1001
0000
1001
0000
,
1001
0000
1001
0000
0110
0000
0110
0000
0110
0000
0110
0000
1000
0100
1000
0010
,
0100
0001
0100
0010
1000
0100
1000
0001
0100
0010
0100
0001
0000
0000
0000
0000
;

//---------------dance-single - ----------------
#NOTES:
     dance-single:
     :
     Medium:
     7:
     0.485,0.482,0.167,0.167,0.000:
0000
0000
0000
0000
,
0000
0000
0000
0000
,
0000
0000
0000
0000
,
0000
0000
0000
0000
,
0000
0000
0000
0000
,
1000
0100
0000
0001
0000
0100
0000
1000
,
0010
1000
0000
0010
0000
0001
0000
1000
,
0100
1001
0010
1001
,
0010
1000
0100
1000
0010
0100
0001
0100
,
0010
0000
0001
0100
0010
0000
1000
0010
,
0100
0000
1000
0010
0100
0000
0001
0010
,
0100
0000
0001
0010
0100
0000
1000
0100
,
0010
0000
1000
0100
0010
0001
0100
0000
,
1100
0101
1000
0011
,
1000
0100
1000
1000
0010
0100
0001
0000
,
1010
0011
2000
3020
,
0230
0302
1003
0100
,
0010
0000
0001
0010
1000
0000
0010
0000
,
0100
0000
0001
0100
1000
0000
0100
0000
,
0010
0000
0001
0100
1000
0000
0010
0000
,
0100
0001
2000
0000
0010
0000
0100
0000
,
3001
0200
0010
1000
,
0301
0020
1000
0001
,
0130
0000
0001
1000
0100
0000
1000
0001
,
0010
0002
0010
1000
,
0103
0020
0100
1000
,
0031
0200
0010
1000
,
0301
0000
1000
0100
0010
0100
1000
0010
,
0100
0000
0001
0100
0010
0100
0001
0010
,
0100
0000
1000
0001
0100
0010
0100
0001
,
1000
0000
0010
0100
0001
0010
0100
1000
,
0010
0000
0100
0010
0100
0010
1000
0100
,
1000
0000
0001
0010
0100
1000
0100
0010
,
0001
0000
1000
0100
0010
0001
0010
0100
,
1000
0000
0001
0100
0010
1000
0100
0010
,
0100
0000
1000
0010
0100
0000
0010
0100
,
0001
1000
0010
1000
,
1001
0001
0100
0001
,
1001
1000
0100
1000
,
1001
0000
0010
0001
0100
0000
0010
1000
,
0100
1000
0010
0100
,
0101
0010
0100
0001
,
1001
0100
1000
0010
,
1010
0000
0100
0001
0010
0100
1000
0010
,
0100
0002
0203
0320
,
2030
3100
0001
1100
,
0101
2000
3020
0230
,
0302
1003
0001
1100
,
0101
1001
0100
0010
,
0100
1001
0010
0100
,
0010
1100
0001
0101
,
1000
0000
0001
0100
0010
1000
0100
0010
,
0001
0100
0020
0000
0000
0000
0000
0000
,
0000
0000
0000
0000
,
0000
0000
0200
0000
,
0000
0000
0330
0000
0001
0100
0010
0100
,
0001
0010
0001
0000
1000
0100
0010
0100
,
1000
0010
0100
0000
0001
0100
0001
0100
,
0001
0100
0001
0100
0010
1000
0010
1000
,
0010
1000
0010
2000
0000
0000
3001
0100
,
0010
0000
0100
0001
0010
0000
0001
1000
,
0100
0000
1000
0001
0100
0000
0010
1000
,
0100
0000
0010
0001
0100
0000
0010
1000
,
0001
0000
0100
0001
1000
0000
0100
1000
,
0010
0000
0100
0001
0010
0000
0001
0010
,
0100
0000
1000
0010
0100
0000
0010
0100
,
0001
0000
0010
0100
1000
0000
0001
1000
,
0100
0000
1000
0010
0100
0000
0001
0100
,
0010
0100
0001
1000
0100
0000
1000
0010
,
0100
0001
0010
0100
1000
0000
0001
0100
,
0010
1000
0100
0010
0001
0000
1000
0010
,
0100
0010
1000
0100
0010
0000
0001
0100
,
0010
0100
0001
0010
0100
0000
1000
0001
,
0100
0001
0010
0100
1000
0000
0001
0100
,
0010
1000
0100
0010
0001
0000
1000
0010
,
0100
0001
0010
0100
1000
0010
0000
0000
;

//---------------dance-single - ----------------
#NOTES:
     dance-single:
     :
     Easy:
     5:
     0.335,0.482,0.279,0.088,0.000: // measure 1
0000
0000
0000
0000
,  // measure 2
0000
0000
0000
0000
,  // measure 3
0000
0000
0000
0000
,  // measure 4
0000
0000
0000
0000
,  // measure 5
0000
0000
0000
0000
,  // measure 6
1100
0000
0000
0000
,  // measure 7
0101
0000
0000
0000
,  // measure 8
0011
0000
1010
0000
,  // measure 9
1001
1001
1001
0100
,  // measure 10
0010
0100
0001
0010
,  // measure 11
0100
1000
0010
0100
,  // measure 12
0001
0010
0100
1000
,  // measure 13
0010
0000
0100
0100
1001
0000
0000
0000
,  // measure 14
0100
0010
1000
1000
,  // measure 15
0001
0100
1001
0000
,  // measure 16
0010
0100
0101
0000
,  // measure 17
0010
1000
1100
0010
,  // measure 18
0100
0010
1000
0100
,  // measure 19
1000
0100
0001
0010
,  // measure 20
0001
0010
0100
1000
,  // measure 21
0100
0010
0010
0001
,  // measure 22
0100
0010
0010
1000
,  // measure 23
0100
1000
1000
0001
,  // measure 24
0100
0001
0001
1000
,  // measure 25
0010
0100
0100
0010
,  // measure 26
1000
0100
0100
0010
,  // measure 27
0001
0100
0100
0010
,  // measure 28
1000
0001
0001
0100
,  // measure 29
0010
1000
0100
0001
,  // measure 30
0100
1000
0100
0001
,  // measure 31
0100
1000
0010
0001
,  // measure 32
0010
1000
0010
0001
,  // measure 33
0010
1000
0100
0001
,  // measure 34
0010
0001
0100
1000
,  // measure 35
0010
0100
0001
0010
,  // measure 36
0100
1000
0110
0010
,  // measure 37
1001
2001
0000
0000
,  // measure 38
0000
3002
0000
0203
,  // measure 39
0000
0320
0000
1000
,  // measure 40
0000
0130
0001
0101
,  // measure 41
0000
2000
0000
0000
,  // measure 42
0000
3020
0000
0230
,  // measure 43
0000
0302
0000
0010
,  // measure 44
0003
1000
0010
1001
,  // measure 45
0000
0100
0100
0001
,  // measure 46
0001
1000
0100
0010
,  // measure 47
0000
0001
0001
1000
,  // measure 48
1000
0010
0100
0001
,  // measure 49
0000
1100
0100
0010
,  // measure 50
0100
0101
0100
0010
,  // measure 51
0100
1100
0001
0101
,  // measure 52
1000
1010
0011
0101
,  // measure 53
1100
2002
0000
0000
,  // measure 54
0000
0000
0000
0000
,  // measure 55
0000
0000
0000
0000
,  // measure 56
0000
3003
0010
0100
,  // measure 57
0001
0000
0100
0010
0100
0000
0001
0000
,  // measure 58
0100
0000
0010
0100
0010
0000
0100
0000
,  // measure 59
1001
1000
0110
0011
,  // measure 60
0101
1100
2001
3100
,  // measure 61
0010
1000
0100
0001
,  // measure 62
0010
0100
0001
1000
,  // measure 63
0010
0100
1000
0100
,  // measure 64
0010
0001
0100
1000
,  // measure 65
0001
0010
0100
0001
,  // measure 66
1000
0010
0100
0001
,  // measure 67
0010
1000
0100
1000
,  // measure 68
0010
0001
0100
1001
,  // measure 69
0100
0010
1000
0100
,  // measure 70
0001
0100
0010
1000
,  // measure 71
0010
0100
0001
1000
,  // measure 72
0100
0001
0010
0001
,  // measure 73
0100
1000
0010
0100
,  // measure 74
0001
0000
0010
0000
0100
0000
1000
0001
,  // measure 75
1000
0000
0001
1000
0001
0000
1010
0000
,  // measure 76
0110
0000
0101
0000
0001
0100
0000
0000
;
