#TITLE:SigSig;
#SUBTITLE:;
#ARTIST:kors k;
#TITLETRANSLIT:;
#SUBTITLETRANSLIT:;
#ARTISTTRANSLIT:;
#GENRE:;
#CREDIT:Unknown StepMaker;
#MENUCOLOR:;
#BANNER:sigsig.png;
#DISC:sigsig-bg.png;
#BACKGROUND:sigsig-bg.png;
#PREVIEW:sigsig-bg.png;
#LYRICSPATH:;
#CDTITLE:;
#MUSIC:sigsig.mp3;
#SAMPLESTART:45.300;
#SAMPLELENGTH:12.000;
#SELECTABLE:YES;
#SMAVERSION:b3.1;
#ROWSPERBEAT:0=192;
#BEATSPERMEASURE:0=4;
#OFFSET:-11.780;
#BPMS:0.000=179.000;
#STOPS:;
#BGCHANGES:;

//---------------dance-single - ----------------
#ROWSPERBEAT:0=192;
#BEATSPERMEASURE:0=4;
#OFFSET:-11.780;
#BPMS:0.000=179.000;
#STOPS:;
#DELAYS:;
#TICKCOUNT:0.000=2;
#SPEED:0.000=1.000;
#MULTIPLIER:0.000=1;
#FAKES:;
#METERTYPE:DDR;
#ATTACKS:;
#NOTES:
     dance-single:
     :
     Beginner:
     1:
     0.125,0.161,0.008,0.000,0.000:
1000
0000
0000
0000
,
0001
0000
0000
0000
,
1000
0000
0000
0000
,
0100
0000
0000
0000
,
1000
0000
0000
0000
,
0001
0000
0000
0000
,
1000
0000
0000
0000
,
0100
0000
0000
0000
,
1000
0000
0000
0000
,
0001
0000
1000
0000
,
0000
0000
0000
0000
,
1000
0000
0100
0000
,
1000
0000
0001
0000
,
1000
0000
0000
0100
,
0000
0000
0000
1000
,
0000
0000
0001
0000
,
1000
0000
0000
0000
,
0100
0000
0000
0000
,
1000
0000
0000
0000
,
0000
0000
0000
0000
,
0010
0000
0000
0000
,
1000
0000
0000
0000
,
0001
0000
0000
0000
,
0100
0000
0000
0000
,
0010
0000
0000
0000
,
1000
0000
0001
0000
,
1000
0000
0001
0000
,
1000
0000
0100
0000
,
1000
0000
0001
0000
,
1000
0000
0000
0000
,
0100
0000
0010
0000
,
0100
0000
1000
0000
,
0100
0000
0010
0000
,
0100
0000
1000
0000
,
0000
0000
0000
0100
,
0000
0000
1000
0000
,
0100
0000
1000
0000
,
0100
0000
0001
0000
,
0100
0000
1000
0000
,
0100
0000
0001
0000
,
0100
0000
1000
0000
,
0100
0000
0000
0000
,
0001
0000
0000
0000
,
1000
0000
0000
0000
,
0100
0000
0000
0000
,
0010
0000
0000
0000
,
1000
0000
0000
0000
,
0001
0000
0000
0000
,
1000
0000
0000
0000
,
0100
0000
0000
0000
,
1000
0000
1000
0000
,
0001
0000
0001
0000
,
0100
0000
0100
0000
,
0010
0000
0010
0000
,
1000
0000
1000
0000
,
0001
0000
0001
0000
,
1000
0000
0100
0000
,
1000
0000
0001
0000
,
1000
0000
0100
0000
,
0010
0000
0100
0000
,
0001
0000
1000
0000
,
0100
0000
0000
0000
,
1000
0000
0000
0000
,
0001
0000
1000
0000
,
0001
0000
0000
0000
,
1000
0000
0000
0000
,
0100
0000
0000
0000
,
0001
0000
0000
0000
,
0100
0000
0000
0000
,
1000
0000
0000
0000
,
0001
0000
0000
0000
,
1000
0000
0000
0000
,
0100
0000
0000
0000
,
0010
0000
0000
0000
,
0100
0000
0000
0000
,
1000
0000
0000
0000
,
0001
0000
0000
0000
,
1000
0000
0000
0000
,
0001
0000
0000
0000
,
0100
0000
0000
0000
,
1000
0000
0000
0000
,
1100
0000
0000
0000
;

//---------------dance-single - ----------------
#ROWSPERBEAT:0=192;
#BEATSPERMEASURE:0=4;
#OFFSET:-11.780;
#BPMS:0.000=179.000;
#STOPS:;
#DELAYS:;
#TICKCOUNT:0.000=2;
#SPEED:0.000=1.000;
#MULTIPLIER:0.000=1;
#FAKES:;
#METERTYPE:DDR;
#ATTACKS:;
#NOTES:
     dance-single:
     :
     Easy:
     5:
     0.297,0.354,0.064,0.024,0.000:
1100
0000
0000
0000
,
1000
0000
0001
0000
,
1000
0000
0100
0000
,
1000
0000
0001
0000
,
1000
0000
0100
0000
,
1000
0000
0001
0000
,
1000
0000
0100
0000
,
1000
1000
0100
0100
,
0001
0000
0000
0000
,
1000
0001
1000
0100
,
0000
1000
0100
1000
,
0000
0001
1000
0001
,
0000
0000
0100
0010
,
0000
0000
1000
0100
,
0000
0000
0001
1000
,
0000
0000
0100
0010
,
0000
0000
0000
0000
,
1000
0001
1000
0100
,
1000
0000
0000
0000
,
0001
1000
0001
0000
,
0010
0000
0000
0000
,
1000
0100
1000
0000
,
0001
0000
0000
0000
,
1000
0100
1000
0000
,
0001
0000
0000
0000
,
1000
0100
1000
0000
,
0001
0001
0001
1000
,
0000
0000
0000
0000
,
0100
0100
0100
0010
,
0000
0000
1000
0000
,
0001
0001
0001
1000
,
0001
1000
0001
1000
,
0100
1000
0100
1000
,
0000
0000
0001
1000
,
0001
0100
0001
1000
,
0001
0010
0001
0010
,
0100
1000
0100
0000
,
0001
0100
0001
0100
,
1000
0100
1000
0100
,
0001
0100
0001
0100
,
1000
0100
1000
0000
,
0100
0001
0100
0001
,
0100
1000
0200
0300
,
0000
0001
1000
0001
,
1000
0001
2000
3000
,
0001
1000
0001
0000
,
1000
0100
1000
0100
,
0001
0100
0001
0100
,
1000
0100
0001
0000
,
1000
0100
0001
0100
,
1100
1100
0101
0000
,
1000
0100
0001
0100
,
1000
1000
1000
0000
,
0001
1000
0001
1000
,
0100
1000
0001
1000
,
0001
0010
0001
1000
,
2000
3000
0000
0000
,
0001
1000
0001
1000
,
0100
1000
0100
0000
,
0001
0100
0001
0100
,
1100
1100
1100
0000
,
0001
0100
0001
1000
,
0001
1000
0100
1000
,
0100
0010
0001
1000
,
0100
0010
0001
0000
,
1000
0000
0100
0000
,
1000
0100
0010
0001
,
1000
0100
0010
0001
,
1000
0001
1000
0100
,
1000
0100
0010
0001
,
0010
0001
1000
0001
,
1000
0100
1000
0100
,
0001
0100
1000
0100
,
0001
0100
1000
0100
,
0010
0001
1000
0100
,
0010
0001
1000
0100
,
0001
0100
1000
0100
,
0001
0010
0100
1000
,
0001
0010
0100
1000
,
0100
0001
0100
1000
,
0100
0001
0100
1000
,
1100
0000
0000
0000
;

//---------------dance-single - ----------------
#ROWSPERBEAT:0=192;
#BEATSPERMEASURE:0=4;
#OFFSET:-11.780;
#BPMS:0.000=179.000;
#STOPS:;
#DELAYS:;
#TICKCOUNT:0.000=2;
#SPEED:0.000=1.000;
#MULTIPLIER:0.000=1;
#FAKES:;
#METERTYPE:DDR;
#ATTACKS:;
#NOTES:
     dance-single:
     :
     Medium:
     7:
     0.523,0.579,0.699,0.048,0.000:
1000
0001
1000
0001
,
1000
0100
1000
0100
,
0001
0100
0001
0100
,
0001
1000
0001
1000
,
0001
0000
1000
0100
1000
0000
0001
0000
,
1000
0010
1000
0100
,
1000
0001
1000
0010
,
1010
1100
1001
0110
,
2002
0000
0000
3003
0000
0000
0000
0000
,
1000
0000
0100
1000
0100
0000
0001
0000
,
1000
0001
1000
0010
,
1000
0010
1000
0100
,
1000
0001
1000
0001
,
1000
0010
1000
0100
,
1000
0001
1000
0010
,
1000
0010
1000
0100
,
1000
0100
0001
0100
,
0010
1010
1100
0110
,
1001
1100
1001
1010
,
1100
1001
1010
1100
,
1001
0000
0000
0000
,
1001
1100
1001
1010
,
0000
0000
1001
1010
,
0000
0000
1100
1001
,
1010
0000
1001
0000
,
1000
0100
1000
0100
1000
0100
0001
0000
,
1001
1010
1100
1001
,
1000
0100
1000
0100
1000
0000
1001
0000
,
1010
1100
1001
1000
,
1000
0001
1000
0100
1000
0001
1000
0000
,
1100
1001
1010
1001
,
1100
1001
1010
0000
,
1100
1001
1010
1100
,
0000
0000
0000
0000
,
1000
0100
1000
0100
1000
0100
1000
0000
,
0000
0001
1000
0001
1000
0001
1000
0001
,
1000
0001
1000
0001
1000
0001
0000
0000
,
1000
0100
1000
0100
,
0001
0100
0001
0100
,
1000
0000
0100
1000
0100
1000
0100
1000
,
0100
1000
0100
0000
0001
0000
0000
0000
,
1000
0100
1000
0100
,
0101
1100
0101
0000
,
1010
1100
1001
1010
,
1100
1001
1010
0000
,
1100
0101
1100
0000
,
0110
1001
0110
1001
,
1100
0101
1100
0101
,
1010
0101
1010
0000
,
1000
0000
0100
1000
0100
0000
0001
0000
,
1000
0001
2020
3030
,
1000
0000
0001
1000
0001
0000
1010
0000
,
1100
1001
1010
0000
,
1000
0000
0100
1000
0100
0000
0001
0000
,
1001
1010
1100
1001
,
1010
0000
1100
0000
1000
0001
1000
0001
,
1000
1100
2020
3030
,
1001
0000
1000
0100
1000
0000
0001
0000
,
1000
0001
1000
0000
,
0100
0000
1000
0100
1000
0000
0001
0000
,
1000
0001
1000
0000
,
0100
0000
1000
0100
1000
0000
0001
0000
,
1000
0001
1000
0100
,
1000
0000
0100
1000
0100
1000
0100
1000
,
0100
0000
1001
0000
,
0100
1000
0100
1000
0100
1000
0100
1000
,
0100
1000
0100
0000
1000
0100
0001
0000
,
0001
1000
0001
0010
0001
1000
0001
0010
,
0100
1000
0001
0010
0100
0010
0100
0010
,
0001
0010
0001
0010
1000
0100
1000
0100
,
0010
0001
0010
0001
0010
0100
0010
0100
,
1000
0100
1000
0100
0010
0001
0010
0001
,
1000
0100
1000
0100
0010
0001
0010
0001
,
1000
0100
0010
0001
1000
0100
0010
0001
,
1000
0001
1000
0001
1000
0100
0010
0001
,
1000
0001
1000
0100
,
1000
0100
0001
0100
,
0001
1000
0001
1000
,
0100
1000
0100
0001
,
0100
0001
1000
0010
,
1000
0010
1100
1001
,
1010
0000
0000
0000
;

//---------------dance-single - ----------------
#ROWSPERBEAT:0=192;
#BEATSPERMEASURE:0=4;
#OFFSET:-11.780;
#BPMS:0.000=179.000;
#STOPS:;
#DELAYS:;
#TICKCOUNT:0.000=2;
#SPEED:0.000=1.000;
#MULTIPLIER:0.000=1;
#FAKES:;
#METERTYPE:DDR;
#ATTACKS:;
#NOTES:
     dance-single:
     :
     Hard:
     9:
     0.665,0.583,0.810,0.135,0.060: // measure 1
1000
0100
0001
0100
1000
0100
0001
0100
,  // measure 2
1000
0100
0001
0100
1000
0100
0010
0001
,  // measure 3
1000
0100
0010
0100
0010
0001
0010
0001
,  // measure 4
0010
0100
0010
0100
0010
0100
1000
0100
,  // measure 5
0010
0001
0010
0001
1000
0010
1000
0100
,  // measure 6
0010
0100
0010
0001
0100
0001
0100
0001
,  // measure 7
1000
0001
0100
0010
1010
0000
0000
0000
,  // measure 8
0101
0110
0011
0110
,  // measure 9
2002
0000
0000
0000
0000
3003
0000
0000
,  // measure 10
0100
0000
0001
0010
0001
0100
0010
0000
,  // measure 11
0110
0101
0011
0110
,  // measure 12
0100
0000
0010
0100
0010
1000
0010
0000
,  // measure 13
0101
1010
0110
1001
,  // measure 14
1000
0000
1000
0001
0100
0010
1000
0000
,  // measure 15
0110
0101
0011
0011
,  // measure 16
0110
0000
1000
0010
0100
0001
1000
0000
,  // measure 17
0110
0101
0011
0110
,  // measure 18
1000
0000
0100
1000
0010
0000
1000
0000
,  // measure 19
0011
0110
0101
1010
,  // measure 20
0001
0000
0001
0100
1000
0100
0001
0000
,  // measure 21
1001
1100
0101
0110
,  // measure 22
0001
0100
0010
1000
0100
0010
1000
0001
,  // measure 23
0011
0110
0011
0110
,  // measure 24
0001
0000
0010
1000
0100
0000
0110
0000
,  // measure 25
1001
0110
1001
1100
,  // measure 26
1000
0000
0000
1000
0100
0000
0000
0100
0010
0000
0000
0010
0100
0000
0000
0100
,  // measure 27
1000
0001
0100
0010
1000
0000
0110
0000
,  // measure 28
1000
0000
0000
1000
0010
0000
0000
0010
1000
0000
0000
1000
0100
0000
0000
0100
,  // measure 29
0010
1100
0110
0011
,  // measure 30
0001
0000
0000
0001
0010
0000
0000
0010
0100
0000
0000
0100
1000
0000
0010
0000
,  // measure 31
0100
0001
0100
0000
0011
0000
1100
0000
,  // measure 32
0010
0000
0000
0010
0100
0000
0000
0100
1000
0000
0000
1000
0010
0000
0000
0010
,  // measure 33
0100
1001
0110
1100
,  // measure 34
1000
0100
1000
0100
0001
0100
0001
0100
,  // measure 35
1000
0100
0001
0010
1000
0010
0001
0100
,  // measure 36
0010
0100
1000
0100
0010
0100
0001
0100
,  // measure 37
1000
0100
0001
0000
1000
0000
0000
0000
,  // measure 38
0001
0000
1000
0001
1000
0000
1100
0000
,  // measure 39
0101
1100
0101
1000
,  // measure 40
0100
0000
0001
1000
0010
1000
0010
0100
,  // measure 41
0010
1010
0101
0000
,  // measure 42
0001
0000
1000
0001
1000
0000
0110
0000
,  // measure 43
0101
0101
0110
0000
,  // measure 44
0010
0000
0001
1000
0001
0000
0101
0000
,  // measure 45
0011
0101
2002
3003
,  // measure 46
0010
0000
0010
0100
0001
0000
0101
0000
,  // measure 47
0110
0101
0110
0101
,  // measure 48
1001
0000
0001
0100
1000
0100
0001
0100
,  // measure 49
0010
1100
0110
0011
,  // measure 50
1001
0000
1000
0010
0100
0000
0001
0000
,  // measure 51
1000
0100
0220
0330
,  // measure 52
0001
0000
0100
0001
0010
0000
0010
0000
,  // measure 53
1100
1001
0202
0303
,  // measure 54
1000
0000
0001
0100
0010
0000
1000
0000
,  // measure 55
0110
1100
1001
1100
,  // measure 56
0101
0000
0001
0100
1000
0100
0001
0010
,  // measure 57
1000
1100
0220
0330
,  // measure 58
1000
0000
0100
0001
0010
0000
1001
0000
,  // measure 59
0011
0101
2002
3003
,  // measure 60
0101
0000
0001
0100
0001
0000
0110
0000
,  // measure 61
0110
0101
0220
0330
,  // measure 62
0110
0000
0010
0100
1000
0000
0101
0000
,  // measure 63
0110
1001
0011
1001
,  // measure 64
1100
0000
0101
0000
0001
0100
0001
0010
,  // measure 65
0001
0100
0001
1000
0001
0000
2000
0000
,  // measure 66
3100
0001
0100
0010
0100
0001
0010
0100
,  // measure 67
0001
0100
1000
0100
0001
0010
1000
0010
,  // measure 68
0001
0010
0100
0010
0001
0010
0001
1000
,  // measure 69
0100
0001
0100
1000
0100
0001
1000
0001
,  // measure 70
1000
0001
0010
0100
0010
0100
0010
0100
,  // measure 71
0001
0100
1000
0100
0001
0100
1000
0000
,  // measure 72
0001
0100
0001
0100
0001
0010
0001
0100
,  // measure 73
0001
0100
0010
0100
0001
0000
0100
0010
,  // measure 74
0001
0010
0001
0010
0001
1000
0001
0100
,  // measure 75
1000
0100
0001
0100
1000
0001
1000
0100
,  // measure 76
1000
0001
1000
0100
0010
0100
0001
0100
,  // measure 77
0010
0100
0001
0100
0010
0100
0001
0100
,  // measure 78
0010
0100
0001
0100
0010
0100
1000
0010
,  // measure 79
1000
0010
1000
0010
1000
0010
0000
0010
,  // measure 80
1000
0100
0010
1000
0010
0100
0010
0100
,  // measure 81
0010
1000
0010
1000
0010
0000
2020
0000
,  // measure 82
0000
0000
3030
0000
;
