#TITLE:SA.YO.NA.RA SUPER STAR;
#SUBTITLE:;
#ARTIST:Super Star -Mitsuru-;
#TITLETRANSLIT:;
#SUBTITLETRANSLIT:;
#ARTISTTRANSLIT:;
#CREDIT:;
#BANNER:SAYONARA SUPER STAR.png;
#BACKGROUND:SAYONARA SUPER STAR-BG.png;
#LYRICSPATH:;
#CDTITLE:;
#MUSIC:SAYONARA SUPER STAR.ogg;
#OFFSET:-0.058;
#SAMPLESTART:23.676;
#SAMPLELENGTH:10.449;
#SELECTABLE:YES;
#BPMS:0.000=170.000,156.000=85.000,182.000=170.000;
#STOPS:182.000=1.060
;
#BGCHANGES:0.000=SAYONARA SUPER STAR.avi=1.000=0=0=1,
332.000=Sayonara Superstar.png=1.000=0=0=1,
99999=-nosongbg-=1.000=0=0=0 // don't automatically add -songbackground-
;

//---------------dance-single - ----------------
#NOTES:
     dance-single:
     :
     Easy:
     4:
     0.149,0.284,0.069,0.104,0.000:
0000
0000
0000
0000
,
0000
0000
0000
0000
,
0000
0000
0000
0000
,
0000
0000
0000
0000
,
0000
0000
0000
0000
,
0000
0000
0000
0000
,
0000
0000
0000
0000
,
0000
0000
0000
0000
,
0000
0000
0000
0000
,
1000
0000
0000
0000
,
0001
0000
0000
1000
,
0000
0000
0000
0000
,
0000
0000
0001
0100
,
0001
0000
1000
0100
,
1000
0000
0000
0000
,
0000
0000
0000
0000
,
0000
0000
0000
0000
,
1000
0000
0000
0100
0000
0000
0000
0000
,
1000
0000
0000
0010
0000
0000
0000
0000
,
1000
0001
1000
0001
,
1000
0000
0000
0001
0000
0000
0000
0000
,
0110
0000
0000
0000
,
0001
1000
0001
1000
,
0001
0000
0000
1000
0000
0001
0000
0000
,
2000
0000
0000
0000
,
0001
0000
0000
0000
0000
0100
0000
0000
,
3001
0000
0000
0010
0000
0000
0000
0000
,
1000
0001
1000
0001
,
1000
0000
0000
0001
0000
0000
0000
0000
,
0110
0000
0000
0000
,
0001
1000
0001
1000
,
0001
0000
0010
0000
,
0100
0000
0000
0000
,
2002
0000
0000
0000
,
0000
0000
0000
0000
,
3003
0000
0000
0000
,
0000
0000
0000
0000
,
0000
0000
0000
0000
,
0000
0000
0000
0000
,
0100
0000
0000
0010
,
0100
0010
0100
0000
,
0000
1001
0000
0000
,
1000
0000
0000
0001
,
0010
0100
1000
0000
,
0000
0220
0000
0000
,
0000
0330
0000
1000
,
0000
0001
0000
0200
,
0300
0000
0000
0001
,
0000
1000
0000
0100
,
0000
0110
0000
1000
,
0000
0001
0000
0100
,
0010
0000
0100
0000
0000
0002
0000
0000
,
0000
0000
0000
0003
0000
2000
0000
0000
,
0000
0000
0000
3000
0000
0000
0001
0000
,
0100
0001
0100
0000
,
0000
0000
0000
1000
,
0100
1000
0100
0000
,
0000
0000
0000
0010
,
0100
0010
0100
0000
,
0000
0000
0000
0001
,
1000
0001
1000
0001
,
0100
0001
1000
1001
,
0000
0000
0000
0001
,
1000
0001
1000
2002
,
0000
0000
0000
0000
,
0000
0000
0000
0000
0000
0000
0000
3003
,
0000
0000
0000
0000
,
0000
0000
0000
0000
,
0000
0000
0000
0000
,
0000
0000
0000
2000
,
0000
0000
0000
0002
,
0000
0000
0000
0000
,
0000
0000
0000
0000
,
0000
3003
0000
0000
0000
0000
0000
0000
;

//---------------dance-single - ----------------
#NOTES:
     dance-single:
     :
     Medium:
     7:
     0.256,0.477,0.060,0.035,0.017:
0000
0000
0000
0000
,
0000
0000
0000
0000
,
0000
0000
0000
0000
,
0000
0000
0000
0000
,
0000
0000
0000
0000
,
0000
0000
0000
0000
,
0000
0000
0000
0000
,
0000
0000
0000
0000
,
0000
0000
0000
0000
,
1010
0000
0000
0000
,
0101
0000
0000
0000
0000
0000
0100
0010
,
0000
0000
0000
0000
,
0000
0000
0100
0010
,
0100
0000
0000
1001
0000
0000
1000
0000
,
0001
1000
0010
1000
,
0001
0000
0000
0200
0000
0000
0000
0000
,
0000
0000
0000
0000
0000
0000
0000
0300
,
0001
0000
0000
1000
0000
0001
0000
1000
,
0100
0000
0000
1000
0000
0001
0000
0100
,
0010
1000
0001
0100
,
0010
0000
0000
1000
0000
0000
0000
0001
,
0100
0000
0000
0001
0000
1000
0000
0100
,
0010
0001
1000
0001
,
2000
0000
0000
0100
0000
0100
0000
0100
,
0000
0000
0000
0000
,
3001
0000
0000
0001
0000
1000
0000
0010
,
0100
0000
0000
0001
0000
0100
0000
0001
,
1000
0001
1000
0100
,
0010
0001
0000
1001
0000
0000
0000
1000
,
0100
0000
0000
0000
0000
0010
0001
0010
,
0100
1000
0001
0100
,
0010
0000
1000
0100
0000
0001
0000
0010
,
0000
0000
0000
0000
,
1001
0000
0000
0000
,
0000
0000
0000
0000
,
0000
0000
0000
0000
,
0000
0000
0000
0000
,
0000
0000
0000
0000
,
0000
0000
0000
0000
,
1001
0000
0000
0001
0100
0010
0100
0000
,
1001
0000
0100
0000
0010
0000
0000
0001
,
0100
0010
1000
0000
0001
0000
1000
0000
,
0001
0000
0000
0010
0100
0010
0100
0000
,
1000
0000
0001
0000
1000
0100
0010
0001
,
0010
0100
1000
0000
0000
0000
0000
0000
,
0000
0000
0000
0001
,
0000
0000
0000
0000
0010
0000
0000
0000
0000
0000
0000
0000
0100
0000
0000
0100
,
0000
0100
0000
0000
0000
0000
1000
0000
,
0000
0010
0000
0100
,
0000
0001
0000
0000
1000
0000
0001
0000
,
0000
0000
1000
0000
0000
0000
0000
0000
0000
0000
0000
0000
0100
0000
0000
0100
,
0000
0100
0000
0000
0000
1000
0010
0000
,
0000
0100
0001
0000
0000
1000
0100
0000
,
0000
0010
0001
0000
0100
0000
0001
0100
,
0001
0000
1000
0100
1000
0000
0001
0010
,
0001
0010
0001
0010
0001
0000
1000
0010
,
1000
0000
0001
0100
0001
0000
1000
0010
,
1000
0010
1000
0010
1000
0000
0001
0100
,
0010
0000
1000
0010
0100
0000
0001
1000
,
0001
0000
0010
0100
0010
0000
0001
1000
,
0001
0100
0001
0010
0001
0000
1000
0001
,
1000
0100
1000
0010
1000
0000
0100
0010
,
0100
0000
0010
0001
0010
0000
0100
1000
,
0100
0000
0010
0001
0100
0000
0002
0000
,
0000
0000
0000
0000
,
0000
0000
0000
1003
,
0000
0000
0000
0000
,
0000
0000
0000
0000
,
0000
0000
0000
0000
,
0000
0000
0000
0000
0000
0000
0000
0000
0000
0000
0000
0000
1000
0000
0000
0100
,
0000
0000
1000
0000
0000
0001
0000
0000
0100
0000
0010
0000
2000
0000
0000
0000
,
0000
0000
0000
0000
,
0000
0000
0000
0000
,
0000
0000
0000
0000
0000
3000
0000
0000
;

//---------------dance-single - ----------------
#NOTES:
     dance-single:
     :
     Hard:
     8:
     0.423,0.605,0.362,0.104,0.056: // measure 1
0000
0000
0000
0000
,  // measure 2
0000
0000
0000
0000
,  // measure 3
0000
0000
0000
0000
,  // measure 4
0000
0000
0000
0000
,  // measure 5
0000
0000
0000
0000
,  // measure 6
0000
0000
0000
0000
,  // measure 7
0000
0000
0000
0000
,  // measure 8
0000
0000
0000
0000
,  // measure 9
0000
0000
0000
0000
,  // measure 10
1000
0001
0100
0001
0000
1000
0010
0100
,  // measure 11
0001
0100
0010
1000
0000
0001
0100
0010
,  // measure 12
1000
0010
0100
0001
0000
1000
0100
0010
,  // measure 13
0001
0100
0101
1100
,  // measure 14
0011
0000
0000
1100
0000
0000
0101
0000
,  // measure 15
1001
1000
0010
1000
,  // measure 16
0001
0000
0000
0200
0000
0000
0000
0000
,  // measure 17
0000
0000
0000
0000
0000
0000
0000
0300
,  // measure 18
0001
0100
0010
1000
0000
1001
0000
1001
,  // measure 19
1000
0100
0010
0001
0000
1001
0000
1000
,  // measure 20
0200
0000
0310
0001
0010
0000
0100
1000
,  // measure 21
0010
0100
0000
0002
0000
0000
0003
0100
,  // measure 22
1000
0100
0010
1000
0000
1100
0000
0101
,  // measure 23
0010
0100
1000
0001
,  // measure 24
1001
0000
0000
0101
0000
1100
0000
1000
,  // measure 25
0100
1000
0000
0001
0000
0100
0000
0001
,  // measure 26
0100
0001
0000
1000
0000
1001
0000
1001
,  // measure 27
0010
0100
1000
0100
0000
0011
0000
0001
,  // measure 28
0200
0300
0010
1000
0010
0000
0100
0001
,  // measure 29
0010
0001
0000
2000
0000
0000
3000
0100
,  // measure 30
1000
0100
0010
0001
0000
0100
0010
1000
,  // measure 31
0100
1100
0011
1000
,  // measure 32
0001
0000
2000
3100
0000
0020
0031
0000
,  // measure 33
1000
0100
0010
0001
0100
0010
1000
0001
,  // measure 34
1000
0000
0000
0000
,  // measure 35
0000
0000
0000
0000
,  // measure 36
0000
0000
0000
0000
,  // measure 37
0000
0000
0000
0000
,  // measure 38
0000
0000
0000
0000
,  // measure 39
0000
0000
0000
0000
,  // measure 40
1001
1000
0010
0100
0001
0010
0011
0000
,  // measure 41
0110
0000
1100
0000
1010
0010
0100
0001
,  // measure 42
0100
1000
1100
0100
0001
0010
0100
0000
,  // measure 43
0011
0001
0010
0100
1000
0010
1010
0000
,  // measure 44
1001
0000
0101
0000
0110
0100
1000
0100
,  // measure 45
0001
1000
2001
0000
0000
0000
0000
0002
,  // measure 46
0000
0000
3003
0110
,  // measure 47
0000
0000
0010
0000
1000
0000
0100
0000
0010
0000
0001
0000
0100
0000
0000
0101
,  // measure 48
0000
0000
1100
0000
0000
0000
0000
0000
0000
0000
0001
1000
0001
0000
0000
0000
,  // measure 49
0000
0000
1000
0000
0100
0000
0000
1001
0000
0000
0100
0000
0001
0000
0000
0000
,  // measure 50
0000
0000
0100
0010
0100
0000
0000
0000
1100
0000
0000
0000
0011
0000
0000
0000
,  // measure 51
0000
0000
0010
0000
0001
0000
0100
0000
0010
0000
1000
0000
0100
0000
0000
1001
,  // measure 52
0000
0000
0110
0000
0000
0000
0000
0000
0000
0000
0001
0010
0001
0000
0010
0000
,  // measure 53
0100
0000
1000
0000
1100
0000
0000
0000
0000
0000
1000
0010
1000
0000
0010
0000
,  // measure 54
0100
0001
0101
0000
1000
0001
0100
0010
,  // measure 55
1000
0010
0100
0001
0010
0000
0100
0010
,  // measure 56
0001
0010
0100
1000
0010
0000
1000
0010
,  // measure 57
0001
0010
1000
0100
1000
0000
0001
0010
,  // measure 58
1000
0010
0001
0100
0001
0000
0100
0010
,  // measure 59
1000
0010
0100
0001
0010
0100
1000
0010
,  // measure 60
0100
0001
0010
0100
1000
0000
0010
0100
,  // measure 61
0001
0100
1000
0100
0001
0000
0010
0100
,  // measure 62
1000
0000
0100
0000
0001
0000
0100
0000
1000
0000
0000
0000
0010
0100
0001
0000
,  // measure 63
0010
0000
0100
0000
0010
0001
0010
0000
0100
0000
0000
0000
0010
0100
1000
0000
,  // measure 64
0010
0000
0100
0000
0010
1000
0010
0000
0100
0000
0001
0000
2000
0000
0000
0000
,  // measure 65
0000
0000
0000
0000
,  // measure 66
0000
0000
0000
3001
,  // measure 67
0000
0000
0000
0000
,  // measure 68
0000
0000
0000
0000
,  // measure 69
0000
0000
0000
0000
,  // measure 70
0000
0000
0000
0000
0000
0000
0000
0000
0000
0000
0000
0000
1000
0000
0000
0100
,  // measure 71
0000
0000
1000
0000
0000
0001
0000
0000
0100
0000
0010
0000
2002
0000
0000
0000
,  // measure 72
0000
0000
0000
0000
,  // measure 73
0000
0000
0000
0000
,  // measure 74
0000
0000
0000
3003
;
