#TITLE:Ruti'n;
#SUBTITLE:;
#ARTIST:BEXTER;
#TITLETRANSLIT:;
#SUBTITLETRANSLIT:;
#ARTISTTRANSLIT:;
#GENRE:;
#CREDIT:Telperion;
#BANNER:[Week 2] - Ruti'n.png;
#BACKGROUND:[Week 2] - Ruti'n-bg.png;
#LYRICSPATH:;
#CDTITLE:;
#MUSIC:rutin.ogg;
#OFFSET:-0.367891;
#SAMPLESTART:16.493000;
#SAMPLELENGTH:23.959999;
#SELECTABLE:YES;
#DISPLAYBPM:120.000000;
#BPMS:0.000000=120.000000;
#STOPS:;
#DELAYS:;
#TIMESIGNATURES:0.000000=4=4
;
#BGCHANGES:0.708=[Week 2] - Ruti'n.avi=1.000=0=0=1=====,
99999=-nosongbg-=1.000=0=0=0 // don't automatically add -songbackground-
;
#KEYSOUNDS:;
#ATTACKS:;

//---------------dance-single - Telperion----------------
#NOTES:
     dance-single:
     Telperion:
     Hard:
     8:
     0.515,0.469,0.442,0.251,0.322,290.000,44.000,25.000,0.000,0.000,0.000,0.000,0.515,0.469,0.442,0.251,0.322,290.000,44.000,25.000,0.000,0.000,0.000,0.000:
0000
0000
0000
0000
,
0000
0000
0000
0000
,
0000
0000
0000
0000
,
0000
0000
0000
0000
,
0000
0000
0000
0000
1000
0000
0100
0000
1000
0000
0001
0100
0000
0001
0020
0000
,
0000
0000
0030
0000
0011
0000
0001
0000
1000
0000
0001
0100
0000
0001
0020
0000
,
0000
0000
0030
0000
0110
0000
0010
0000
0001
0000
1000
0100
0000
1000
0020
0000
,
0000
0000
0030
0000
0100
0000
0010
0000
0100
0000
1010
0000
0000
0012
0000
0000
,
2000
0000
3003
0000
0110
0000
1000
0000
0100
0000
0000
1000
0000
0002
0000
0013
,
0001
0000
0000
0000
0110
0000
0001
0000
1000
0000
0000
0010
0000
0200
0000
0310
,
1000
0000
0000
0000
0101
0000
0100
0000
0001
0000
0000
0010
0000
0002
0000
0013
,
0100
0000
0000
0000
0000
0000
1000
0000
1000
0000
0001
1000
0000
1010
0000
0000
,
1001
0000
0000
0000
0010
0000
0001
0000
1000
0000
0000
0010
0000
0002
0000
0000
,
0013
0100
0010
0000
0000
0000
1000
0000
0001
0000
0000
0010
0000
2000
0000
0000
,
3010
0000
0100
0000
0000
0000
1000
0000
1000
0000
0000
0010
0000
0002
0000
0000
,
0013
0000
1000
0000
0100
0000
0010
0000
0100
0000
1000
0001
0000
0011
0000
0000
,
1001
0000
0020
0000
0030
1000
0001
0020
,
0000
0031
0011
0000
0000
0001
1000
0020
,
0000
1030
1100
0000
0000
1000
0001
0200
,
0000
0310
0110
0000
0000
0001
1000
0002
,
0000
1003
0110
0010
1000
0000
1000
0100
,
0010
0000
0110
0001
1000
0000
0001
0100
,
0010
0000
0000
0000
0101
0000
0001
0000
0010
0000
0001
0000
0100
0000
0000
0010
,
0000
0000
1000
0000
1100
0000
0000
0000
0001
0000
0000
0000
0000
0110
0000
0000
,
0110
0000
0000
0000
1001
0000
0000
1000
0000
0000
0010
0000
1000
0000
0001
0010
,
0000
0000
0100
0000
1001
0000
0001
0000
0100
0000
0001
0000
1000
0000
0001
0010
,
0000
0000
0100
0000
1001
0000
0000
0010
0000
1000
0000
0010
0200
0000
0000
0000
,
0320
0000
0030
0000
0110
0000
0000
0010
0000
0100
0000
0010
0000
0000
0000
0000
,
1001
0000
0000
0000
1010
0000
0000
0010
0000
0000
0001
0000
0010
0000
0100
0001
,
0000
0000
0010
0000
0011
0000
0001
0000
1000
0000
0010
0000
0001
0000
0010
0100
,
0000
0000
0001
0000
0101
0000
1000
0000
1000
0000
0001
0000
0010
0001
0010
0001
,
1000
0000
0010
0000
0110
0000
0000
0100
0000
0010
0000
0200
0000
0000
0000
0000
,
0300
0000
0000
0000
1001
0000
1000
0010
0000
0100
0000
0001
0000
0100
0000
0020
,
0000
0000
1030
0000
1001
0000
0001
0000
0010
0000
0100
0010
0000
0100
0000
2000
,
0000
0000
3001
0000
1001
0000
1000
0010
1000
0001
0000
0100
0000
0010
0000
0000
,
0100
0000
0001
0000
0010
0000
1000
0010
0000
0100
0010
0000
0001
1000
0000
0000
,
1010
0000
1000
0001
0010
0010
0100
0100
,
1000
0000
0001
0100
0001
0000
1000
0000
0010
0000
0010
0000
0100
0001
0000
0000
,
0101
0000
1000
0001
0100
0100
0010
0010
,
1000
0001
0110
0000
0000
0000
0000
0000
,
0000
0000
0011
0000
0000
1000
0001
2000
,
0000
3010
1010
0000
0000
0100
0001
0020
,
0000
0130
0110
0000
1000
0000
0001
1000
,
0010
0000
0100
1000
0100
0010
0100
0001
,
0010
0100
1100
0000
0000
1000
0001
0020
,
0000
0031
0101
0000
0000
0001
1000
0020
,
0000
0130
0110
0010
1000
0001
0100
0010
,
1000
0000
0100
0001
0100
0010
0001
0100
,
0110
0000
0100
0000
0101
0000
0000
0000
0010
0000
0000
0000
0100
0000
0000
0010
,
0000
1001
0000
0000
0000
0000
0000
0000
;

//---------------dance-single - Telperion----------------
#NOTES:
     dance-single:
     Telperion:
     Challenge:
     9:
     0.601,0.592,0.362,0.301,0.673,353.000,36.000,30.000,52.000,0.000,0.000,0.000,0.601,0.592,0.362,0.301,0.673,353.000,36.000,30.000,52.000,0.000,0.000,0.000:
0000
0000
0000
0000
,
0000
0000
0000
0000
,
0000
0000
0000
0000
,
0000
0000
0000
0000
,
0000
0000
0000
0000
2000
0000
0001
0000
3010
0000
1000
0010
0000
0010
0200
0000
,
0000
0000
0300
0000
0002
0000
1000
0000
0013
0000
0001
0010
0000
0001
0200
0000
,
0000
0000
0300
0000
0120
0000
1000
0000
0130
0000
0010
1000
0000
1000
0002
0000
,
0000
0000
0013
0001
0010
0000
0100
0000
0000
0000
1001
0000
0000
2002
0000
0000
,
3003
0000
0000
0000
0101
0000
0M0M
0000
0000
0000
0000
1000
0000
0002
0000
0013
,
0100
0010
0001
0100
0010
0000
0MM0
0000
0000
0000
0000
0100
0000
0002
0000
0013
,
0100
0010
0001
1000
0010
0000
0MM0
0000
0000
0000
0000
1000
0000
0020
0000
1030
,
0001
0010
0100
0010
0000
0000
0MM1
0000
0001
0000
1000
0001
0000
0011
0000
0000
,
1001
0000
0000
0000
1010
0000
M0M0
0000
0000
0000
0000
0001
0000
0020
0000
0031
,
1000
0010
0100
0010
1000
0000
M0M0
0000
0000
0000
0000
0001
0000
2000
0000
3010
,
0100
0010
1000
0100
0010
0000
0MM0
0000
0000
0000
0000
0100
0000
2000
0000
3010
,
0100
0001
0100
0010
0000
0000
1MM0
0000
1000
0000
0001
1000
0000
1010
0000
0000
,
0110
0000
0001
0010
0001
1000
0000
0002
,
1000
0013
0001
0010
0100
1000
0000
0002
,
0010
1003
0001
0100
0010
1000
0000
2000
,
0000
0000
3001
0000
1000
0000
0100
0000
0010
0000
0001
1000
0000
0001
0100
0000
,
1000
0000
0100
0000
0110
0000
0MM0
0000
0000
0000
0100
0001
0000
0001
0020
0000
,
0000
0000
0030
0000
0110
0000
0MM0
0000
0000
0000
0100
1000
0000
1000
0001
1000
,
0010
0000
0100
0000
0101
0000
0M0M
0000
0000
0000
0001
1000
0000
0100
2000
0000
,
0000
0000
3000
0000
1100
0000
MM00
0000
0000
0000
0001
0000
0000
1010
0000
0000
,
0011
0000
0001
0000
M100
0000
0010
0000
0000
0010
0000
0100
0000
0002
0000
0013
,
0100
1000
0001
1000
0010
0000
M1M0
0000
0000
0100
0000
0010
0000
0200
0000
0301
,
0010
0100
0010
0001
1000
0000
M01M
0000
0000
0100
0000
0010
0000
2000
0000
3001
,
0010
0100
0010
0001
0100
0000
0M1M
1000
0000
1000
0000
1000
0000
0001
0000
0000
,
1001
0000
0000
0000
0010
0000
1000
0010
0000
0000
0100
0000
0010
0000
1000
0010
,
0000
0000
0100
0010
M1M0
0000
0001
0000
0010
0000
0100
0000
1000
0000
0100
0001
,
0000
0000
0200
0300
0000
0000
1000
0000
1000
0000
0001
0100
0010
1000
0010
0100
,
0000
0000
0100
0000
0010
0000
0000
1010
0000
0011
0000
1100
0000
0000
0000
0000
,
000M
0000
MMM0
0000
0001
0000
0001
0010
0100
0010
0100
1000
0001
1000
0001
0000
,
M1M1
0000
0000
0000
1000
0000
0010
0100
0010
1000
0001
1000
0001
0010
0000
0000
,
MM11
0000
0000
0000
1000
0000
0001
0010
0001
1000
0010
0100
0001
0100
0010
0000
,
M11M
0000
0000
0000
1000
0100
0001
1000
0010
0000
0001
0100
1000
0M01
0010
0000
,
M11M
0000
0000
0000
1000
0000
1000
0010
0100
0010
0100
0001
1000
0001
0010
0000
,
MM11
0000
0000
0000
1000
0000
0100
0010
0001
0010
0100
1000
0001
1000
0000
0000
,
1M1M
0000
1000
0000
0001
0000
0010
0001
0010
0100
1000
0010
1000
0010
0100
0010
,
0100
0100
1MM1
0000
0000
0000
0000
0000
,
0000
0000
0000
0000
0002
0000
1000
0000
0013
0000
0001
1000
0000
1000
0020
0000
,
0000
0000
0030
0000
0110
0000
1000
0000
0001
0000
1000
0100
0000
0100
0020
0000
,
0000
0000
0030
0000
0110
0000
0001
0000
1000
0000
0001
0100
0001
1000
0000
1000
,
0001
0000
0000
0000
0010
0000
0100
0001
0000
0100
0000
1000
0001
0000
0100
0000
,
0001
0000
0000
0000
2000
0000
0010
0000
3001
0000
1000
0100
0000
0100
0020
0000
,
0000
0000
0030
0000
0011
0000
0001
0000
0010
0000
0100
1000
0000
1000
0020
0000
,
0000
0000
0030
0000
0110
0000
1000
0000
0001
0000
1000
0100
0010
0100
0000
1000
,
0001
0000
0000
0000
0100
0000
0010
0100
0000
0100
0000
0000
0110
0000
1010
0000
,
0102
0000
0013
0000
0100
0000
0000
0000
0110
0000
0000
0000
1000
0100
0000
0011
,
0000
1001
0000
0000
0000
0000
0000
0000
;

//---------------dance-single - Telperion----------------
#NOTES:
     dance-single:
     Telperion:
     Medium:
     6:
     0.389,0.370,0.231,0.141,0.161,234.000,23.000,14.000,0.000,0.000,0.000,0.000,0.389,0.370,0.231,0.141,0.161,234.000,23.000,14.000,0.000,0.000,0.000,0.000:
0000
0000
0000
0000
,
0000
0000
0000
0000
,
0000
0000
0000
0000
,
0000
0000
0000
0000
,
0000
0000
0000
0000
1001
0000
0000
0000
0001
0000
0000
1000
0000
0000
0020
0000
,
0000
0000
0030
0000
1001
0000
0000
0000
0001
0000
0000
0010
0000
0000
0200
0000
,
0000
0000
0300
0000
1001
0000
0000
0000
1000
0000
0000
0010
0000
0000
0200
0000
,
0000
0300
1000
0100
0010
0100
0001
1000
,
0100
0000
0010
0000
0011
0000
0000
0000
0001
0000
0000
1000
0000
0010
0000
0000
,
0100
0000
0000
0000
1010
0000
0000
0000
1000
0000
0000
0001
0000
0010
0000
0000
,
0100
0000
0000
0000
1100
0000
0000
0000
0001
0000
0000
1000
0000
0001
0000
0000
,
0100
0000
0101
0000
0001
0100
0010
0100
,
0001
0000
0000
0000
1001
0000
0000
0000
1000
0000
0000
0010
0000
0100
0000
0000
,
0010
0000
0000
0000
1001
0000
0000
0000
0001
0000
0000
0010
0000
0100
0000
0000
,
0010
0000
0000
0000
0011
0000
0000
0000
0001
0000
0000
0100
0000
0001
0000
0000
,
1000
0000
1100
0000
1000
0010
0100
0010
,
1000
0002
0010
1003
,
0010
0200
0001
0010
,
1300
0000
0100
0010
0100
0000
0020
0000
,
1000
0000
0130
0010
0100
0000
0010
0000
,
0000
2000
0010
3001
,
0010
0200
1000
0010
,
0301
0000
0100
0010
0100
0000
1000
0000
,
0100
0000
0001
0100
1000
0100
0020
0000
,
0030
0000
0000
0000
1001
0000
0000
0000
0001
0000
0000
1000
0000
0010
0000
0000
,
0100
0000
0000
0000
1001
0000
0000
0000
1000
0000
0000
0001
0000
0010
0000
0000
,
0001
0000
0000
0000
1001
0000
0000
0000
0001
0000
0000
0100
0000
0010
0000
0000
,
0100
0000
0000
0000
1001
0000
0000
0001
0000
1000
0000
0001
0000
0000
0000
0000
,
0000
0000
0000
0000
0110
0000
0000
0000
1000
0000
0000
0001
0000
0100
0000
0000
,
0010
0000
0000
0000
0110
0000
0000
0000
0001
0000
0000
1000
0000
0100
0000
0000
,
0010
0000
0110
0000
1000
0001
0010
0100
,
1000
0000
0010
0000
0200
0000
0000
0010
0000
0010
0000
0010
0000
0000
0000
0000
,
0300
0000
0001
0010
0001
0010
0100
1000
,
0100
1000
0000
0001
0100
0001
1000
0001
,
0011
0000
1000
0010
1000
0010
0100
0001
,
0100
0001
0010
0100
0001
0100
1000
0000
,
1010
0000
0001
0010
0001
0010
0100
1000
,
0100
1000
0000
0001
1000
0100
0010
0001
,
0011
0000
1000
0010
0100
0010
0001
0010
,
0100
1001
0000
0000
,
0000
0002
0010
1003
,
0010
0200
1000
0010
,
0301
0000
0010
0000
0010
0100
0010
0001
,
1000
0000
0010
0000
0010
0100
1000
0100
,
0001
2000
0010
0001
,
3010
0200
0001
0010
,
1300
0000
0010
1000
0010
0000
0100
0001
,
0100
0000
0001
0010
0001
0010
0100
1000
,
0010
0000
0001
0000
0010
0000
0000
0000
0010
0000
0000
0000
1000
0000
0000
0001
,
0000
1001
0000
0000
0000
0000
0000
0000
;

//---------------dance-single - Telperion----------------
#NOTES:
     dance-single:
     Telperion:
     Easy:
     3:
     0.250,0.271,0.322,0.000,0.005,142.000,32.000,0.000,0.000,0.000,0.000,0.000,0.250,0.271,0.322,0.000,0.005,142.000,32.000,0.000,0.000,0.000,0.000,0.000:
0000
0000
0000
0000
,
0000
0000
0000
0000
,
0000
0000
0000
0000
,
0000
0000
0000
0000
,
0000
1001
0000
0010
,
0000
1001
0000
0010
,
0000
1001
0000
0100
,
0000
0010
0000
0100
,
0010
1001
0000
0010
,
0010
0110
0000
1000
,
1000
1001
0000
0010
,
0010
0110
0000
0001
,
0011
1001
0000
0100
,
0100
0110
0000
1000
,
1000
1001
0000
0100
,
0100
0110
0000
1000
,
1010
0001
0010
0100
,
1000
0000
0010
0100
,
0001
0000
1000
0100
,
0010
0000
0001
0100
,
0010
1000
0010
0100
,
0001
0000
0010
0100
,
1000
0000
0001
0010
,
0100
1000
0010
0001
,
0010
0110
0000
1000
,
0001
0110
0000
0001
,
1000
0110
0000
1000
,
0001
0011
1001
0011
,
0000
0110
0000
0001
,
1000
0110
0000
1000
,
0001
0110
0000
1000
,
0001
1010
1001
0000
,
0000
0110
0001
0000
0010
0000
0001
0000
,
0010
0100
1000
0100
,
1000
0001
0010
0001
,
0010
0100
0001
0100
,
0000
1000
0010
1000
,
0010
0100
0001
0100
,
0001
1000
0010
0001
,
0010
0110
0000
0000
,
0000
0001
0010
0100
,
1000
0000
0010
0100
,
0001
1001
0000
1000
,
1000
1001
0000
0001
,
0001
1000
0010
0100
,
0001
0000
0010
0100
,
1000
1001
0000
0010
,
0100
0110
0000
1000
,
0001
0000
0000
0000
0110
0000
0000
0000
0000
0000
0000
0000
0100
0000
0000
0010
,
0000
1001
0000
0000
0000
0000
0000
0000
;

//---------------dance-single - Telperion----------------
#NOTES:
     dance-single:
     Telperion:
     Beginner:
     1:
     0.079,0.123,0.111,0.010,0.000,43.000,11.000,1.000,0.000,0.000,0.000,0.000,0.079,0.123,0.111,0.010,0.000,43.000,11.000,1.000,0.000,0.000,0.000,0.000:
0000
0000
0000
0000
,
0000
0000
0000
0000
,
0000
0000
0000
0000
,
0000
0000
0000
0000
,
0000
0001
0000
0000
,
0000
0001
0000
0000
,
0000
1000
0000
0000
,
0000
0100
0000
0000
,
0000
0110
0000
0000
,
0000
0000
0000
0000
,
0000
0100
0000
0000
,
0000
0000
0000
0000
,
0000
1001
0000
0000
,
0000
0000
0000
0000
,
0000
0100
0000
0000
,
0000
0010
0000
0000
,
0000
0110
0000
0000
,
0000
0001
0000
0000
,
0000
1000
0000
0000
,
0000
0010
0000
0000
,
0000
0110
0000
0000
,
0000
1000
0000
0000
,
0000
0001
0000
0000
,
0000
0010
0000
0010
,
0000
0110
0000
0000
,
0000
0000
0000
0000
,
0000
0001
0000
0000
,
0000
1000
0000
0000
,
0000
1001
0000
0000
,
0000
0000
0000
0000
,
0000
0100
0000
0000
,
0000
0010
0000
0010
,
0000
0110
0000
0000
,
0000
0100
0000
0000
,
0000
0110
0000
0000
,
0000
0001
0000
0000
,
0000
0110
0000
0000
,
0000
1000
0000
0000
,
0000
0110
0000
0100
,
0000
0110
0000
0000
,
0000
0001
0000
0000
,
0000
0000
0000
0000
,
0000
1000
0000
0000
,
0000
0000
0000
0000
,
0000
0010
0000
0000
,
0000
0000
0000
0000
,
0000
0100
0000
0100
,
0000
0010
0000
0010
,
0000
1000
0000
0002
,
0000
0003
0000
0000
0000
0000
0000
0000
;
