#TITLE:Not Myself Tonight;
#SUBTITLE:;
#ARTIST:Christina Aguilera;
#TITLETRANSLIT:;
#SUBTITLETRANSLIT:;
#ARTISTTRANSLIT:;
#CREDIT:;
#BANNER:Not myself tonight-bn.png;
#BACKGROUND:NOT MYSELF TONIGHT-BG.png;
#LYRICSPATH:;
#CDTITLE:./CDTITLES/DanceDanceRevolution X2.png;
#MUSIC:Not Myself Tonight.mp3;
#OFFSET:0.563;
#SAMPLESTART:36.117;
#SAMPLELENGTH:15.000;
#SELECTABLE:YES;
#BPMS:0.000=120.000;
#STOPS:;
#BGCHANGES:0.000=[Week 2] - Not Myself Tonight.avi=1.000=0=0=1,
228.000=Just Dance-bg.png=1.000=0=0=1,
99999=-nosongbg-=1.000=0=0=0 // don't automatically add -songbackground-
;

//---------------dance-single - Copied from----------------
#NOTES:
     dance-single:
     Copied from:
     Hard:
     8:
     0.446,0.470,0.369,0.095,0.076: // measure 1
0000
0000
0000
0000
,  // measure 2
0000
0000
0000
0000
,  // measure 3
0000
0000
0000
0000
,  // measure 4
0000
0000
0000
0000
,  // measure 5
0000
0000
0000
0000
,  // measure 6
0000
0000
0000
0000
,  // measure 7
0000
0000
1001
0000
0100
0000
0001
1000
,  // measure 8
0100
0000
0010
0000
0001
0100
0010
0000
,  // measure 9
1001
0000
0002
0000
0103
0000
0010
1000
,  // measure 10
0100
0000
1000
0010
0001
0010
0100
0001
,  // measure 11
1001
0000
0200
0000
0310
1000
0001
0010
,  // measure 12
0100
1000
0010
1000
0100
1000
0001
0100
,  // measure 13
1000
0100
0002
0000
1003
0000
0010
0100
,  // measure 14
0001
0000
1000
0001
0100
0000
0001
0100
,  // measure 15
0010
1000
1001
0000
0001
0100
0001
1000
,  // measure 16
0010
0100
0110
0000
0010
1000
0100
0010
,  // measure 17
0001
0100
0101
0000
0001
0100
0001
1000
,  // measure 18
0010
0000
1000
0010
0001
0010
1000
0100
,  // measure 19
0010
0000
0000
0000
0001
0000
1000
0010
1000
0000
0001
0000
0010
0000
0001
0000
,  // measure 20
0100
0000
0010
0000
1000
0000
0100
0010
0100
0000
1000
0000
0001
0000
0100
0000
,  // measure 21
0010
1000
1001
0000
0010
0001
1000
0100
,  // measure 22
0001
0100
1100
0000
1001
0000
0011
0000
,  // measure 23
2001
0000
0000
0000
3001
0000
0100
0001
0100
0000
0010
0000
1000
0000
0001
0000
,  // measure 24
0100
0000
0010
0000
1000
0000
0001
1000
0001
0000
0100
0000
0001
0000
0010
0000
,  // measure 25
0100
1000
1001
0000
1000
0010
0001
0010
,  // measure 26
1000
0100
1100
0000
1001
0000
0011
0000
,  // measure 27
2001
0000
3001
0000
0100
0000
0001
1000
,  // measure 28
0010
0000
0100
0000
0010
0000
1000
0100
,  // measure 29
0010
2002
0000
0000
,  // measure 30
3003
0000
1000
0000
0001
0000
0010
0100
,  // measure 31
1000
0000
1001
0000
1000
0100
1000
0001
,  // measure 32
0010
0100
0010
0001
1000
0100
0001
0100
,  // measure 33
1000
0010
0001
0000
0010
0000
1000
0100
,  // measure 34
0110
0000
0001
0100
0110
0000
0001
0100
,  // measure 35
0010
1000
1001
0000
0100
0010
1000
0001
,  // measure 36
1000
0010
1010
0000
0100
0001
1000
0001
,  // measure 37
0100
0010
0110
0000
0010
1000
0001
0100
,  // measure 38
0001
0000
0001
0010
1000
0010
0001
0100
,  // measure 39
0010
0000
0000
0000
1000
0000
0001
0010
0001
0000
1000
0000
0100
0000
1000
0000
,  // measure 40
0010
0000
0100
0000
0001
0000
1000
0001
1000
0000
0100
0000
0010
0000
0001
0000
,  // measure 41
1000
0001
0011
0000
1000
0001
0010
1000
,  // measure 42
0010
0001
0011
0000
0101
0000
1001
0000
,  // measure 43
2010
0000
0000
0000
3010
0000
1000
0001
1000
0000
0001
0000
0100
0000
0010
0000
,  // measure 44
1000
0000
0100
0000
1000
0000
0001
0010
0001
0000
0010
0000
0100
0000
1000
0000
,  // measure 45
0001
1000
1010
0000
0010
0000
0100
0000
,  // measure 46
0001
0000
0000
0000
1100
0000
0000
0000
2002
0000
3003
0000
0101
0000
0000
0100
,  // measure 47
0000
0000
0001
0000
0000
1000
0000
0000
0100
0000
1100
0000
1001
0000
0000
0010
,  // measure 48
0000
0000
0001
0000
0000
0100
0000
0000
0010
0000
0101
0000
1001
0000
0000
1000
,  // measure 49
0000
0000
0001
0000
0000
0010
0000
0000
0001
0000
0011
0000
1001
0000
0000
0100
,  // measure 50
0000
0000
0010
0000
0000
1000
0000
0000
0001
0000
1001
0000
0000
0000
0000
0000
;

//---------------dance-single - ----------------
#NOTES:
     dance-single:
     :
     Medium:
     5:
     0.319,0.352,0.246,0.076,0.038:
0000
0000
0000
0000
,
0000
0000
0000
0000
,
0000
0000
0000
0000
,
0000
0000
0000
0000
,
0000
0000
0000
0000
,
0000
0000
0000
0000
,
0000
1000
0100
0001
,
0100
0000
1000
0000
0010
0100
0001
0000
,
2002
3003
0001
0100
,
0001
0000
0010
0000
1000
0010
0001
0000
,
2002
3003
1000
0100
,
1000
0000
0010
0000
0100
0000
0001
1000
,
0001
1000
0001
0000
0001
0000
0100
0000
,
0101
0010
1010
1001
,
0110
0000
1001
0000
1000
0100
1000
0001
,
0100
0000
0001
0000
0001
0100
0001
0100
,
0010
0000
0010
0000
1000
0010
1000
0010
,
0100
0001
1000
0100
,
0010
0002
0100
0100
,
0103
0000
0010
1000
0100
0000
0010
0001
,
1000
1001
0001
0100
,
0001
1100
0011
0101
,
1010
2000
0100
0100
,
3100
0000
0010
0001
0100
0000
0010
1000
,
0100
0010
0001
0100
,
0010
1010
1001
0101
,
1001
0001
0001
0001
,
0001
1000
1000
1000
,
1000
0000
0000
0000
,
0000
0000
0001
0000
0100
0000
0001
0001
,
1000
0000
0100
0000
0010
0000
0001
0100
,
0001
0100
0010
0000
1000
0000
0100
1000
,
0100
1000
0010
0000
0100
0000
0001
0000
,
0101
1000
1010
1001
,
0110
1001
1000
0100
,
0010
0010
0001
0000
0100
0000
0001
0000
,
0100
0100
0010
0000
1000
0000
0100
0000
,
1000
1000
0001
0000
0100
0000
0001
0000
,
0100
0020
0100
0100
,
0130
0000
0001
0100
0010
0000
1000
0100
,
0010
0001
1000
0100
,
0001
0101
1100
1010
,
1001
0002
0100
0100
,
0100
0003
0010
1000
0100
0000
0010
0001
,
1000
0100
1000
0001
,
0100
0000
0000
0000
0010
0000
0000
0000
0110
0000
0000
0000
0100
0000
0000
0001
,
0000
0000
0100
0000
0000
0001
0000
0000
1000
0000
0100
0000
1000
0000
0000
0001
,
0000
0000
1000
0000
0000
0100
0000
0000
1000
0000
0010
0000
0100
0000
0000
0001
,
0000
0000
0100
0000
0000
0001
0000
0000
0100
0000
0010
0000
1000
0000
0000
0100
,
0000
0000
0010
0000
0000
0001
0000
0000
1000
0000
0001
0000
0000
0000
0000
0000
;

//---------------dance-single - ----------------
#NOTES:
     dance-single:
     :
     Easy:
     3:
     0.261,0.305,0.161,0.142,0.000:
0000
0000
0000
0000
,
0000
0000
0000
0000
,
0000
0000
0000
0000
,
0000
0000
0000
0000
,
0000
0000
0000
0000
,
0000
0000
0000
0000
,
0000
1000
0100
1000
,
1000
0001
0100
0001
,
1001
0001
0010
0001
,
0001
0100
0010
1000
,
1001
2000
0000
3100
,
0010
0002
0000
0103
,
0010
2000
0000
3100
,
0010
0002
0000
0103
,
0010
0110
0010
1000
,
0100
0001
0100
1000
,
0010
0100
0001
0100
,
0010
0100
0001
0010
,
1000
0020
0001
0001
,
0031
0200
0001
0001
,
0301
1000
0000
0100
,
0100
0110
0110
1001
,
1001
2000
0010
0010
,
3010
0200
0001
0001
,
0301
1000
0100
0010
,
0001
1001
1001
0110
,
0110
0002
0103
0010
,
1000
0200
1300
0010
,
0100
0001
0000
0000
,
0000
1000
0100
0010
,
0001
0002
0103
0010
,
1000
0020
0130
0100
,
0001
0010
0100
1000
,
1000
0001
0001
0100
,
0010
0110
0010
1000
,
0100
1000
0001
0100
,
0001
0001
0010
0100
,
0010
0001
0100
0010
,
1000
0200
1000
1000
,
1300
0001
0100
0001
,
0100
0100
0010
1000
,
0100
0110
0110
1001
,
1001
2000
0100
0100
,
3100
0020
0001
0001
,
0031
0100
0001
0100
,
0010
1001
0000
0100
,
0100
0000
0010
0001
,
0001
0000
0001
0100
,
0100
0000
0010
0010
,
0010
0000
1000
0000
;

//---------------dance-single - Copied from----------------
#NOTES:
     dance-single:
     Copied from:
     Beginner:
     1:
     0.138,0.164,0.000,0.000,0.000:
0000
0000
0000
0000
,
0000
0000
0000
0000
,
0000
0000
0000
0000
,
0000
0000
0000
0000
,
0000
0000
0000
0000
,
0000
0000
0000
0000
,
0000
1000
0000
1000
,
0000
0001
0000
0001
,
0000
0100
0000
0100
,
0000
0010
0000
0010
,
0000
0100
0100
0000
,
0000
0001
0001
0000
,
0000
1000
1000
0000
,
0000
0100
0100
0000
,
0000
0010
0001
0010
,
0001
0000
0100
0001
,
0100
0001
0000
0100
,
0010
0100
0010
0000
,
0000
1000
1000
1000
,
1000
0000
0001
0000
,
0001
0000
1000
0000
,
1000
0001
0001
0001
,
0001
0100
0000
0100
,
0000
0010
0000
0010
,
0000
1000
0000
1000
,
0000
0100
0100
0100
,
0100
1000
0000
1000
,
0000
0010
0000
0010
,
0000
0100
0000
0000
,
0000
0100
0000
0100
,
0000
0001
0001
0000
,
0000
0010
0010
0000
,
0000
0100
0100
0000
,
0000
1000
1000
0000
,
0000
0001
0100
0000
,
0100
0010
1000
0000
,
1000
0001
1000
0000
,
0100
0000
0100
0000
,
0010
0001
0001
0001
,
0001
0000
0100
0000
,
0100
0000
0010
0000
,
0010
1000
1000
1000
,
1000
0100
0100
0100
,
0100
0000
0010
0000
,
0010
0000
0000
0000
,
0000
0000
0000
0000
,
1000
0000
1000
0000
,
0001
0000
0001
0000
,
1000
0000
1000
0000
,
0001
0000
0001
0000
;
