#TITLE:ノルニル;
#SUBTITLE:;
#ARTIST:Yakushimaru Etsuko Metro Orchestra;
#TITLETRANSLIT:Nornir;
#SUBTITLETRANSLIT:;
#ARTISTTRANSLIT:;
#GENRE:Anime;
#CREDIT:AznPunk07/Frozen_Heat/GuardianFrozen;
#MENUCOLOR:#006f70;
#METERTYPE:DDR;
#BANNER:Nornir-bn.png;
#BACKGROUND:Nornir-bg.png;
#LYRICSPATH:Nornir.lrc;
#CDTITLE:!cdtitle.png;
#MUSIC:Noruniru.mp3;
#OFFSET:-0.308;
#SAMPLESTART:44.185;
#SAMPLELENGTH:22.600;
#SELECTABLE:YES;
#LISTSORT:;
#BPMS:0.000=170.000;
#STOPS:;
#BGCHANGES:2.000=[Week 2] - Nornir.avi=1.000=1=0=1,
248.000=[Week 2] - Nornir-bg.png=1.000=1=0=1,
99999=-nosongbg-=1.000=0=0=0 // don't automatically add -songbackground-
;
#ATTACKS:;

//---------------dance-single - ----------------
#NOTES:
     dance-single:
     :
     Hard:
     9:
     0.618,0.899,0.167,0.312,0.251: // measure 1
0000
0000
0000
0000
,  // measure 2
0001
0010
0100
0010
0000
0100
1000
0100
,  // measure 3
0000
1000
0010
1000
0000
0001
0100
0001
,  // measure 4
1000
0100
0010
0100
0000
0001
0100
0001
,  // measure 5
0000
1000
0010
1000
0000
0001
1000
0001
,  // measure 6
0020
0000
0100
0000
1030
0000
0001
2000
,  // measure 7
0000
0000
0010
0000
3001
0000
0010
0001
,  // measure 8
0200
0000
0010
0000
1300
0000
0100
0002
,  // measure 9
0000
0013
0100
1000
0100
0010
0000
0000
,  // measure 10
0100
1000
0010
1000
0000
0001
0100
0001
,  // measure 11
0000
1000
0100
0001
0000
0010
0100
1000
,  // measure 12
0010
0100
0001
0100
0000
0010
1000
0010
,  // measure 13
0000
0001
0010
1000
0000
0001
0100
0010
,  // measure 14
2000
0000
0100
0000
3001
0000
0010
0200
,  // measure 15
0000
0010
0301
1000
,  // measure 16
0002
0000
0100
0000
0000
1003
0100
0020
,  // measure 17
0000
0000
0030
0000
0000
0000
0010
0000
0001
0000
0000
0100
0000
0000
0010
0000
,  // measure 18
1000
0000
0000
0000
1010
0000
0000
0000
0100
0000
0000
0000
0101
0000
0000
0001
,  // measure 19
0010
0000
0000
0000
0011
0000
0000
0000
0100
0000
0000
0000
1100
0000
0000
1000
,  // measure 20
0001
0000
0000
0001
0100
0000
0000
0100
0010
0000
0000
0010
1000
0000
0000
0000
,  // measure 21
1000
0100
0010
0001
0100
0010
0100
0001
,  // measure 22
2000
3000
0002
0003
,  // measure 23
0200
0300
0020
0030
,  // measure 24
2000
3000
0200
0300
,  // measure 25
0020
0030
0010
0001
,  // measure 26
0100
0000
0001
1000
,  // measure 27
0200
2300
3020
0230
,  // measure 28
0302
0000
0003
2000
0000
3000
0020
0000
,  // measure 29
0130
0001
0100
0010
0000
1000
0100
0001
,  // measure 30
0000
0000
0000
0000
,  // measure 31
0220
0000
0330
1001
,  // measure 32
0110
0000
0000
0100
1000
0000
0000
1000
0010
0000
0100
0000
0010
0000
0000
0010
,  // measure 33
1000
0000
0000
1000
0001
0000
0100
0000
0000
0100
0010
0000
1000
0100
0010
0000
,  // measure 34
0100
0000
0000
0100
1000
0000
0000
1000
0001
0000
0000
0001
0100
0000
0000
0100
,  // measure 35
0001
0000
0100
0000
0000
0100
0010
0000
0000
0010
1000
0000
0001
0010
1000
0000
,  // measure 36
0010
0000
0000
0010
0001
0000
0000
0001
1000
0000
0000
1000
0010
0000
1000
0000
,  // measure 37
0100
0000
0010
0000
0000
0010
0001
0000
0000
0001
0010
0000
0001
0100
0010
0000
,  // measure 38
1000
0000
0200
0000
0310
0002
0000
0013
,  // measure 39
0100
0000
0000
0100
1000
0000
0000
1000
0010
0000
0000
0010
0100
0000
0000
0100
,  // measure 40
0001
0000
1100
0000
0010
0001
0100
0001
,  // measure 41
0010
0000
0010
0000
0001
0000
1000
0000
0000
0000
0010
0000
1000
0001
1000
0000
,  // measure 42
0010
0100
0001
0010
1000
0001
0100
0010
,  // measure 43
0001
0000
0001
0000
0100
0000
1100
0000
0000
0000
0101
0000
0010
0000
0000
0010
,  // measure 44
0100
0100
0001
0001
1000
1000
0100
0100
,  // measure 45
0010
0010
0100
1000
0000
1001
0000
0001
,  // measure 46
0100
0000
0001
0000
1000
0000
0100
0000
1000
0010
1000
0000
0001
0000
0100
0000
,  // measure 47
0001
0000
0010
0000
0100
0000
0010
0000
0001
1000
0001
0000
0100
0010
0100
0010
,  // measure 48
0100
0000
0000
0000
0001
0000
0010
0000
0000
0000
0001
0000
0100
0000
0001
0010
,  // measure 49
0100
0100
1000
0010
0100
0100
0100
0100
,  // measure 50
0110
0010
0000
1100
1000
0000
0101
0001
,  // measure 51
0000
0000
0110
0000
0100
0000
0010
0000
1000
0000
0010
0100
0001
0000
1000
0000
,  // measure 52
0001
0010
0100
1000
0001
0010
0100
1000
0001
0010
0100
1000
0001
0010
0100
1000
,  // measure 53
0001
0000
0000
0000
0000
0000
0100
0010
,  // measure 54
1000
0000
0001
0000
1000
1000
0000
0001
,  // measure 55
0100
0010
1000
0100
,  // measure 56
0100
0000
0000
0100
0000
0010
0001
0010
,  // measure 57
0100
0000
0010
0000
0001
0000
1000
0001
,  // measure 58
0100
0000
0010
0000
1000
0000
0001
1000
,  // measure 59
0100
0000
0010
0001
,  // measure 60
2000
0000
0000
0000
,  // measure 61
0002
0000
0000
0000
,  // measure 62
0000
0000
0000
0000
,  // measure 63
3003
0000
0000
0000
;

//---------------dance-single - ----------------
#NOTES:
     dance-single:
     :
     Medium:
     6:
     0.461,0.588,0.234,0.402,0.000: // measure 1
0000
0000
0000
0000
,  // measure 2
1000
0000
0100
1000
0000
0000
0000
0000
,  // measure 3
0000
0001
0100
0001
0000
0010
0001
0000
,  // measure 4
0001
0100
0001
1000
0000
0000
0000
0000
,  // measure 5
0010
1000
0010
0100
0000
0100
0001
0000
,  // measure 6
2000
0000
3200
0000
,  // measure 7
0320
0000
0030
0000
,  // measure 8
0002
0000
0203
0000
,  // measure 9
0320
0000
1000
0000
1030
1000
0000
0000
,  // measure 10
0001
0010
0100
0010
0000
0000
0000
0000
,  // measure 11
0001
0010
0100
1000
0000
0010
1000
0000
,  // measure 12
1000
0010
0100
0010
0000
0000
0000
0000
,  // measure 13
1000
0010
0100
0001
0000
1000
0100
0000
,  // measure 14
2000
0000
0000
0000
0000
0000
3010
0200
,  // measure 15
0000
0001
0310
1000
,  // measure 16
0001
0010
0100
0010
0000
0000
0000
0000
,  // measure 17
0100
1000
0100
0010
0000
0000
0001
0000
,  // measure 18
2000
3200
0320
0032
,  // measure 19
2003
3002
0203
0320
,  // measure 20
0230
0302
2003
3020
,  // measure 21
0130
0001
1000
0100
0010
0000
0010
0100
,  // measure 22
0020
0000
0030
0000
,  // measure 23
0002
0000
0003
0000
,  // measure 24
2000
0000
3000
0000
,  // measure 25
0200
0000
0000
1000
0000
0000
2300
0000
,  // measure 26
0010
0000
3020
0230
,  // measure 27
0301
0011
0100
1100
,  // measure 28
1001
0000
0000
0110
0000
0000
1001
0000
,  // measure 29
0001
0000
1000
0000
0001
0100
0010
1000
,  // measure 30
0000
0000
0000
0000
,  // measure 31
2002
3003
1000
0001
,  // measure 32
0000
0101
1100
0001
,  // measure 33
1000
0000
0100
0010
0000
0010
0000
0100
,  // measure 34
1000
0000
0001
0000
0100
0001
0100
0000
,  // measure 35
0010
1000
0010
0100
0000
0110
0000
0001
,  // measure 36
0100
0001
1010
0101
,  // measure 37
1000
0001
0000
0001
0000
0100
0000
0010
,  // measure 38
1000
0000
0200
0000
0000
0320
0000
0000
,  // measure 39
0031
1000
0001
0000
0100
0010
0100
0000
,  // measure 40
0001
0000
1000
0100
1000
0100
1000
0000
,  // measure 41
0010
0000
0100
0001
0000
1000
0000
0001
,  // measure 42
0100
0000
0001
0010
0001
0010
0100
0000
,  // measure 43
0010
0001
1000
0010
0000
0100
0000
0001
,  // measure 44
1000
0000
1001
0000
1000
0100
1000
0001
,  // measure 45
0100
0001
0000
1001
0000
0110
0000
0010
,  // measure 46
1000
0100
1000
0000
0000
0001
0000
1000
,  // measure 47
0001
0000
0100
0000
0010
0100
0001
0100
,  // measure 48
0010
0000
1000
0100
0000
1000
0010
0000
,  // measure 49
0100
0000
0001
0010
0000
0001
0100
0000
,  // measure 50
0110
0000
0000
1001
0000
0000
1100
0000
,  // measure 51
0000
0101
0000
0000
1010
0000
0011
0000
,  // measure 52
1000
0100
0010
0001
1000
0100
0010
0001
,  // measure 53
2000
0000
3000
0010
,  // measure 54
0100
0001
1000
0000
,  // measure 55
0002
0000
0003
0000
,  // measure 56
0020
0000
0030
0000
,  // measure 57
0100
0010
0001
1000
,  // measure 58
0010
0100
0001
1000
,  // measure 59
0100
0000
0010
0100
,  // measure 60
1000
0000
0000
0000
,  // measure 61
2002
0000
0000
0000
,  // measure 62
0000
0000
0000
0000
,  // measure 63
3003
0000
0000
0000
;

//---------------dance-single - ----------------
#NOTES:
     dance-single:
     :
     Beginner:
     2:
     0.116,0.234,0.056,0.045,0.000: // measure 1
0000
0000
0000
0000
,  // measure 2
0001
0000
0000
0000
,  // measure 3
0000
0000
0000
0000
,  // measure 4
1000
0000
0000
0000
,  // measure 5
0000
0000
0000
0000
,  // measure 6
0100
0000
0000
0000
,  // measure 7
0100
0000
0000
0000
,  // measure 8
0010
0000
0000
0000
,  // measure 9
0010
0000
0000
0000
,  // measure 10
1000
0000
0000
0000
,  // measure 11
0000
0000
0000
0000
,  // measure 12
0001
0000
0000
0000
,  // measure 13
0000
0000
0000
0000
,  // measure 14
0010
0000
0000
0000
,  // measure 15
0010
0000
0000
0000
,  // measure 16
0100
0000
0000
0000
,  // measure 17
0100
0000
0000
0000
,  // measure 18
0110
0000
0000
0000
,  // measure 19
0000
0000
0000
0000
,  // measure 20
0000
0000
0000
0000
,  // measure 21
0000
0000
0000
0000
,  // measure 22
0002
0000
0003
0000
,  // measure 23
0000
0000
0000
0000
,  // measure 24
2000
0000
3000
0000
,  // measure 25
0020
0000
0030
0000
,  // measure 26
0000
0000
0000
0000
,  // measure 27
0200
0000
0300
0000
,  // measure 28
0010
0000
0100
0000
,  // measure 29
0010
0000
0000
0000
,  // measure 30
0000
0000
0000
0000
,  // measure 31
1001
0000
0000
0000
,  // measure 32
0001
0001
0001
0000
,  // measure 33
0000
0000
0000
0000
,  // measure 34
1000
1000
1000
0000
,  // measure 35
0000
0000
0000
0000
,  // measure 36
0100
0100
0000
0000
,  // measure 37
0010
0010
0000
0000
,  // measure 38
0100
0000
0010
0000
,  // measure 39
0110
0000
0000
0000
,  // measure 40
0000
1000
1000
0000
,  // measure 41
0001
0001
0000
0000
,  // measure 42
0000
0010
0010
0000
,  // measure 43
0100
0100
0000
0000
,  // measure 44
0000
0010
0010
0000
,  // measure 45
0001
0000
1000
0000
,  // measure 46
0010
0000
0000
0000
,  // measure 47
0100
0000
0000
0000
,  // measure 48
0110
0000
0000
0000
,  // measure 49
1001
0000
0000
0000
,  // measure 50
0010
0000
0010
0000
,  // measure 51
0010
0000
0010
0000
,  // measure 52
0010
0010
0010
0010
,  // measure 53
0010
0000
0000
0000
,  // measure 54
0000
0000
0000
0000
,  // measure 55
0100
0000
0000
0000
,  // measure 56
0000
0000
0000
0000
,  // measure 57
1000
0000
0000
0000
,  // measure 58
0000
0000
0000
0000
,  // measure 59
0001
0000
0000
0000
,  // measure 60
1000
0000
0000
0000
,  // measure 61
0010
0000
0000
0000
;

//---------------dance-single - ----------------
#NOTES:
     dance-single:
     :
     Easy:
     4:
     0.323,0.588,0.100,0.301,0.000: // measure 1
0000
0000
0000
0000
,  // measure 2
1000
0100
0010
0000
,  // measure 3
0010
0100
1000
0000
,  // measure 4
0001
0100
0010
0000
,  // measure 5
0010
0100
0001
0000
,  // measure 6
2000
3000
0002
0003
,  // measure 7
2000
3000
0000
0000
,  // measure 8
0002
0003
2000
3000
,  // measure 9
0002
0003
0000
0000
,  // measure 10
0100
0010
0100
0000
,  // measure 11
0010
1000
0100
0000
,  // measure 12
0010
0100
0010
0000
,  // measure 13
0100
0010
0001
0000
,  // measure 14
2000
3000
0000
0000
,  // measure 15
0002
0023
0230
2300
,  // measure 16
3002
0003
1000
0001
,  // measure 17
0100
0000
0100
0010
,  // measure 18
2000
3200
0320
0230
,  // measure 19
2300
3020
0032
0023
,  // measure 20
2030
3200
0320
0230
,  // measure 21
2300
3002
1003
0001
,  // measure 22
1000
0000
0000
0000
,  // measure 23
0001
0000
0000
0000
,  // measure 24
0100
0000
0000
0000
,  // measure 25
0010
0000
1000
0100
,  // measure 26
0010
0000
0100
0000
,  // measure 27
1000
0001
1000
0001
,  // measure 28
0100
0000
0010
0100
,  // measure 29
0010
0000
0000
0000
,  // measure 30
0000
0000
0000
0000
,  // measure 31
0100
0000
0000
0000
,  // measure 32
0000
0001
0010
0100
,  // measure 33
0010
0001
1000
0001
,  // measure 34
0000
1000
0010
0100
,  // measure 35
0010
1000
0100
0010
,  // measure 36
0000
0001
1000
0010
,  // measure 37
1000
0001
0010
0100
,  // measure 38
0000
0010
0001
1000
,  // measure 39
0010
0010
0100
0100
,  // measure 40
0001
0100
0010
0100
,  // measure 41
0001
0010
0100
0010
,  // measure 42
0001
0100
1000
0100
,  // measure 43
0001
0010
1000
0010
,  // measure 44
0001
0100
0010
1000
,  // measure 45
0100
0010
0100
1000
,  // measure 46
0010
0110
0100
0110
,  // measure 47
1000
1001
0001
1001
,  // measure 48
0010
0100
0010
0100
,  // measure 49
0110
0100
0010
0100
,  // measure 50
1001
0000
0110
0000
,  // measure 51
1001
0000
0110
0000
,  // measure 52
1000
0100
0010
0001
,  // measure 53
1000
0000
0000
0000
,  // measure 54
0010
0000
0000
0000
,  // measure 55
0100
0000
0001
1000
,  // measure 56
0100
0000
0010
0001
,  // measure 57
0010
0000
0000
0001
,  // measure 58
1000
0000
0000
0010
,  // measure 59
0100
0000
0001
1000
,  // measure 60
0100
0000
0000
0000
,  // measure 61
0020
0000
0000
0000
,  // measure 62
0000
0000
0000
0000
,  // measure 63
0030
0000
0000
0000
;
