#TITLE:LOVE THIS FEELIN';
#SUBTITLE:;
#ARTIST:Chang Ma;
#TITLETRANSLIT:;
#SUBTITLETRANSLIT:;
#ARTISTTRANSLIT:;
#GENRE:;
#CREDIT:;
#BANNER:LOVE THIS FEELIN'.png;
#BACKGROUND:LOVE THIS FEELIN'-bg.png;
#LYRICSPATH:;
#CDTITLE:./CDTITLES/DANCE DANCE REVOLUTION HOME VERSION.PNG;
#MUSIC:LOVE THIS FEELIN'.mp3;
#OFFSET:-0.074;
#SAMPLESTART:35.370;
#SAMPLELENGTH:15.000;
#SELECTABLE:YES;
#DISPLAYBPM:95.000:190.000;
#BPMS:0.000=95.063,52.000=190.199;
#STOPS:;
#BGCHANGES:;
#KEYSOUNDS:;

//---------------dance-single - ----------------
#NOTES:
     dance-single:
     :
     Medium:
     7:
     0.446,0.419,0.428,0.000,0.023:
0000
0000
0000
0000
,
0000
0000
0000
0000
,
0000
0000
0000
0000
,
0000
0000
0000
0000
,
0100
0010
0000
0100
0010
0000
1000
0001
,
0000
0000
1000
0000
0001
0000
0000
0000
1000
0001
1000
0000
0001
1000
0000
0000
,
1000
0100
0000
1000
0100
0000
0100
0010
,
0000
0000
0100
0000
0010
0000
0000
0000
0001
0100
0001
0000
0100
0001
0000
0000
,
1000
0000
0100
0000
0010
1000
0100
0000
,
0010
0100
0010
1000
0010
0100
1010
0000
,
0110
0000
0000
0000
,
0001
0001
0001
0000
0100
0100
0100
0000
,
1001
0000
0000
0000
,
1001
0000
0000
0000
,
0000
0000
0000
0000
,
1000
0000
1000
0000
0001
0010
0001
0000
,
1100
1000
1001
1000
,
0100
0000
0001
0000
1000
0010
0001
0000
,
0001
0100
0010
0100
0001
0000
1000
0000
,
0010
0000
0100
0000
0001
0010
0100
0000
,
1000
0000
0001
0000
0010
0100
0010
0100
,
0010
0000
0000
0000
0100
0010
0000
0000
,
0101
0101
1010
1010
,
0100
0000
0010
0000
1000
0001
1000
0000
,
0001
0100
0010
1000
,
0001
0000
0001
0000
0010
0100
0010
0000
,
0001
0000
0010
0000
1000
0010
0100
0000
,
0001
0000
0010
0000
0100
0001
1000
0001
,
0100
0010
0001
1000
,
0010
0000
0100
0010
1000
0001
0000
0000
,
0010
0000
0001
0010
,
1000
0100
0000
0000
1000
0100
0000
0000
,
0010
0100
0000
0000
0010
0100
0000
0000
,
0101
0101
1010
1010
,
1100
1100
1010
1010
,
0001
0100
0000
0000
0001
0100
0000
0000
,
0010
0100
0000
0000
0010
0100
0000
0000
,
0011
0011
1100
1100
,
0110
0110
1001
1001
,
0100
0000
0010
0000
1000
0100
1000
0000
,
0100
1000
0010
0001
,
1000
0001
1000
0001
1000
0000
0010
0000
,
0100
1000
0100
0000
1000
0000
0010
0000
,
1001
1001
0100
0010
,
1001
0000
1001
0000
0001
0010
0001
0000
,
0000
0010
0000
0001
1000
0000
0001
0010
,
0000
0001
1000
0000
0000
0001
1000
0000
,
0100
0000
0010
0000
0100
0010
0100
0000
,
1000
0010
1000
0100
,
1000
0001
0010
0000
1000
0001
0010
0000
,
1000
0001
0010
0001
1000
0001
1000
0000
,
0010
0000
0100
0000
0001
0100
0001
0000
,
0010
0000
0010
0000
0100
0001
0100
0000
,
0000
0001
0000
0100
0010
0000
0100
0010
,
0000
1000
0010
0000
0000
0011
0000
0000
,
0110
0000
0000
1100
0000
0000
1010
0000
,
0000
0101
0000
0000
1100
0000
0000
1001
,
0000
0110
0000
0000
;

//---------------dance-single - ----------------
#NOTES:
     dance-single:
     :
     Hard:
     9:
     0.538,0.613,0.406,0.000,0.073:
0000
0000
0000
0000
,
0000
0000
0000
0000
,
0000
0000
0000
0000
,
0000
0000
0000
0000
,
1000
0100
0000
0100
0010
0000
0010
1000
,
0000
0000
1000
0000
0001
0000
0000
0000
1000
0001
1000
0001
1000
0001
0000
0000
,
0100
0010
0000
0010
1000
0000
1000
0001
,
0000
0000
0001
0000
1000
0000
0000
0000
0010
0100
0010
0100
0010
0100
0000
0000
,
0001
0000
0000
0000
0100
0000
0000
0000
1000
0000
0001
0000
1000
0000
0001
0100
,
0001
0000
1000
0000
0100
0000
0010
0000
0001
1000
0001
1000
0100
0000
0100
0000
,
1100
0000
0000
1001
0000
0000
1010
0000
0000
0000
0010
0000
0001
0000
0100
0000
,
1000
0100
1000
0000
0100
0000
1000
0000
0100
0000
0001
0000
0100
0010
0100
0000
,
0101
0000
0000
0110
0000
0000
1001
0000
0000
0000
0000
0000
0100
0000
0010
0000
,
1001
0000
0000
0101
0000
0000
0110
0000
,
0000
1100
0000
0000
0010
0000
0100
0000
,
1001
0000
0001
0010
0100
0000
1000
0000
,
1100
1100
1001
1001
,
0100
0000
0010
0001
1000
0001
1000
0000
,
0001
0010
0100
1000
0100
0010
0001
0000
,
1000
0000
0010
0001
0010
0001
0010
0000
,
0100
0000
0010
0000
1000
0100
1000
0100
,
0010
0000
0000
0010
0100
0001
0000
0000
,
1000
0100
1000
0000
0010
0100
0010
0100
,
0010
0000
0100
0000
1000
0010
0100
0000
,
0011
0011
0110
0110
,
0100
0000
1000
0010
1000
0001
1000
0000
,
0001
0100
0010
1000
0001
0100
0010
0000
,
0100
0000
1000
0001
0100
0001
1000
0000
,
0100
0000
0001
0000
0010
1000
0010
1000
,
0100
0000
0001
0010
0001
0010
0000
0000
,
0001
0000
0100
0000
0010
0000
1000
0100
,
0010
0001
0000
0000
0010
0100
0000
0000
,
0100
1000
0000
0000
0010
1000
0000
0000
,
0001
0100
0001
0100
1000
0100
1000
0100
,
0010
1000
0001
0100
0010
1000
0001
0000
,
1000
0100
0000
0000
0001
0010
0000
0000
,
0010
0100
0000
0000
1000
0001
0000
0000
,
1000
0001
1000
0001
1000
0001
1000
0001
,
0100
0010
0100
0010
0100
0010
0100
0000
,
0010
0000
0001
0000
1000
0100
1000
0100
,
1000
0010
1001
0000
,
1100
1100
0110
0110
,
1001
1100
0101
0011
,
1000
0000
0100
0000
0001
1000
0001
1000
,
0100
0000
0010
0000
0100
0001
1000
0000
,
0001
0100
0000
0010
0100
0000
0100
0010
,
0000
1000
0100
0000
0000
0100
1000
0001
,
1000
0000
0100
0000
0001
0100
0001
0100
,
0001
0010
1000
0100
,
0001
0010
0001
0100
0001
0010
0100
1000
,
0100
1000
0100
0010
0100
0010
0100
0000
,
0010
0000
1000
0000
0001
0010
0100
1000
,
0100
0000
0010
0000
1000
0001
1000
0000
,
1000
0001
0000
0010
0001
0000
0100
0010
,
0000
0010
1000
0000
0000
0110
0000
0000
,
1001
0000
0000
1010
0000
0000
0101
0000
,
0000
0110
0000
0000
0101
0000
0000
1001
,
0000
1001
0000
0000
;

//---------------dance-single - Blank----------------
#NOTES:
     dance-single:
     Blank:
     Easy:
     5:
     0.308,0.323,0.282,0.000,0.000:
0000
0000
0000
0000
,
0000
0000
0000
0000
,
0000
0000
0000
0000
,
0000
0000
0000
0000
,
0100
1000
0010
0100
,
1000
0000
0010
0000
0100
0100
0110
0000
,
1000
0010
0100
0010
,
1000
0000
1000
0000
0001
0001
0011
0000
,
1000
0010
0100
0010
,
1000
0000
0001
0000
1000
1000
1000
1000
,
1000
0000
0000
0000
,
0100
0000
0010
0000
0100
0000
0010
0010
,
1001
0000
0000
0000
,
1001
0000
0000
0000
,
0000
0000
0000
0000
,
0010
0100
0010
0000
,
1000
0010
0001
0000
,
1000
0100
0010
0001
,
0010
1000
0010
0000
,
0100
1000
0010
0000
,
0001
0010
1000
0000
,
0010
0100
0010
1000
,
0010
0001
0100
0010
,
0100
0000
1000
0000
,
1000
0001
0100
1000
,
0100
0000
0100
0000
,
0010
0001
0001
0000
,
0100
0000
1000
0000
,
0001
0100
0001
0100
,
0001
0000
1000
0000
,
0100
0000
1000
0100
,
1001
0000
0110
0000
,
0101
0000
1100
0000
,
0001
1000
0100
0010
,
0001
0100
0010
1000
,
0101
0000
1001
0000
,
1100
0000
0110
0000
,
1000
0100
1000
0010
,
0100
0010
0001
0000
,
1000
0100
0010
0100
,
0010
1000
0100
0001
,
0010
1000
0100
0010
,
1000
0100
0001
0010
,
0100
0010
0100
1000
,
0100
0000
1000
0000
0000
0100
0000
0000
,
0000
0100
0000
0000
0100
0000
0000
0100
,
0000
0000
0100
0000
0000
0010
0010
0000
,
1000
0000
0100
0000
,
0001
1000
0001
0000
,
0001
0010
0100
1000
,
0100
0010
0001
0000
,
1000
0000
0100
0000
,
0010
0000
1000
0000
0000
1010
0000
0000
,
0000
1010
0000
0000
0101
0000
0000
0101
,
0000
0000
0011
0000
0000
0011
0000
0000
,
1100
0000
0000
1100
0000
0000
0110
0000
,
0000
0110
0000
0000
1001
0000
0000
1001
,
0000
1001
0000
0000
;
