#TITLE:Love Magic;
#SUBTITLE:;
#ARTIST:D.J.SWAN;
#TITLETRANSLIT:;
#SUBTITLETRANSLIT:;
#ARTISTTRANSLIT:;
#CREDIT:;
#BANNER:Love Magic.png;
#BACKGROUND:Love Magic-bg.png;
#LYRICSPATH:;
#CDTITLE:;
#MUSIC:Love Magic.mp3;
#OFFSET:-2.870;
#SAMPLESTART:59.320;
#SAMPLELENGTH:11.290;
#SELECTABLE:YES;
#BPMS:0.000=170.000;
#STOPS:;
#BGCHANGES:;

//---------------dance-single - ----------------
#NOTES:
     dance-single:
     :
     Hard:
     7:
     0.524,0.518,0.405,0.000,0.000:
1001
0000
0000
0000
0000
0000
1000
0001
,
1000
0000
0000
0000
,
0101
0000
0000
0000
0000
0000
1000
0010
,
1000
0000
0000
0001
0000
0000
0000
0000
,
1001
0000
0000
0000
,
0011
0000
0000
0001
0000
0000
0000
0000
,
0101
0000
0000
0100
0000
0000
0010
0100
,
0001
0000
0000
1000
0000
1001
0000
0000
,
0001
0100
0001
0100
0010
0000
0000
0000
,
1000
0100
1000
0100
0010
0000
0000
0000
,
1000
0001
0010
0001
1000
0000
0001
0000
,
0110
0000
0000
1001
0000
0000
0000
0000
,
1000
0100
0010
0001
0100
0000
0101
0000
,
0001
0100
0010
1000
0100
0000
0110
0000
,
0010
0001
0100
0010
1000
0000
0001
0000
,
1001
0000
0000
0110
0000
1001
0000
0000
,
0001
1000
0001
1000
0010
0000
0100
0000
,
0001
0100
0001
0100
0010
0000
1000
0000
,
0001
1000
0100
0010
0100
0000
0010
0000
,
0110
0000
0000
1001
0000
0000
0001
0000
,
0100
0001
0100
0010
1000
0010
1000
0000
,
0001
0010
0001
1000
0100
1000
0100
0000
,
0010
0001
0100
0001
1000
0010
0100
0000
,
1001
0000
0000
1001
0000
0110
0000
0000
,
0001
1000
0001
1000
0001
0000
0010
0000
,
0001
0000
0001
0100
0000
0100
0010
0000
,
1000
0010
1000
0010
1000
0000
0001
0000
,
0010
0000
0010
0100
0000
0100
1000
0000
,
0001
0010
1000
0010
0001
0000
1000
0000
,
0001
0000
1000
0010
0000
0100
0001
0000
,
1000
0100
0001
0100
1000
0000
0001
0000
,
0010
0000
0001
0010
0000
0110
0000
0000
,
0100
0010
0001
1000
0000
1001
0000
0000
,
0001
0100
0010
1000
0000
1001
0000
0000
,
1000
0010
0100
0001
0000
0101
0000
0000
,
0001
0010
0001
1000
0000
1010
0000
0000
,
0001
1100
1000
0101
,
0001
0110
1000
0110
,
0001
0010
0001
0010
0100
0010
0100
0010
,
0100
1000
0100
1000
0001
0100
0000
0000
,
1001
0000
0001
1000
0000
1000
0100
0010
,
0001
0000
0001
0100
0000
0100
0010
1000
,
0100
0000
0010
0100
0000
0010
0001
1000
,
0001
0000
0000
1001
0000
0000
0001
0000
,
1000
0000
0010
0100
0000
0100
0001
0010
,
0100
0000
0010
0001
0000
0010
0001
1000
,
0001
0000
0100
0010
0000
1000
0001
0100
,
0010
0000
0000
1001
0000
0110
0000
0000
,
1001
0000
0001
0100
0001
0000
0100
0000
,
0010
1000
0010
1000
0100
0000
0010
0000
,
0001
0000
1000
0010
0000
0100
0010
0100
,
0001
0000
0000
1001
0000
0000
0001
0000
,
1000
0100
0010
0001
0010
0000
1100
0000
,
0001
0100
0010
1000
0010
0000
0101
0000
,
0001
0100
0001
0100
0010
1000
0010
1000
,
0100
0000
0000
0110
0000
1001
0000
0000
,
1000
0001
1000
0001
0100
0000
0010
0000
,
0100
0010
0100
0010
1000
0000
0001
0000
,
1000
0100
0010
0001
0100
0010
1000
0100
,
0010
0000
0000
0001
0000
1001
0000
0000
,
1000
0010
1000
0010
0100
0010
0100
0000
,
0010
0100
0010
0100
0001
0100
0001
0000
,
1000
0100
0010
0001
0100
0010
1000
0001
,
1000
0000
0001
0010
0000
0110
0000
0000
,
1001
0000
0000
0000
;

//---------------dance-single - ----------------
#NOTES:
     dance-single:
     :
     Medium:
     7:
     0.464,0.518,0.364,0.000,0.000:
1001
0000
0000
0000
0000
0000
0001
1000
,
0001
0000
0000
0000
,
1000
0000
0000
0000
0000
0000
0100
1000
,
0100
0000
0000
1000
0000
0000
0000
0000
,
0001
0000
0000
0000
,
1000
0000
0000
1000
0000
0000
0000
0000
,
0001
0000
0000
0001
0000
0000
1000
0001
,
0100
0000
0000
0010
0000
0110
0000
0000
,
0001
1000
0001
1000
0001
0000
0000
0000
,
1000
0001
1000
0001
1000
0000
0000
0000
,
0001
0010
0001
0010
0001
0000
0000
0000
,
1000
0000
0000
1100
0000
0000
0000
0000
,
0100
1000
0100
1000
0100
0000
0000
0000
,
0010
0001
0010
0001
0010
0000
0000
0000
,
0001
1000
0001
0100
0001
0000
1000
0000
,
1100
0000
0000
1001
0000
1001
0000
0000
,
1000
0100
0010
0000
0100
0000
0010
0000
,
0001
0010
0100
0000
0010
0000
0001
0000
,
1000
0010
1000
0000
0001
0100
0001
0000
,
0110
0000
0000
1001
0000
0000
1000
0000
,
0001
0010
0100
0000
0010
0000
0001
0000
,
1000
0010
0100
0000
0010
0000
1000
0000
,
0001
1000
0001
1000
0001
0000
0100
0000
,
0110
0000
0000
1001
0000
1001
0000
0000
,
1000
0100
1000
0100
0010
0000
0000
0000
,
0100
0000
0010
0100
0000
0100
0010
0000
,
0001
0010
0001
0010
0100
0000
0000
0000
,
0001
0000
1000
0001
0000
1000
0001
0000
,
1000
0000
0001
0100
0001
0000
1000
0000
,
0001
0000
0010
0001
0000
0001
0100
0000
,
0010
0000
1000
0010
0100
0000
0001
0000
,
1000
0000
0001
1000
0000
1001
0000
0000
,
0110
0000
0000
0110
0000
0010
0001
0000
,
1001
0000
0000
1001
0000
1000
0010
0000
,
0101
0000
0000
0101
0000
0001
1000
0000
,
1100
0000
0000
1100
0000
1000
0001
0000
,
0010
0001
0100
0000
0010
1000
0100
0000
,
1000
0100
1000
0000
0001
0010
0001
0000
,
1000
0001
1000
0001
1000
0001
1000
0001
,
1000
0001
1000
0001
1000
0001
0000
0000
,
0110
0000
0000
1000
0000
1000
0100
0000
,
0010
0000
0000
0001
0000
0001
0100
0000
,
0010
1000
0001
1000
0100
0000
0010
0000
,
0001
0000
0000
1001
0000
0000
0000
0000
,
1000
0000
0001
0100
0000
0100
0001
0000
,
1000
0000
0001
0010
0000
0010
0001
0000
,
1000
0001
1000
0001
1000
0000
0001
0000
,
0110
0000
0000
1001
0000
1001
0000
0000
,
0110
0000
0100
0001
0100
0000
0001
0000
,
1000
0000
0100
1000
0100
0000
1000
0000
,
0001
0010
0001
0010
0001
0000
1000
0000
,
1001
0000
0000
1001
0000
0000
0000
0000
,
1000
0010
0100
0001
0010
0000
0000
0000
,
0001
0010
0100
1000
0100
0000
0000
0000
,
1000
0001
1000
0001
0100
0000
0010
0000
,
0110
0000
0000
1001
0000
1001
0000
0000
,
1000
0001
1000
0000
0001
0000
0100
0000
,
0001
0100
0001
0000
1000
0000
0001
0000
,
0010
0001
0010
0001
0010
0000
0001
0000
,
1001
0000
0000
0110
0000
0000
0000
0000
,
0100
0010
1000
0000
0001
0000
1000
0000
,
0100
0010
0001
0000
1000
0000
0001
0000
,
1000
0100
0010
0001
0100
0000
0010
0000
,
0110
0000
0100
0010
0000
1001
0000
0000
,
0110
0000
0000
0000
;

//---------------dance-single - ----------------
#NOTES:
     dance-single:
     :
     Easy:
     4:
     0.324,0.356,0.131,0.000,0.000:
1001
0000
0000
1000
,
0100
0000
0000
0000
,
0010
0000
0000
0010
,
0001
0000
0000
0001
0000
0000
0000
0000
,
1000
0000
0000
0001
,
0100
0000
0000
0000
,
0100
0000
0000
0100
,
0010
0000
0000
0010
0000
0010
0000
0000
,
0110
0010
1000
0000
,
0001
1000
0100
0000
,
0010
0001
0100
0010
,
1000
0000
0000
1000
0000
0000
0000
0000
,
0001
0010
0001
0000
,
1000
0100
1000
0000
,
0001
1000
0010
0100
,
0110
0000
0000
0110
0000
0110
0000
0000
,
0010
1000
0100
0010
,
0001
1000
0001
1000
,
0001
0100
1000
0100
,
0010
0000
0000
0110
0000
0000
0000
0000
,
0100
0001
0100
0010
,
1000
0100
0010
0100
,
0010
0001
1000
0001
,
1001
0000
0000
1001
0000
1001
0000
0000
,
1000
0100
1000
0000
,
0001
0100
0001
0010
,
0100
0010
0001
0000
,
1000
0001
1000
0100
,
0010
0100
0010
0000
,
0100
0010
0001
0100
,
1000
0100
0001
0000
,
1000
0001
1000
0000
,
1001
0001
0100
0000
,
0010
0100
0001
0010
,
0100
0000
0010
0000
,
0001
0010
0001
1000
,
0001
0001
0100
0100
,
0010
0010
1000
1000
,
0001
0010
0100
1000
,
0010
0000
1000
0000
0001
0001
0000
0000
,
1000
0100
0001
0000
,
1000
0010
0001
0000
,
1000
0010
0100
0001
,
0010
0100
0010
0000
,
0001
0100
1000
0000
,
0001
0010
1000
0000
,
0001
1000
0100
1000
,
0001
0100
0010
0000
,
0010
0100
0010
0000
,
0100
0010
0100
0000
,
0010
1000
0001
1000
,
0001
0000
0000
1001
0000
0000
0000
0000
,
0001
0010
0100
0100
,
1000
0010
0100
0100
,
0010
1000
0001
0010
,
0100
0000
0000
0010
0000
0110
0000
0000
,
0100
0010
0001
0010
,
0100
1000
0100
0010
,
0100
1000
0001
0100
,
0010
1000
0001
1000
,
0001
0010
0001
0010
,
0100
1000
0100
1000
,
0010
1000
0010
1000
,
0010
0000
0100
0000
0001
0001
0000
0000
,
1001
0000
0000
0000
;

//---------------dance-single - ----------------
#NOTES:
     dance-single:
     :
     Beginner:
     1:
     0.153,0.194,0.091,0.000,0.000: // measure 1
1001
0000
0000
0000
,  // measure 2
1000
0000
0000
0000
,  // measure 3
0100
0000
0000
0000
,  // measure 4
0010
0000
0000
0000
,  // measure 5
0100
0000
0000
0000
,  // measure 6
0010
0000
0000
0000
,  // measure 7
0100
0000
0000
0000
,  // measure 8
1000
0000
0000
0000
,  // measure 9
1001
0000
0000
0000
,  // measure 10
0001
0000
0000
0000
,  // measure 11
1000
0000
0001
0000
,  // measure 12
0100
0000
0000
0000
,  // measure 13
0110
0000
0000
0000
,  // measure 14
0010
0000
0000
0000
,  // measure 15
0100
0000
0010
0000
,  // measure 16
1000
0000
0000
0000
,  // measure 17
1001
0000
1000
0000
,  // measure 18
0001
0000
0001
0000
,  // measure 19
1000
0000
0100
0000
,  // measure 20
0010
0000
0000
0000
,  // measure 21
0100
0000
0100
0000
,  // measure 22
0010
0000
0010
0000
,  // measure 23
0001
0000
1000
0000
,  // measure 24
1001
0000
0000
0000
,  // measure 25
0110
0000
0000
0000
,  // measure 26
0100
0000
0010
0000
,  // measure 27
1000
0000
0000
0000
,  // measure 28
0001
0000
1000
0000
,  // measure 29
0100
0000
0000
0000
,  // measure 30
0010
0000
0001
0000
,  // measure 31
0010
0000
0000
0000
,  // measure 32
0100
0000
1000
0000
,  // measure 33
0001
0000
0001
0000
,  // measure 34
1000
0000
1000
0000
,  // measure 35
0010
0000
0100
0000
,  // measure 36
0010
0000
0000
0000
,  // measure 37
0100
0000
0100
0000
,  // measure 38
0010
0000
0010
0000
,  // measure 39
1000
0000
0001
0000
,  // measure 40
0010
0000
0000
0000
,  // measure 41
1001
0000
0000
0000
,  // measure 42
0001
0000
0000
0000
,  // measure 43
1000
0000
0100
0000
,  // measure 44
0010
0000
0000
0000
,  // measure 45
0100
0000
0000
0000
,  // measure 46
1000
0000
0000
0000
,  // measure 47
0001
0000
1000
0000
,  // measure 48
0001
0000
0000
0000
,  // measure 49
1001
0000
0000
0000
,  // measure 50
1000
0000
0000
0000
,  // measure 51
0010
0000
0100
0000
,  // measure 52
0010
0000
0100
0000
,  // measure 53
0001
0000
0000
0000
,  // measure 54
1000
0000
0000
0000
,  // measure 55
0001
0000
0010
0000
,  // measure 56
0100
0000
1000
0000
,  // measure 57
0001
0000
0001
0000
,  // measure 58
0100
0000
0100
0000
,  // measure 59
0010
0000
0010
0000
,  // measure 60
1000
0000
1000
0000
,  // measure 61
0001
0000
0010
0000
,  // measure 62
0100
0000
1000
0000
,  // measure 63
0001
0000
0100
0000
,  // measure 64
0010
0000
1000
0000
,  // measure 65
1001
0000
0000
0000
;
