#TITLE:Intensive Care Unit;
#SUBTITLE:;
#ARTIST:renard feat. FIAB;
#TITLETRANSLIT:;
#SUBTITLETRANSLIT:;
#ARTISTTRANSLIT:;
#GENRE:;
#CREDIT:;
#BANNER:Intensive Care Unit-bn.png;
#BACKGROUND:Intensive Care Unit-bg.png;
#LYRICSPATH:;
#CDTITLE:PROJECT AZURE-cdtitle.png;
#MUSIC:Intensive Care Unit.mp3;
#OFFSET:-2.460;
#SAMPLESTART:21.600;
#SAMPLELENGTH:12.000;
#SELECTABLE:YES;
#BPMS:0.000=200.060
;
#STOPS:
;
#BGCHANGES:;
#KEYSOUNDS:;
#ATTACKS:;

//---------------dance-single - Blank----------------
#NOTES:
     dance-single:
     :
     Beginner:
     2:
     0.166,0.236,0.074,0.098,0.000,121.000,9.000,12.000,0.000,0.000,0.000,0.166,0.236,0.074,0.098,0.000,121.000,9.000,12.000,0.000,0.000,0.000:
0000
0000
0000
0000
,
0000
0000
0000
0000
,
0000
0000
0000
0000
,
0000
0000
0000
0000
,
0010
0000
0000
0000
,
0010
0000
0000
0000
,
0010
0000
0000
0000
,
0010
0000
0000
0000
,
1000
0000
0001
0000
,
1000
0000
0000
0000
,
0001
0000
1000
0000
,
0001
0000
0000
0000
,
0010
0000
0100
0000
,
0010
0000
0000
0000
,
0100
0000
0010
0000
,
0100
0100
0100
0100
,
0100
0000
0000
0000
,
0001
0000
0000
0010
,
0010
0000
0000
0000
,
0001
0000
0000
1000
,
1000
0000
0000
0000
,
1000
0000
0000
0100
,
0100
0000
0000
0000
,
0010
0000
0000
0001
,
0002
0000
0003
0000
,
0100
0000
0000
0010
,
0020
0000
0030
0000
,
1000
0000
0000
0100
,
0200
0000
0300
0000
,
0010
0000
0000
0100
,
0200
0000
0300
0000
,
1000
0000
0000
0000
,
1001
0000
0000
0000
,
0110
0000
0000
0000
,
1001
0000
0000
0000
,
0110
0000
0000
0000
,
0001
0000
0000
0000
,
0100
0000
0000
0000
,
1000
0000
0000
0000
,
0010
0000
0010
0000
,
1001
0000
0000
0000
,
0110
0000
0000
0000
,
1001
0000
0000
0000
,
0110
0000
0000
0000
,
1000
0000
0000
0000
,
0100
0000
0000
0000
,
0001
0000
0000
0000
,
0010
0000
0010
0000
,
0002
0000
0000
0000
,
0000
0000
0003
0000
,
0200
0000
0000
0000
,
0000
0000
0300
0000
,
0020
0000
0000
0000
,
0000
0000
0030
0000
,
2000
0000
0000
0000
,
0000
0000
3000
0000
,
1001
0000
0000
0000
,
0010
0000
0000
0100
,
0100
0000
0000
0000
,
0001
0000
0000
1000
,
1000
0000
0000
0000
,
0100
0000
0000
0010
,
0010
0000
0000
0000
,
0001
0001
0001
0001
,
0001
0000
0000
0000
,
1000
0000
0000
0100
,
0100
0000
0000
0000
,
1000
0000
0000
0010
,
0010
0000
0000
0000
,
1000
0000
0000
0100
,
0100
0000
0000
0000
,
0010
0000
0000
0001
,
0001
0000
0000
0000
,
0001
0000
0000
0010
,
0010
0000
0000
0000
,
1000
0000
0000
0100
,
0100
0000
0000
0000
,
1000
0000
0000
0001
,
0001
0000
0000
0000
,
0100
0000
0000
0000
,
0020
0000
0000
0000
,
0000
0000
0030
0000
,
0020
0000
0000
0000
,
0000
0000
0030
0000
,
2000
0000
0000
0000
,
0000
0000
3000
0000
,
0002
0000
0000
0000
,
0000
0000
0003
0000
,
0100
0000
0100
0000
,
0100
0000
0000
0000
,
0010
0000
0010
0000
,
0010
0000
0000
0000
,
1000
0000
0001
0000
,
1000
0000
0000
0000
,
0001
0000
1000
0000
,
0001
0001
0001
0001
,
0001
0000
0000
0000
;

//---------------dance-single - Blank----------------
#NOTES:
     dance-single:
     :
     Easy:
     4:
     0.332,0.354,0.107,0.147,0.000,253.000,13.000,18.000,0.000,0.000,0.000,0.332,0.354,0.107,0.147,0.000,253.000,13.000,18.000,0.000,0.000,0.000:
0000
0000
0000
0000
,
0000
0000
0000
0000
,
0000
0000
0000
0000
,
0000
0000
0000
0000
,
1000
0000
1000
0000
,
0001
0000
0001
0000
,
1000
0000
0001
0000
,
0100
0000
0010
0000
,
0001
0001
0100
0001
,
0000
0000
1000
0000
,
0100
0100
1000
0100
,
0000
0000
1000
0000
,
0010
0010
0100
0010
,
0000
0000
0100
0000
,
0001
0001
0010
0100
,
2000
0000
0002
3003
,
1001
0000
0010
0000
,
0100
0010
1000
0001
,
0001
0000
0100
0000
,
0010
1000
0100
0010
,
0001
0000
1000
0000
,
0001
0100
1000
0100
,
0001
0000
1000
0000
,
0100
1000
0100
0010
,
0100
0000
1000
0000
,
0001
0010
0001
1000
,
0001
0000
0010
0000
,
0100
1000
1000
0100
,
0010
0000
0001
0000
,
0100
0010
0100
0001
,
1000
0000
0010
0000
,
1000
0100
0010
0001
,
1001
0000
0010
0000
,
0200
0010
0010
0310
,
1001
0000
0001
0000
,
0002
0100
0100
1003
,
1001
0000
1000
0000
,
2000
0010
0001
3010
,
1001
0000
0010
0000
,
0200
0010
0010
0310
,
0001
0000
0100
0000
,
1000
0000
0100
0001
,
0001
0000
0010
0000
,
1000
0000
0010
0001
,
1000
0000
0100
0000
,
0001
0000
0100
1000
,
1000
0000
0100
0000
,
0010
0010
0010
0010
,
1002
0000
0100
0000
,
0100
0000
0103
1000
,
2001
0000
0010
0000
,
0010
0000
3010
0100
,
0120
0000
1000
0000
,
1000
0000
1030
0001
,
0210
0000
0001
0000
,
0001
0000
0301
0000
,
0001
0100
0001
0100
,
0010
0100
0010
1000
,
0100
0010
0001
1000
,
0100
1000
0001
0000
,
1000
0100
0010
0001
,
1000
0100
1000
0001
,
0010
0001
0100
0010
,
0100
0100
0100
1001
,
0100
0000
0010
0000
,
0010
1000
1000
0001
,
0010
0000
0001
0000
,
1000
0100
1000
0001
,
0100
0000
0100
0000
,
0001
0010
0100
1000
,
0001
0000
0010
0000
,
0001
0100
1000
0100
,
0001
0000
1000
0000
,
0010
1000
0100
1000
,
0001
0000
0100
0000
,
0010
1000
0001
0010
,
0100
0000
0010
0000
,
0100
0010
0001
1000
,
0010
0000
0010
0000
,
1000
0100
0010
0001
,
2000
0000
0000
0000
,
3002
0000
0000
0000
,
0203
0000
0000
0000
,
0320
0000
0000
0000
,
2030
0000
0000
0000
,
3200
0000
0000
0000
,
0320
0000
0000
0000
,
0032
0000
1003
0000
,
1001
0001
1000
0001
,
0000
0000
0100
0000
,
0010
0010
1000
0010
,
0000
0000
0100
0000
,
0001
1000
1000
0100
,
0000
0000
1000
0000
,
0001
0001
0010
0100
,
1000
1000
1000
1001
,
0110
0000
0000
0000
;

//---------------dance-single - Blank----------------
#NOTES:
     dance-single:
     :
     Medium:
     6:
     0.478,0.472,0.164,0.426,0.000,336.000,20.000,52.000,0.000,0.000,0.000,0.478,0.472,0.164,0.426,0.000,336.000,20.000,52.000,0.000,0.000,0.000:
1000
0000
0000
0000
,
0000
0000
0000
0000
,
0000
0000
0000
0000
,
0000
0000
0000
0000
,
0001
0001
0010
0010
,
0100
0100
1000
1000
,
0010
0010
0100
0100
,
0001
0001
1000
1000
,
0001
0000
0010
0000
0100
0000
1000
0001
,
0000
0000
0100
0000
,
0010
0000
1000
0000
0010
0000
0100
0001
,
0000
0000
1000
0000
,
0001
0000
0010
0000
0100
0000
0010
0100
,
0000
0000
1000
0000
,
0010
0000
1000
0000
0001
0000
0001
0100
,
0010
0010
0010
1001
,
0100
0000
0010
0000
1000
0010
0000
0100
,
0000
0001
0100
0000
0001
0000
0000
0000
,
1000
0000
1000
0000
0001
0100
0000
0001
,
0000
1000
0100
0000
0010
0000
0000
0000
,
0010
0000
0010
0000
0001
0100
0000
0001
,
0000
1000
0100
0000
1000
0000
0000
0000
,
0001
0000
0001
0000
1000
0100
0000
1000
,
0000
1000
0010
0000
0100
0000
0000
0000
,
0010
0000
1000
0000
0100
0010
0000
0100
,
0000
1000
0001
0000
0001
0000
0000
0000
,
0100
0000
0010
0000
0001
1000
0000
0010
,
0000
0100
0010
0000
0001
0000
0000
0000
,
0010
0000
1000
0000
0001
0100
0000
0001
,
0000
1000
0010
0000
1000
0000
0000
0000
,
1000
0000
0001
0000
0100
0010
0000
0010
,
0000
0100
0010
0000
1000
0000
0001
0000
,
0010
0001
0001
0100
,
0100
1000
0100
0001
,
1000
0010
0010
1000
,
0200
0320
0032
2003
,
3001
0100
0100
0010
,
0010
1000
1000
0001
,
1000
0100
0100
0010
,
0002
0023
0230
2300
,
3001
0000
0000
0101
0000
0000
1000
0000
,
0000
1100
0000
0000
0002
0000
2003
0000
,
3010
0000
0000
1001
0000
0000
0100
0000
,
0000
1001
0000
0000
0020
0000
0230
0000
,
1300
0000
0000
0011
0000
0000
1000
0000
,
0000
1010
0000
0000
0002
0000
0203
0000
,
0310
0000
0000
1001
0000
0000
0100
0000
,
0000
1001
0000
0000
0010
0000
0100
0000
,
0002
0000
0000
0023
0000
0000
0230
0000
,
0000
2300
0000
0000
3002
0000
0203
0000
,
0320
0000
0000
0230
0000
0000
0302
0000
,
0000
2003
0000
0000
3200
0000
2300
0000
,
3020
0000
0000
0230
0000
0000
2300
0000
,
0000
3200
0000
0000
0302
0000
0023
0000
,
0230
0000
0000
0302
0000
0000
0203
0000
,
0000
2300
0000
0000
3001
1000
0001
0000
,
1000
0000
1000
0100
0000
0100
0010
0000
,
0010
0001
0000
0001
0100
0000
0000
0000
,
0001
0000
0001
0100
0000
0100
0010
0000
,
0010
1000
0000
1000
0100
0000
0000
0000
,
1000
0000
1000
0001
0000
0001
0100
0000
,
0100
0001
0000
0001
0010
0000
0000
0000
,
0100
0000
0100
0010
0000
0010
0001
0000
,
0010
0010
0010
1001
,
0100
0000
0010
0000
1000
0001
0000
0100
,
0000
0001
1000
0000
0001
0000
0000
0000
,
0010
0000
0100
0000
0010
0001
0000
1000
,
0000
0010
1000
0000
0100
0000
0000
0000
,
0010
0000
0001
0000
0010
0001
0000
1000
,
0000
0100
1000
0000
0010
0000
0000
0000
,
0100
0000
1000
0000
0100
0001
0000
0100
,
0000
0010
1000
0000
1000
0000
0000
0000
,
0001
0000
0001
0000
1000
0001
0000
0100
,
0000
0100
1000
0000
0100
0000
0000
0000
,
0010
0000
0100
0000
0010
1000
0000
0001
,
0000
0001
0010
0000
0100
0000
0000
0000
,
0010
0000
0100
0000
1000
0001
0000
0010
,
0000
0010
0001
0000
0100
0000
0000
0000
,
1000
0000
0100
0000
0001
1000
0000
1000
,
0000
0100
0010
0000
0001
0000
1000
0000
,
0202
0000
0000
0303
,
2002
0000
0000
3003
,
2020
0000
0000
3030
,
0022
0000
0000
0033
,
2200
0000
0000
3300
,
2002
0000
0000
3003
,
0202
0000
0000
0303
,
0220
0000
0030
0000
0310
1000
0001
0000
,
1000
0000
0100
0000
1000
0000
0001
0100
,
0000
0010
0010
0010
,
0100
0000
0001
0000
0010
0000
0100
1000
,
0000
0001
1000
1000
,
0001
0000
0100
0000
0010
0000
0100
0001
,
0000
0001
0001
0001
,
1000
0000
0001
0000
1000
0000
0100
1000
,
0010
0010
0010
0110
,
1001
0000
0000
0000
;

//---------------dance-single - Blank----------------
#NOTES:
     dance-single:
     :
     Challenge:
     10:
     0.801,0.708,0.401,0.164,0.098,615.000,49.000,20.000,0.000,0.000,0.000,0.801,0.708,0.401,0.164,0.098,615.000,49.000,20.000,0.000,0.000,0.000:
0000
0000
0000
0000
,
0000
0000
0000
0000
,
0000
0000
0000
0000
,
0000
0000
0000
0000
,
1000
0100
0010
0001
0100
0001
0010
0100
,
1000
0100
0010
0001
0100
0001
0010
0100
,
1000
0100
0010
0001
0010
0001
0010
0100
,
1000
0100
0010
0001
0010
0100
1000
0100
,
1000
0000
0101
0000
0001
0100
0010
1000
,
0002
0000
0103
0000
1000
0100
0001
0000
,
0101
0000
1010
0000
1000
0100
0001
0100
,
1000
0000
0000
0000
0001
0000
0000
0000
0100
0000
0001
0000
1000
0100
0010
0000
,
0100
0000
1100
0000
0001
0100
1000
0100
,
0002
0000
1003
0000
0100
0010
0001
0000
,
1100
0000
0011
0000
1000
0100
0001
0100
,
1000
1001
1001
1001
,
0001
0100
0010
0100
0001
0100
1000
0100
,
0010
0000
1000
0000
0100
0000
0010
0000
0001
0000
1000
0000
0100
0010
0001
0000
,
1000
0001
0010
0100
0010
0100
1000
0010
,
1000
0000
0001
0000
0010
0000
0100
0000
0010
0000
0001
0000
1000
0100
1000
0000
,
0001
0100
0010
1000
0001
0010
0100
1000
,
0100
0000
1000
0000
0001
0000
0100
0000
1000
0000
0100
0000
0010
0100
0010
0000
,
1000
0001
0010
0001
0100
0010
0100
1000
,
0200
0302
2003
3200
,
0310
0001
0100
0001
0010
0100
1000
0010
,
0100
0000
0010
0000
0100
0000
0001
0000
0010
0000
0001
0000
1000
0001
1000
0000
,
0010
0100
0001
0010
0100
0010
0001
1000
,
0100
0000
0010
0000
0001
0000
1000
0000
0010
0000
0100
0000
0001
0010
0001
0000
,
1000
0100
1000
0010
0100
0001
0010
0100
,
0010
0000
0100
0000
1000
0000
0001
0000
1000
0000
0100
0000
1000
0100
0010
0000
,
0001
0100
1000
0100
0001
0010
1000
0010
,
0002
0203
0320
2030
,
3001
0010
0001
1000
0100
1000
0010
0100
,
0010
1000
0100
0001
1000
0010
0001
1000
,
0001
0100
0001
1000
0010
1000
0001
0010
,
0001
0000
1000
0000
0100
0000
0010
0000
0001
0000
0100
0000
0010
1000
0010
0000
,
0100
0010
0100
0001
0010
0001
1000
0100
,
1000
0001
0100
1000
0100
0001
1000
0010
,
0100
0001
0100
0010
1000
0010
1000
0001
,
1000
1100
1010
1001
,
0001
0010
0100
0010
0100
1000
0001
0100
,
1000
0100
0010
1000
0001
0000
0110
0000
,
1000
0100
1000
0001
0010
0001
0100
0010
,
0100
0001
0010
0100
1000
0000
0110
0000
,
0001
0100
1000
0100
0001
0100
0010
0100
,
0001
1000
0010
0100
0001
0000
0110
0000
,
1000
0010
1000
0001
0100
0001
1000
0100
,
1000
0011
0101
1001
,
1010
0000
1000
0001
1000
0000
1010
0000
,
0100
1000
0100
0000
0110
0000
0101
0000
,
1010
0000
0010
0001
0010
0000
0011
0000
,
0100
1000
0100
0000
0110
0000
1001
0000
,
1010
0000
0010
0001
0010
0000
1010
0000
,
0001
0100
0001
0000
1010
0000
0101
0000
,
0110
0000
0010
0100
0010
0000
0011
0000
,
1000
0000
0001
0000
1000
0000
0000
0000
1000
0000
0001
1000
0001
0000
0100
0000
,
0001
0000
0100
0000
0010
0000
1000
0000
0100
0000
1000
0000
0001
0000
0100
0001
,
0100
0000
0010
0000
1000
0000
0001
0000
0010
0100
1000
0000
0010
0000
0100
0000
,
0010
1000
0001
0010
0001
0100
0001
1000
,
0010
0000
0100
0000
0010
0000
1000
0100
0010
0000
0001
0000
0010
0000
0001
0000
,
0100
0000
1000
0000
0100
0000
0001
0000
0010
0000
0001
1000
0001
0000
1000
0000
,
0100
0000
0010
0000
0100
0000
0010
0001
1000
0000
0001
0000
0100
0000
0010
0000
,
1000
0000
0100
1000
0100
0000
0010
0000
0001
0000
0100
0000
0010
0000
1000
0000
,
0001
1001
1001
1001
,
0001
0100
0010
1000
0100
0010
0001
0100
,
0001
0000
1000
0000
0100
0000
0001
0000
0100
0000
1000
0000
0001
0010
0100
0000
,
0010
0100
1000
0001
0100
0001
1000
0100
,
1000
0000
0010
0000
0100
0000
1000
0000
0100
0000
0001
0000
0100
0010
0100
0000
,
0001
1000
0100
1000
0001
0010
0100
0010
,
0001
0000
1000
0000
0010
0000
1000
0000
0001
0000
0010
0000
0001
1000
0001
0000
,
0100
0010
1000
0100
0010
0001
1000
0100
,
1000
0011
1100
1001
,
0001
1000
0100
0010
0100
1000
0001
0100
,
0010
0000
1000
0000
0001
0000
0010
0000
0100
0000
1000
0000
0100
0010
0001
0000
,
0100
0010
0100
0001
1000
0100
1000
0010
,
1000
0000
0001
0000
0010
0000
0100
0000
1000
0000
0010
0000
0100
0001
0100
0000
,
0001
0010
0100
1000
0001
0100
0001
0100
,
0010
0000
1000
0000
0100
0000
0010
0000
0001
0000
0100
0000
0010
1000
0010
0000
,
0100
0010
1000
0010
0100
0001
0010
0001
,
1000
0101
1010
1001
,
0200
0000
0000
0000
,
0302
0000
0000
0000
,
2003
0000
0000
0000
,
3200
0000
0000
0000
,
0320
0000
0000
0000
,
0032
0000
0000
0000
,
0203
0000
0000
0000
,
2300
0000
0000
0000
0000
0000
0000
0000
3100
0000
0010
0100
0010
0000
1000
0000
,
0001
0000
0101
0000
1000
0010
1000
0001
,
0020
0000
0130
0000
1000
0100
0001
0000
,
1100
0000
0011
0000
0001
0100
0001
1000
,
0010
0000
0000
0000
1000
0000
0001
0000
1000
0000
0000
0000
0001
0100
0001
0000
,
1000
0000
1100
0000
1000
0010
0100
0001
,
2000
0000
3001
0000
0001
0100
1000
0000
,
0110
0000
1001
0000
1000
0100
0010
0001
,
1000
0000
0000
0000
1001
0000
0000
0000
0001
0000
1000
0100
0010
0000
0001
0000
,
1001
0000
0000
0000
;

//---------------dance-single - Blank----------------
#NOTES:
     dance-single:
     :
     Hard:
     8:
     0.657,0.629,0.295,0.385,0.012,478.000,36.000,47.000,0.000,0.000,0.000,0.657,0.629,0.295,0.385,0.012,478.000,36.000,47.000,0.000,0.000,0.000: // measure 0
0000
0000
0000
0000
,  // measure 1
0000
0000
0000
0000
,  // measure 2
0000
0000
0000
0000
,  // measure 3
0000
0000
0000
0000
,  // measure 4
0001
0000
0100
0000
0100
0000
0001
1000
,  // measure 5
0001
0000
1000
0000
0100
0000
1000
0001
,  // measure 6
1000
0000
0010
0000
0100
0000
0010
1000
,  // measure 7
0010
0000
0100
0001
0000
0001
1000
0000
,  // measure 8
0001
0000
0100
0000
0001
0010
0100
2000
,  // measure 9
0000
0001
0001
3010
,  // measure 10
0001
0000
1000
0000
0100
1000
0010
0200
,  // measure 11
0000
0001
1000
0301
,  // measure 12
0010
0000
0001
0000
0001
0010
0100
2000
,  // measure 13
0000
0001
0001
3100
,  // measure 14
0001
0000
1000
0000
1000
0100
0010
0002
,  // measure 15
0100
0100
0103
1001
,  // measure 16
0010
0000
0100
0000
0001
0100
0000
0100
,  // measure 17
0000
0001
0010
0000
0010
0001
1000
0000
,  // measure 18
0100
0000
1000
0000
0010
1000
0000
0001
,  // measure 19
0000
0001
0100
0000
0001
0000
1000
0001
,  // measure 20
1000
0000
0001
0000
1000
0100
0000
0010
,  // measure 21
0000
0001
0100
0000
0001
1000
0001
1000
,  // measure 22
0100
0000
1000
0000
0010
0100
0000
0001
,  // measure 23
0000
0001
0010
0000
0001
0010
0100
1000
,  // measure 24
0001
0000
0100
0000
0001
1000
0000
0010
,  // measure 25
0000
1000
0100
0000
0010
0001
1000
0000
,  // measure 26
0001
0000
0100
0000
0010
0100
0000
0001
,  // measure 27
0000
0001
0010
0000
0001
0000
1000
0100
,  // measure 28
1000
0000
0010
0000
0100
0010
0000
1000
,  // measure 29
0000
0100
0010
0000
0001
1000
0001
0010
,  // measure 30
1000
0000
0010
0000
0001
0010
0000
0001
,  // measure 31
0000
0100
0001
0000
0001
0010
0001
0010
,  // measure 32
0100
1000
0010
1000
0001
0100
1000
0100
,  // measure 33
0020
0230
0302
0013
,  // measure 34
0100
1000
0100
1000
0001
0010
0001
0100
,  // measure 35
0002
0203
2300
3100
,  // measure 36
0001
0010
0001
0010
0100
1000
0100
0010
,  // measure 37
0200
2300
3200
0310
,  // measure 38
0100
1000
0100
0010
0001
0010
0001
1000
,  // measure 39
0200
2300
3002
0103
,  // measure 40
0001
0100
0010
2000
0000
3100
0010
0001
,  // measure 41
1000
0001
0100
0000
0001
0000
1001
0000
,  // measure 42
1000
0100
0010
0002
0000
0103
0001
0010
,  // measure 43
0100
0010
0001
0000
1000
0000
1010
0000
,  // measure 44
0001
0100
0001
0020
0000
0130
1000
0001
,  // measure 45
0100
0010
1000
0000
0001
0000
0101
0000
,  // measure 46
0001
1000
0100
0002
0000
0103
1000
0001
,  // measure 47
0100
0001
1000
0000
0001
0000
0110
0000
,  // measure 48
1000
0000
0000
1100
0000
0000
0110
0000
,  // measure 49
0000
0011
0000
0000
0001
0000
1000
0000
,  // measure 50
0001
0000
0000
0110
0000
0000
1010
0000
,  // measure 51
0000
1100
0000
0000
0001
0000
1000
0000
,  // measure 52
0100
0000
0000
0011
0000
0000
1100
0000
,  // measure 53
0000
0101
0000
0000
0010
0000
0100
0000
,  // measure 54
0001
0000
0000
0110
0000
0000
1010
0000
,  // measure 55
0000
0000
0101
0000
0000
0000
0000
0000
1000
0000
0001
0100
0001
0000
0010
0000
,  // measure 56
0100
1000
0100
1000
0001
0100
0001
0010
,  // measure 57
0100
1000
0001
0100
0001
1000
0002
0000
,  // measure 58
0013
0100
1000
0001
0100
1000
0100
0001
,  // measure 59
1000
0100
1000
0010
0200
0000
0302
0000
,  // measure 60
1003
0100
0010
0001
0010
0001
0100
0010
,  // measure 61
1000
0001
0100
0010
1000
0001
2000
0000
,  // measure 62
3100
1000
0100
0010
0001
0100
0010
1000
,  // measure 63
0001
0001
0010
1001
,  // measure 64
0010
1000
0010
0100
0001
0010
0000
0010
,  // measure 65
0100
1000
0100
1000
0001
0100
1000
0000
,  // measure 66
0100
0010
0100
0001
1000
0001
0000
0010
,  // measure 67
0001
1000
0100
0000
1001
0000
0110
0000
,  // measure 68
0001
0100
0001
1000
0100
1000
0000
1000
,  // measure 69
0100
0010
0001
0100
0001
0000
1000
0000
,  // measure 70
0100
0010
0001
0010
0100
1000
0001
0100
,  // measure 71
0002
0203
0320
1030
,  // measure 72
0001
0100
0010
1000
0100
0010
0000
0001
,  // measure 73
0100
1000
0100
0001
1000
0100
1000
0000
,  // measure 74
0010
1000
0100
0010
0100
1000
0001
0010
,  // measure 75
0000
0100
0010
0001
0100
0000
1001
0000
,  // measure 76
0110
0000
0001
0100
0010
1000
0000
1000
,  // measure 77
0001
0010
0001
0000
1000
0100
0010
0001
,  // measure 78
0100
0010
1000
0000
1000
0001
0100
1000
,  // measure 79
0000
1000
0100
0010
0100
0001
1000
0000
,  // measure 80
2002
0000
0000
3003
,  // measure 81
0022
0000
0000
0033
,  // measure 82
2200
0000
0000
3300
,  // measure 83
2020
0000
3030
1001
,  // measure 84
0202
0000
0000
0303
,  // measure 85
0220
0000
0000
0330
,  // measure 86
2200
0000
0000
3300
,  // measure 87
2002
0000
0000
0000
3003
0000
0000
0000
0001
0000
1000
0001
1000
0000
0010
0000
,  // measure 88
0100
0000
1001
0000
1000
0100
0010
0002
,  // measure 89
0000
0100
1000
1003
,  // measure 90
0001
0000
1010
0000
0001
0010
0100
2000
,  // measure 91
0000
0010
0001
3010
,  // measure 92
1000
0000
0110
0000
0001
1000
0010
0200
,  // measure 93
0000
0010
0001
0310
,  // measure 94
0001
0000
1001
0000
1000
0100
0010
0002
,  // measure 95
1000
0000
0000
0000
1003
0000
0000
0000
0001
0000
1000
0001
1000
0000
0000
0000
,  // measure 96
0110
0000
0000
0000
;
