#TITLE:Gemini;
#SUBTITLE:;
#ARTIST:Rameses B.;
#TITLETRANSLIT:;
#SUBTITLETRANSLIT:;
#ARTISTTRANSLIT:;
#CREDIT:;
#BANNER:bn.png;
#BACKGROUND:bg.png;
#LYRICSPATH:;
#CDTITLE:;
#MUSIC:Gemini.mp3;
#OFFSET:-0.020;
#SAMPLESTART:16.440;
#SAMPLELENGTH:12.000;
#SELECTABLE:YES;
#BPMS:0.000=175.000;
#STOPS:214.000=0.343
;
#BGCHANGES:;

//---------------dance-single - ----------------
#NOTES:
     dance-single:
     :
     Hard:
     8:
     0.465,0.615,0.205,0.051,0.041:
0000
0000
0000
0000
,
0000
0000
0000
0000
,
0000
0000
0000
0000
,
0000
0000
0000
0000
,
0100
0010
0000
0000
0000
0000
0000
0000
,
0000
0000
0010
1000
0100
0000
0000
0000
,
0010
0001
0100
1000
,
0100
0000
0010
0000
1000
0000
0001
0010
,
0001
0100
1000
0100
,
0010
1000
0001
0010
,
0001
0100
0010
1000
0100
1000
0001
0010
,
0200
0000
0000
0300
,
0110
0001
0100
0010
,
0100
0001
1000
0100
,
1000
0010
0100
0000
0010
1000
0001
0000
,
0010
0100
1000
0000
0100
0010
0001
0000
,
0100
0010
1000
0100
,
1000
0010
0100
0001
,
0010
0100
1000
0000
0100
1000
0010
0000
,
0100
0001
0010
0000
0001
1000
0100
0000
,
0000
0100
0000
1000
0000
0010
0000
0100
,
0000
0010
0000
1000
0000
0100
0000
1000
,
0000
1010
0000
0101
0000
0011
0000
1100
,
0000
1001
0000
0110
0000
1001
0000
0110
,
0000
0010
0000
1000
0000
0010
0000
0001
,
0000
0010
0000
0100
0000
0001
0000
1000
,
0001
0000
0100
0001
0010
0000
0000
0100
,
1000
0001
0100
0010
,
0100
0010
0000
0100
0010
1000
0000
0000
,
0000
0000
0000
0000
0010
0100
0000
0010
,
0100
0001
1000
0100
,
1000
0000
0010
0000
0100
0001
0010
0000
,
0001
1000
0100
1000
,
0010
0100
0001
1000
,
0100
0000
0000
0010
0000
0000
0001
0000
0000
0100
0000
0000
0010
0000
0000
1000
,
0000
0000
0001
0000
0000
0010
0000
0000
0001
0000
1000
0000
0100
0000
0010
0000
,
0001
0000
0000
0100
0000
0000
0010
0000
,
0000
1000
0000
0000
0100
0000
1000
0000
,
0100
0000
0000
0010
0000
0000
0001
0000
,
0000
0010
0000
0000
0001
0000
0001
0000
,
1000
0000
0000
0010
0000
0000
0100
0000
,
0000
0001
0000
0000
0010
0000
0010
0000
,
0100
0000
0000
0010
0000
0000
0001
0000
,
0000
1000
0000
0000
0010
0000
0010
0000
,
0110
0100
0010
0000
0100
0000
0010
0000
,
0010
0000
1000
0000
0001
0000
1000
0100
,
1000
0001
0010
0000
0100
0000
0010
0000
,
0001
0000
0001
0010
0001
0100
0001
0000
,
0001
0100
0001
0000
0100
0010
0100
0000
,
0010
1000
0010
0000
1000
0100
1000
0000
,
1000
0100
0001
0100
1000
0010
0100
0001
,
0010
0001
0100
1000
0100
0010
1000
0001
,
0020
0000
0000
0000
,
0200
0000
0330
1001
,
0001
0100
0010
0100
,
0001
0000
0010
0000
0001
0000
1000
0001
,
0100
0000
0100
0010
1000
0000
1000
0100
,
0010
0000
0010
0001
0100
0000
0010
0000
,
1000
0001
0010
0001
,
0100
0000
0010
0000
1000
0000
0100
1000
,
0010
0000
0100
0010
1000
0000
0001
0010
,
0100
0000
0100
1000
0010
0000
0000
0100
,
0000
0010
0000
1000
0000
0001
0000
0010
,
0000
0001
0000
0100
0000
0010
0000
0101
,
0000
0101
0000
1100
0000
1100
0000
0110
,
0000
0110
0000
1001
0000
1001
0000
0001
,
0000
0100
0000
0010
0000
1000
0000
0100
,
0000
0000
1000
0000
0000
0000
0010
0000
0000
0000
0100
0000
0001
0000
0000
1000
,
0000
0000
0010
0000
0000
0100
0000
0000
0001
0000
0000
0010
0000
0000
0100
0000
,
0000
1000
0000
0000
1000
0000
0001
0000
0100
0000
0010
0000
0220
0000
0000
0000
,
0000
0000
0000
0330
;

//---------------dance-single - ----------------
#NOTES:
     dance-single:
     :
     Medium:
     5:
     0.349,0.465,0.051,0.133,0.000:
0000
0000
0000
0000
,
0000
0000
0000
0000
,
0000
0000
0000
0000
,
0000
0000
0000
0000
,
1001
0000
0000
0000
,
0000
0000
0001
0010
0100
0000
0000
0000
,
0010
0000
0001
0000
,
0010
0000
0000
0000
0100
0000
1000
0100
,
0010
0100
1000
0001
,
0010
0001
0100
0010
,
1000
0001
0010
0100
,
2200
0000
0000
0000
0000
0000
3000
0300
,
0100
0010
0001
0100
,
0010
1000
0001
0010
,
0001
0100
0001
0000
0100
0001
0100
0000
,
0001
0100
0001
0000
0100
0001
0100
0000
,
0001
0100
1000
0100
,
0001
0100
1000
0100
,
0010
1000
0010
0001
,
0010
0100
0010
1000
,
0001
1000
0100
1000
,
0001
0100
0010
1000
,
0001
0100
0001
0000
0100
0010
0100
0000
,
0010
1000
0010
0000
1000
0100
1000
0000
,
0100
0010
0001
0100
,
0010
1000
0001
0100
,
0010
1000
0000
0010
0100
0000
0000
0000
,
0000
0000
0010
0000
1000
0000
0001
0010
,
0020
0000
0130
0000
,
0000
0000
0100
0000
,
1000
0001
0100
0001
,
1000
0100
1000
0001
,
0010
0001
1000
0010
,
1000
0001
0010
0001
,
0100
0000
0000
0010
0000
0000
1000
0000
,
0000
0001
0000
0000
0010
0000
0001
0000
,
0200
0000
0000
0000
,
0000
0000
0000
0300
,
0020
0000
0000
0000
,
2000
0000
0000
3030
,
2000
0000
0000
0000
,
0000
0000
0000
3000
,
0002
0000
0000
0000
,
0020
0000
0000
0033
,
1100
0000
0000
0000
,
0000
0000
0000
0000
0000
0000
1000
0100
,
0010
0000
0000
0000
,
0000
0000
0010
0001
0100
0000
0000
0000
,
0001
0001
1000
1000
,
0010
0010
0100
0100
,
0010
1000
0001
0010
,
0100
1000
0100
0010
,
0022
0000
0000
0000
,
0033
0000
0000
0001
,
1000
0100
1000
0001
,
0100
0000
0001
0000
0010
0000
0100
0010
,
0100
0000
0010
0100
0010
0000
0100
0010
,
0100
0000
0010
0100
0010
0000
0100
0000
,
0010
0001
1000
0001
,
0100
0010
1000
0010
,
0100
0001
0010
0001
,
0100
0010
1000
0001
,
0001
1000
1000
0010
,
0010
0000
0100
0000
0100
0000
0010
1000
,
0010
0000
0010
0100
0010
0000
0100
0001
,
0100
0000
0001
0010
0001
0000
0001
0000
,
0010
0100
1000
0100
,
1000
0010
0100
0001
,
0000
1000
0000
0000
0010
0000
0000
0100
,
0000
0001
0010
2200
,
3300
0000
0000
0000
;

//---------------dance-single - ----------------
#NOTES:
     dance-single:
     :
     Easy:
     3:
     0.232,0.321,0.051,0.072,0.000:
0000
0000
0000
0000
,
0000
0000
0000
0000
,
0000
0000
0000
0000
,
0000
0000
0000
0000
,
0110
0000
0000
0000
,
0000
0010
0010
0000
,
1000
0000
0000
0000
,
0001
0000
0000
1000
,
0001
0000
0100
0000
,
0001
0000
0010
0000
,
0100
0000
0000
0000
,
0110
0000
0000
0000
,
0010
0000
0001
0000
,
1000
0000
0010
0000
,
0100
0001
0100
0010
,
0100
0001
0100
0010
,
1000
0000
1000
0000
,
0001
0000
0001
0000
,
1000
0010
0100
0010
,
1000
0010
0100
0010
,
1000
0000
1000
0000
,
0001
0000
0010
0000
,
0100
0010
0001
0010
,
0100
0010
0001
0100
,
0010
0000
0100
0000
,
0001
0000
1000
0000
,
0002
0000
0103
0000
,
0100
0100
0010
0000
,
0200
0000
0000
0000
,
0000
0000
0300
0000
,
0010
0000
1000
0000
,
0001
0000
0010
0000
,
0001
0100
0010
0000
,
0100
0010
1000
0000
,
0001
1000
0100
1000
,
0001
0100
0001
0010
,
0200
0000
0000
0000
,
0000
0000
0000
0300
,
0020
0000
0000
0000
,
0000
0000
0000
0030
,
0002
0000
0000
0000
,
0000
0000
0000
0003
,
2000
0000
0000
0000
,
0000
0000
0000
3000
,
1001
0000
0000
0000
,
0000
0000
0000
0010
,
0010
0000
0000
0000
,
0000
0100
0100
0000
,
0010
0000
1000
0000
,
0001
0000
0100
0000
,
0100
0010
1000
0001
,
0010
0100
1000
0100
,
0020
0000
0000
0000
,
0030
0000
0000
0110
,
0000
0010
0000
0001
,
0000
0100
0000
0010
,
1000
0100
1000
0010
,
1000
0100
1000
0010
,
0000
0100
0000
0001
,
0000
0010
0000
0100
,
1000
0010
0100
0001
,
0010
0100
0010
0001
,
0000
0001
0000
1000
,
0000
0010
0000
0100
,
0001
0010
0001
0100
,
0010
0100
0001
0010
,
0000
0100
0000
1000
,
0000
0100
0000
1000
,
0010
0100
0010
1000
,
0001
0010
0100
0110
;

//---------------dance-single - ----------------
#NOTES:
     dance-single:
     :
     Beginner:
     1:
     0.088,0.250,0.051,0.000,0.000:
0000
0000
0000
0000
,
0000
0000
0000
0000
,
0000
0000
0000
0000
,
0000
0000
0000
0000
,
0010
0000
0000
0000
,
0000
0000
0000
0000
,
1000
0000
0000
0000
,
0000
0000
0000
0000
,
0001
0000
0000
0000
,
0000
0000
0000
0000
,
0100
0000
0000
0000
,
0100
0000
0000
0000
,
0010
0000
0000
0000
,
0000
0000
0000
0000
,
1000
0000
0000
0000
,
1000
0000
0000
0000
,
0001
0000
0000
0000
,
0000
0000
0000
0000
,
0100
0000
0000
0000
,
0010
0000
0000
0000
,
1000
0000
0000
0000
,
0000
0000
0000
0000
,
0001
0000
0000
0000
,
1000
0000
0000
0000
,
0001
0000
0000
0000
,
0000
0000
0000
0000
,
0100
0000
0010
0000
,
0010
0010
0010
0000
,
1001
0000
0000
0000
,
0000
0000
0000
0000
,
1000
0000
0000
0000
,
0001
0000
0000
0000
,
0100
0000
0000
0000
,
0010
0000
0000
0000
,
1000
0000
1000
0000
,
1000
0000
1000
1000
,
1001
0000
0000
0000
,
0000
0000
0000
0000
,
0010
0000
0000
0000
,
0000
0000
0000
0000
,
0100
0000
0000
0000
,
0000
0000
0000
0000
,
0001
0000
0000
0000
,
0000
0000
0000
0000
,
1001
0000
0000
0000
,
0000
0000
0000
0000
,
1000
0000
0000
0000
,
0000
0000
0000
0000
,
0010
0000
0000
0000
,
0000
0000
0000
0000
,
0100
0000
0000
0000
,
0001
0000
0000
0000
,
1000
0000
0000
0000
,
0001
0000
0000
1001
,
0000
0000
0000
0010
,
0000
0000
0000
0100
,
0000
0000
0000
0010
,
0000
0000
0000
1000
,
0000
0000
0000
0000
,
0000
0000
0000
0001
,
0000
0000
0000
0010
,
0000
0000
0000
0001
,
0000
0000
0000
0000
,
0000
0000
0000
1000
,
0000
0000
0000
0010
,
0000
0000
0000
0100
,
0000
0000
0000
0000
,
0000
0000
0000
0001
,
0000
0000
0000
1000
,
0000
0000
0000
1001
;
