#TITLE:ChaiN De/structioN (siilento's solid remix);
#SUBTITLE:;
#ARTIST:削除;
#TITLETRANSLIT:;
#SUBTITLETRANSLIT:;
#ARTISTTRANSLIT:SKz;
#GENRE:;
#CREDIT:Meseki;
#MENUCOLOR:;
#BANNER:ChaiN DestructioN (siilento's solid remix)-bn.png;
#BACKGROUND:ChaiN DestructioN (siilento's solid remix)-bg.png;
#LYRICSPATH:;
#CDTITLE:cdtitle.png;
#MUSIC:ChaiN DestructioN (siilento's solid remix).mp3;
#OFFSET:-0.028;
#SAMPLESTART:63.861;
#SAMPLELENGTH:22.833;
#SELECTABLE:YES;
#LISTSORT:;
#BPMS:0.000=180.000;
#STOPS:;
#TICKCOUNT:0.000=2;
#BGCHANGES:;
#KEYSOUNDS:;
#ATTACKS:;

//---------------dance-single - ----------------
#NOTES:
     dance-single:
     :
     Medium:
     7:
     0.371,0.418,0.110,0.425,0.000:
0000
0000
0000
0000
,
0000
0000
0000
0000
,
0000
0000
0000
0000
,
0000
0000
0000
0000
,
0000
0000
0000
0000
,
0000
0000
0000
0000
,
0000
0000
0000
0000
,
0000
0000
0000
0000
,
1000
0000
0010
0000
0000
1000
0000
0002
,
0000
0103
0010
1000
,
0010
0000
0000
0200
0000
0000
0002
0300
,
0000
0000
1000
0000
0000
0003
0000
0100
,
0001
0000
0000
0010
0000
0100
0000
1000
,
0000
0010
0100
0000
0001
0020
0000
0130
,
2000
0000
0000
3000
,
0001
0000
0010
0000
0000
0100
0010
0000
,
1002
0000
1000
0000
0000
0103
0000
0010
,
0000
1000
0100
0010
,
0001
0000
0000
0200
0000
0000
0020
0300
,
0000
0000
1000
0000
0000
0030
0000
0100
,
0002
0000
0000
0010
0000
0103
0000
0010
,
0000
1000
0001
0000
1000
0020
0000
0130
,
0002
0000
1000
0000
0000
0003
1000
0000
,
0000
1000
0100
0010
,
0012
0000
0000
0203
0000
0000
0320
0000
,
0000
0000
1000
0030
0000
0000
1000
0000
,
0200
0000
0000
0302
0000
0000
0203
0000
,
0000
0300
1000
0000
0001
0000
0000
0010
,
0200
0000
0000
2300
0000
0000
3002
0000
,
0000
0003
0000
0100
,
0120
0000
0000
2030
0000
0000
3002
0000
,
0000
0000
0013
0010
,
0011
0000
0000
0001
0000
0000
0100
0000
,
0010
1000
1010
0000
,
1000
0000
0000
0001
0000
0000
1000
0000
,
0100
0010
0110
0000
,
0100
0000
0000
1000
0000
0000
0001
0000
,
0100
0001
0101
0000
,
0100
0000
0000
0010
0000
0000
1000
0000
,
0002
0003
0100
0000
0002
0003
0100
0000
0010
0000
0000
0000
0000
0000
0000
0000
,
2000
3000
2000
3000
,
2000
3000
2000
3000
,
0200
0300
0200
0300
,
0020
0030
0002
0003
,
1000
0000
0010
0100
0010
0000
1000
0000
,
0001
0000
0100
0010
0100
0000
0001
0000
,
1000
0010
1000
0000
0001
0100
0001
0000
,
0200
0000
0000
0000
0000
0000
0300
0010
,
1000
0000
0001
2000
0000
0100
0000
3001
,
0000
0100
0010
0100
,
0002
0000
0000
0013
0000
0100
0000
1000
,
0000
0000
0000
1000
0010
0000
0010
0100
,
0010
0000
0000
0100
0001
0000
0001
0010
,
0002
0000
0000
1003
0000
0100
0000
0000
,
0010
0000
0000
0001
0000
0100
0000
0010
,
0000
1000
0000
0001
0100
0000
0100
0010
,
0200
0000
0000
0010
0000
0301
0000
1000
,
0000
0100
0010
0100
,
2100
0000
0000
0001
0000
3010
0000
0100
,
0000
0000
0000
0100
0010
0000
0010
1000
,
0001
0000
0000
0010
0001
0000
0001
0010
,
0200
0000
0000
1300
0000
0010
0100
0000
,
0020
0000
0000
1030
0000
0100
0000
0010
,
0000
0001
0000
0100
0010
0000
1000
0000
,
1002
0000
1000
0000
,
1003
0000
1000
0010
,
0100
0001
0100
0000
,
0020
0000
1030
0000
0200
0000
0010
0300
,
0010
0000
0000
0001
0000
0000
0010
0100
,
0000
0000
0000
1000
0010
0000
0001
0000
,
0010
0000
0000
1000
0000
0000
0100
0010
,
0000
0001
0100
0001
0000
0000
0000
0000
,
2001
0000
0001
0000
,
3001
0000
0000
0000
0001
0000
0010
0100
,
1000
0000
0010
0100
,
0002
0000
0013
0000
0200
0000
1000
0300
,
1000
0000
0000
0010
0000
0000
1000
0000
,
0110
0000
0000
0001
0000
0000
0100
0000
,
0011
0000
1100
0000
,
2000
3000
0001
0000
2000
3000
0001
0000
0100
0000
0000
0000
0000
0000
0000
0000
,
0020
0000
0000
0000
,
0000
0000
0000
0000
,
0030
0000
0000
0000
;

//---------------dance-single - ----------------
#NOTES:
     dance-single:
     :
     Easy:
     5:
     0.290,0.348,0.025,0.425,0.000:
0000
0000
0000
0000
,
0000
0000
0000
0000
,
0000
0000
0000
0000
,
0000
0000
0000
0000
,
0000
0000
0000
0000
,
0000
0000
0000
0000
,
0000
0000
0000
0000
,
0000
0000
0000
0000
,
1000
0000
0001
0000
0000
0000
0000
2000
,
0000
3010
0000
0100
,
0001
0000
0000
2000
0000
0000
0002
3000
,
0000
0000
0000
0000
0000
0003
0000
0000
,
0010
0000
0000
0100
0000
1000
0000
0100
,
0000
0000
1000
0000
0000
0020
0000
0030
,
0200
0000
0000
0300
,
0000
0001
0000
0001
,
2000
0000
0000
0100
0000
3000
0000
0001
,
0000
0100
0010
1000
,
0010
0000
0000
2000
0000
0000
0002
3000
,
0000
0000
0000
0000
0000
0003
0000
0000
,
0020
0000
0000
0100
0000
0030
0000
0100
,
0000
0000
1000
0000
0000
0002
0000
0003
,
0020
0000
0000
0000
0000
0030
0001
0000
,
0000
1000
0100
0010
,
0002
0000
0000
0203
0000
0000
0320
0000
,
0000
0000
0000
0030
0000
0000
0000
0000
,
2000
0000
0000
3200
0000
0000
2300
0000
,
0000
3000
0000
0000
0001
0000
0000
0000
,
0200
0000
0000
0320
0000
0000
2030
0000
,
0000
3000
0000
1000
,
1002
0000
0000
0023
0000
0000
0230
0000
,
0000
0000
0310
0010
,
0001
0000
0000
1000
0000
0000
0001
0000
,
0100
0100
0010
0000
,
1000
0000
0000
0001
0000
0000
1000
0000
,
0100
0100
0010
0000
,
0001
0000
0000
0100
0000
0000
0010
0000
,
1000
1000
0001
0000
,
1000
0000
0000
0010
0000
0000
0100
0000
,
0002
0003
0000
0000
0002
0003
0000
0000
1000
0000
0000
0000
0000
0000
0000
0000
,
2000
3000
2000
3000
,
2000
3000
2000
3000
,
0200
0300
0200
0300
,
0020
0030
0002
0003
,
1000
0010
1000
0001
,
0010
0001
0100
0010
,
1000
1000
0001
0001
,
0200
0000
0000
0300
,
0001
0000
0000
2000
0000
0000
0000
3010
,
0000
0100
0001
0100
,
0020
0000
0000
1030
0000
0000
0000
0001
,
0000
0000
0010
0100
,
0010
0000
0001
0100
,
0002
0000
0000
1003
0000
0000
0000
0000
,
0100
0000
0000
0010
0000
0001
0000
0010
,
0000
0100
0000
0000
1000
0000
0001
0000
,
0200
0000
0000
0010
0000
0300
0000
1000
,
0000
0100
0010
0100
,
2000
0000
0000
0010
0000
3000
0000
0001
,
0000
0000
0100
0010
,
0100
0000
0010
1000
,
0020
0000
0000
0130
0000
0000
0001
0000
,
0020
0000
0000
0130
0000
1000
0000
0100
,
0000
0010
0000
0000
0100
0000
1000
0000
,
0020
0000
1000
0000
,
1030
0000
1000
0100
,
1000
0100
0010
0000
,
0002
0000
0100
0003
0200
0000
0000
0300
,
0010
0000
0000
1000
0000
0000
0100
0000
,
0000
0000
0010
0001
,
0010
0000
0000
0100
0000
0000
0000
1000
,
0000
0000
0000
0010
0000
0000
0000
0000
,
0200
0000
0001
0000
,
0301
0000
0001
0010
,
0100
0000
1000
0000
,
0020
0000
1000
0030
2000
0000
0000
3000
,
0001
0000
0000
1000
0000
0000
0001
0000
,
0100
0000
0000
0010
0000
0000
0100
0000
,
0110
0000
1001
0000
,
2000
3000
0000
0000
2000
3000
0000
0000
0001
0000
0000
0000
0000
0000
0000
0000
,
0020
0000
0000
0000
,
0000
0000
0000
0000
,
0030
0000
0000
0000
;

//---------------dance-single - ----------------
#NOTES:
     dance-single:
     :
     Hard:
     8:
     0.460,0.522,0.110,0.578,0.008:
0000
0000
0000
0000
,
0000
0000
0000
0000
,
0000
0000
0000
0000
,
0000
0000
0000
0000
,
0000
0000
0000
0000
,
0000
0000
0000
0000
,
0000
0000
0000
0000
,
0000
0000
0000
0000
0000
0000
0000
0010
,
1000
0000
0001
0010
0000
0100
0000
2000
,
0000
3010
0001
0010
,
1000
0000
0000
0002
0000
0100
0200
0003
,
0000
0000
1000
0000
0000
0310
1000
0001
,
1000
0000
0100
0020
0000
1000
0000
0031
,
0000
0100
0010
0000
1000
0020
0000
0031
,
0020
1000
0000
1030
,
0001
0100
0010
0000
0000
1000
0010
0100
,
0002
0000
1000
0000
0000
0103
0000
0010
,
0000
0000
1000
0000
0100
1000
0010
0000
,
0100
0000
0000
0002
0000
0000
0020
0003
,
0000
0000
1000
0000
0000
0030
1000
0010
,
0002
0000
0000
0010
0000
1003
0000
0100
,
0000
0010
0001
0000
1000
0200
0000
0301
,
0200
0000
1000
0000
0000
0300
1000
0000
,
0000
1000
0100
0010
,
1002
0000
0000
0203
0000
0000
2300
0000
,
0000
0000
0100
3000
0000
0000
0100
0010
,
2000
0000
0000
3200
0000
0000
0302
0000
,
0000
0000
0003
0000
0100
0000
0000
0000
0010
0000
0000
0001
0000
0000
1000
0000
,
0020
0000
0000
0032
0000
0000
0023
0000
,
0000
0030
0000
1000
,
2010
0000
0000
3002
0000
0000
0023
0000
,
0000
0000
0130
0100
,
1100
0000
0000
0000
0000
0000
1000
0000
0000
0000
0020
0030
0100
0000
0000
0000
,
0001
0000
0000
0000
0001
0000
0000
0000
0101
0000
0000
0000
2000
3000
0000
0000
,
0001
0000
0000
0000
0200
0300
0010
0000
0000
0000
2000
3000
0010
0000
0000
0000
,
1000
0000
0000
0000
1000
0000
0000
0000
1010
0000
0000
0000
0002
0003
0000
0000
,
1000
0000
0000
0000
0000
0000
0001
0000
0000
0000
0020
0030
0100
0000
0000
0000
,
0010
0000
0000
0000
0010
0000
0000
0000
0011
0000
0000
0000
2000
3000
0000
0000
,
0001
0000
0000
0000
0200
0300
0010
0000
0000
0000
2000
3000
0001
0000
0000
0000
,
0200
0300
1000
0000
0200
0300
0001
0000
1000
0000
0000
0000
0000
0000
0000
0000
,
2000
3000
2000
3000
,
2000
3000
2000
3000
,
0200
0300
0200
0300
,
0020
0030
0002
0003
,
1000
0000
0001
0100
0010
0100
0001
0000
,
0010
0000
0100
1000
0001
1000
0100
0000
,
1000
0010
1000
0010
0100
1000
0100
0001
,
2000
0000
0000
0000
0000
0000
3000
0001
,
0010
0000
0100
2000
0000
0010
0000
3001
,
0000
0100
0010
1000
,
1002
0000
0000
0103
0000
0010
1000
0100
,
0000
0000
0000
0010
0100
0010
0100
1000
,
0100
0000
0000
1000
0010
1000
0010
0100
,
0020
0000
0130
0001
0000
1000
0001
0010
,
0001
0000
0100
0020
0000
0100
0000
1030
,
0000
0001
0000
1000
0100
1000
0100
0010
,
0002
0000
0000
0100
0000
1003
0000
0100
,
0000
0010
0100
1000
,
2001
0000
0000
0100
0000
3001
0010
0100
,
0000
0000
0000
1000
0010
0100
0010
1000
,
0001
0000
0000
0010
0100
1000
0010
1000
,
0200
0000
0310
0001
0000
1000
0010
0100
,
0020
0000
1030
0100
0000
0020
0000
0100
,
0000
0031
0000
1000
0100
0010
0100
0000
,
2002
3000
0000
0000
0020
0030
0000
0000
,
2003
3000
0000
0000
0010
0000
1000
0000
,
0001
0010
0100
1000
,
0020
0000
1030
0001
0200
0000
1000
0300
,
0010
0000
0000
1000
0000
0000
0001
0010
,
0000
0000
0000
0000
0000
0000
0100
0010
0100
0000
0000
0000
1000
0000
0001
0000
,
0010
0000
0000
0100
0000
0000
1000
0010
,
0000
0001
0010
1000
0000
0000
0000
0000
,
2002
0003
0000
0000
0200
0300
0000
0000
,
3002
0003
0000
0000
0010
0000
0100
1000
,
0010
0000
0100
0000
0001
0000
1000
0100
,
0020
0000
0031
1000
0200
0000
0001
0300
,
0100
0000
1000
0100
0000
1000
0100
0000
,
0110
0000
0001
0100
0000
0001
0100
0000
,
0110
1000
1001
0001
,
0020
0030
1000
0000
0020
0030
0001
0000
1000
0000
0000
0000
0000
0000
0000
0000
,
0020
0000
0000
0000
,
0000
0000
0000
0000
,
0030
0000
0000
0000
;

//---------------dance-single - ----------------
#NOTES:
     dance-single:
     :
     Beginner:
     3:
     0.123,0.209,0.008,0.110,0.000: // measure 1
0000
0000
0000
0000
,  // measure 2
0000
0000
0000
0000
,  // measure 3
0000
0000
0000
0000
,  // measure 4
0000
0000
0000
0000
,  // measure 5
0000
0000
0000
0000
,  // measure 6
0000
0000
0000
0000
,  // measure 7
0000
0000
0000
0000
,  // measure 8
0000
0000
0000
0000
,  // measure 9
1000
0000
0000
0000
0000
0000
0000
0001
,  // measure 10
0000
0000
0000
0000
,  // measure 11
1000
0000
0000
0200
,  // measure 12
0000
0300
0000
0000
,  // measure 13
0010
0000
0000
0000
0000
0000
0000
0100
,  // measure 14
0000
0000
0000
0000
,  // measure 15
2000
0000
3000
0000
,  // measure 16
0000
0000
0000
0000
,  // measure 17
0001
0000
0000
0000
0000
0000
0000
0100
,  // measure 18
0000
0000
0000
0000
,  // measure 19
0010
0000
0000
0200
,  // measure 20
0000
0300
0000
0000
,  // measure 21
0002
0000
0000
0000
,  // measure 22
0000
0000
0003
0000
,  // measure 23
2000
0000
0000
0000
,  // measure 24
0000
0000
3000
0000
,  // measure 25
0110
0000
0000
0000
,  // measure 26
0000
0000
0000
0000
,  // measure 27
1000
0000
0000
0000
,  // measure 28
0000
0000
0001
0000
,  // measure 29
0001
0000
0000
0000
,  // measure 30
0000
0000
0000
0000
,  // measure 31
0010
0000
0000
0000
,  // measure 32
0000
0000
0100
0000
,  // measure 33
0100
0000
0000
0000
,  // measure 34
1000
0000
1000
0000
,  // measure 35
0010
0000
0000
0000
,  // measure 36
0100
0000
0100
0000
,  // measure 37
0001
0000
0000
0000
,  // measure 38
0010
0000
0010
0000
,  // measure 39
0100
0000
0000
0000
,  // measure 40
1000
0000
0001
0000
,  // measure 41
1000
0000
1000
0000
,  // measure 42
1000
0000
1000
0000
,  // measure 43
0100
0000
0100
0000
,  // measure 44
0010
0000
0010
0000
,  // measure 45
0001
0000
0000
0000
,  // measure 46
0100
0000
0000
0000
,  // measure 47
0010
0000
1000
0000
,  // measure 48
0200
0000
0300
0000
,  // measure 49
1000
0000
0000
0000
0000
0000
0000
0001
,  // measure 50
0000
0000
0000
0000
,  // measure 51
0100
0000
0000
0000
0000
0000
0000
0001
,  // measure 52
0000
0000
1000
0000
,  // measure 53
1000
0000
0001
0000
,  // measure 54
0001
0000
0000
0000
,  // measure 55
0100
0000
0000
0000
0000
0000
0000
0010
,  // measure 56
0000
0000
0000
0000
,  // measure 57
1000
0000
0000
0000
0000
0000
0000
0010
,  // measure 58
0000
0000
0000
0000
,  // measure 59
0100
0000
0000
0000
0000
0000
0000
0001
,  // measure 60
0000
0000
0010
0000
,  // measure 61
0010
0000
0100
0000
,  // measure 62
0100
0000
0000
0000
,  // measure 63
1000
0000
1000
0000
,  // measure 64
0001
0000
0001
0000
,  // measure 65
2000
0000
0000
0000
,  // measure 66
3001
0000
0000
0000
,  // measure 67
0100
0000
0000
0000
,  // measure 68
0020
0000
2030
0000
,  // measure 69
3001
0000
0000
0010
,  // measure 70
0000
0000
0100
0000
,  // measure 71
0100
0000
0000
0000
0000
0000
0000
1000
,  // measure 72
0000
0000
0000
0000
,  // measure 73
0002
0000
0000
0000
,  // measure 74
1003
0000
0000
0000
,  // measure 75
0100
0000
0000
0000
,  // measure 76
2000
0000
3020
0000
,  // measure 77
0130
0000
0000
0000
,  // measure 78
0001
0000
0000
0000
,  // measure 79
0100
0000
0010
0000
,  // measure 80
1000
0000
0000
0000
,  // measure 81
0002
0000
0000
0000
,  // measure 82
0000
0000
0000
0000
,  // measure 83
0003
0000
0000
0000
;
