#TITLE:Call My Name;
#SUBTITLE:;
#ARTIST:Tora;
#TITLETRANSLIT:;
#SUBTITLETRANSLIT:;
#ARTISTTRANSLIT:;
#CREDIT:348;
#BANNER:Call My Name Banner.png;
#BACKGROUND:Call My Name Background.png;
#LYRICSPATH:Call My Name.lrc;
#CDTITLE:;
#MUSIC:Call My Name.ogg;
#OFFSET:-0.302;
#SAMPLESTART:62.224;
#SAMPLELENGTH:15.000;
#SELECTABLE:YES;
#BPMS:0.000=156.000;
#STOPS:;
#BGCHANGES:;

//---------------dance-single - ----------------
#NOTES:
     dance-single:
     :
     Beginner:
     1:
     0.104,0.120,0.000,0.000,0.000: // measure 1
0000
0000
0000
0000
,  // measure 2
0000
0000
0000
0000
,  // measure 3
0000
0000
0000
0000
,  // measure 4
0000
0000
0000
0000
,  // measure 5
1000
0000
0000
0000
,  // measure 6
1000
0000
0000
0000
,  // measure 7
0001
0000
0000
0000
,  // measure 8
0001
0000
0000
0000
,  // measure 9
0100
0000
0000
0000
,  // measure 10
0010
0000
0000
0000
,  // measure 11
0010
0000
0000
0000
,  // measure 12
0100
0000
0000
0000
,  // measure 13
0001
0000
0000
0000
,  // measure 14
1000
0000
0000
0000
,  // measure 15
1000
0000
0000
0000
,  // measure 16
0001
0000
0000
0000
,  // measure 17
1000
1000
1000
0000
,  // measure 18
0000
0000
0000
0000
,  // measure 19
0010
0010
0010
0000
,  // measure 20
0000
0000
0000
0000
,  // measure 21
0100
0100
0100
0000
,  // measure 22
0000
0000
0000
0000
,  // measure 23
0001
0001
0001
0000
,  // measure 24
0000
0000
0000
0000
,  // measure 25
1000
0000
0000
0000
,  // measure 26
0100
0000
0000
0000
,  // measure 27
1000
0000
0100
0000
,  // measure 28
1000
0000
0000
0000
,  // measure 29
0001
0000
0000
0000
,  // measure 30
0010
0000
0000
0000
,  // measure 31
0001
0000
0010
0000
,  // measure 32
0001
0000
0000
0000
,  // measure 33
1000
0000
0000
0000
,  // measure 34
0001
0000
0000
0000
,  // measure 35
1000
0000
0001
0000
,  // measure 36
1000
0000
0000
0000
,  // measure 37
0010
0000
0000
0000
,  // measure 38
0100
0000
0000
0000
,  // measure 39
0010
0000
0100
0000
,  // measure 40
0010
0000
0000
0000
,  // measure 41
1000
0000
0000
0000
,  // measure 42
0100
0000
0000
0000
,  // measure 43
0010
0000
0000
0000
,  // measure 44
0001
0000
0000
0000
,  // measure 45
1000
0000
0000
0000
,  // measure 46
0010
0000
0000
0000
,  // measure 47
0100
0000
0000
0000
,  // measure 48
0001
0000
0000
0000
,  // measure 49
1000
0000
0000
0000
,  // measure 50
0001
0000
0010
0000
,  // measure 51
0100
0000
0000
0000
,  // measure 52
1000
0000
0100
0000
,  // measure 53
0010
0000
0000
0000
,  // measure 54
0001
0000
0100
0000
,  // measure 55
0010
0000
0000
0000
,  // measure 56
1000
0000
0010
0000
,  // measure 57
0100
0000
0001
0000
,  // measure 58
1000
0000
0000
0000
,  // measure 59
1000
0000
0100
0000
,  // measure 60
0010
0000
0000
0000
,  // measure 61
0010
0000
0001
0000
,  // measure 62
0001
0000
0000
0000
,  // measure 63
0001
0000
0010
0000
,  // measure 64
0100
0000
0000
0000
,  // measure 65
0100
0000
1000
0000
,  // measure 66
0001
0000
0000
0000
;

//---------------dance-single - ----------------
#NOTES:
     dance-single:
     :
     Easy:
     3:
     0.208,0.281,0.046,0.111,0.000: // measure 1
0000
0000
0000
0000
,  // measure 2
0000
0000
0000
0000
,  // measure 3
0000
0000
0000
0000
,  // measure 4
0000
0000
0000
0000
,  // measure 5
1000
0000
0100
0000
,  // measure 6
1000
0000
0100
0000
,  // measure 7
0010
0000
0001
0000
,  // measure 8
0010
0000
0001
0000
,  // measure 9
1000
0000
0000
0000
,  // measure 10
0001
0000
0100
0000
,  // measure 11
0100
0000
0000
0000
,  // measure 12
0001
0000
1000
0000
,  // measure 13
0001
0000
0000
0000
,  // measure 14
1000
0000
0010
0000
,  // measure 15
0010
0000
0000
0000
,  // measure 16
1000
0000
0001
0000
,  // measure 17
2000
0000
3100
0000
,  // measure 18
0100
0100
1000
0000
,  // measure 19
0002
0000
0013
0000
,  // measure 20
0010
0010
0001
0000
,  // measure 21
0200
0000
0301
0000
,  // measure 22
0001
0001
0100
0000
,  // measure 23
0020
0000
1030
0000
,  // measure 24
1000
1000
0010
0000
,  // measure 25
1000
0000
0100
0000
,  // measure 26
0010
0000
0001
0000
,  // measure 27
1000
0001
0100
0001
,  // measure 28
2000
0000
3000
0000
,  // measure 29
0001
0000
0100
0000
,  // measure 30
0010
0000
1000
0000
,  // measure 31
0001
1000
0010
1000
,  // measure 32
0002
0000
0003
0000
,  // measure 33
1000
0000
1100
0000
,  // measure 34
0001
0000
0011
0000
,  // measure 35
0100
0000
0101
0000
,  // measure 36
0010
0000
1010
0000
,  // measure 37
0002
0000
0103
0000
,  // measure 38
2000
0000
3010
0000
,  // measure 39
1000
0000
0010
0100
,  // measure 40
0001
0000
2002
3003
,  // measure 41
0001
0000
0100
0000
,  // measure 42
0001
0000
1000
0100
,  // measure 43
1000
0000
0010
0000
,  // measure 44
1000
0000
0001
0010
,  // measure 45
0001
0100
0001
0000
,  // measure 46
1000
0010
1000
0000
,  // measure 47
0001
0000
1000
0000
,  // measure 48
0001
0000
1000
0000
,  // measure 49
0010
0010
0010
0000
,  // measure 50
0100
0000
0100
0000
,  // measure 51
0001
0001
0001
0000
,  // measure 52
1000
0000
1000
0000
,  // measure 53
1000
1000
1000
0000
,  // measure 54
0001
0000
0001
0000
,  // measure 55
0100
0100
0100
0000
,  // measure 56
0010
0000
0010
0000
,  // measure 57
2000
0000
0000
3000
,  // measure 58
0001
0000
0001
0000
,  // measure 59
1000
0100
1000
0100
,  // measure 60
1000
0000
1000
0000
,  // measure 61
0001
0010
0001
0010
,  // measure 62
0001
0000
1000
0000
,  // measure 63
0010
1000
0010
1000
,  // measure 64
0010
0000
0100
0000
,  // measure 65
0001
0100
0001
0100
,  // measure 66
0020
0000
0000
0000
,  // measure 67
0000
0000
0000
0000
,  // measure 68
0000
0000
0000
0030
;

//---------------dance-single - ----------------
#NOTES:
     dance-single:
     :
     Medium:
     6:
     0.447,0.468,0.368,0.285,0.000: // measure 1
0000
0000
0000
0000
,  // measure 2
0000
0000
0000
0000
,  // measure 3
0000
0000
0000
0000
,  // measure 4
0000
0000
0000
0000
,  // measure 5
1000
0100
1000
0100
,  // measure 6
0010
0001
0010
0001
,  // measure 7
1000
0010
1000
0010
,  // measure 8
0100
0001
0100
0001
,  // measure 9
1000
0100
0100
1000
,  // measure 10
0011
0000
1000
0010
1000
0000
1100
0000
,  // measure 11
0001
0010
0010
0001
,  // measure 12
1010
0000
0001
0100
0001
0000
0101
0000
,  // measure 13
1000
0100
1100
0101
,  // measure 14
0001
0010
0011
1010
,  // measure 15
2000
0100
0010
3001
,  // measure 16
0002
0010
0100
1003
,  // measure 17
1000
0000
0100
1000
0200
0000
0300
0000
,  // measure 18
0100
0010
0100
0000
0010
0001
0010
0000
,  // measure 19
0001
1000
0220
0330
,  // measure 20
0001
0100
0010
1001
,  // measure 21
1000
0000
0011
0000
1000
0200
0000
0000
,  // measure 22
1300
0001
0000
1100
0000
0002
0000
0000
,  // measure 23
1003
0100
1000
0000
1000
0000
1001
0000
,  // measure 24
0001
0010
0001
0000
0001
0000
1001
0000
,  // measure 25
2000
0000
0000
3100
0000
1100
0000
0000
,  // measure 26
0002
0000
0000
0013
0000
0011
0000
0000
,  // measure 27
1000
0000
0001
0200
0000
0010
0000
0320
,  // measure 28
0000
0000
1030
0000
0100
0010
0001
0000
,  // measure 29
2000
0000
0000
3010
0000
1010
0000
0000
,  // measure 30
0002
0000
0000
0103
0000
0101
0000
0000
,  // measure 31
1000
0000
0010
2000
0000
3001
0000
0110
,  // measure 32
0000
0000
1001
0000
0100
0010
1000
0000
,  // measure 33
0001
0100
1000
0100
,  // measure 34
0001
0010
1000
0010
,  // measure 35
0001
0100
0002
0000
0100
0000
0103
0000
,  // measure 36
0010
1000
0020
0000
1000
0000
1030
0000
,  // measure 37
0002
0013
0200
1300
,  // measure 38
2000
3100
0020
0031
,  // measure 39
0110
0000
0001
1000
0000
0110
0000
2002
,  // measure 40
0000
0000
3003
0000
0100
0010
0100
0010
,  // measure 41
0100
0000
0001
1000
0001
0000
0100
0000
,  // measure 42
0002
0013
0001
1001
,  // measure 43
1000
0000
0010
0100
0010
0000
1000
0000
,  // measure 44
0200
1300
0100
1001
,  // measure 45
1000
0000
0101
0000
1000
2000
0000
0000
,  // measure 46
3001
0001
0000
1010
0000
0002
0000
0000
,  // measure 47
1003
0000
0100
1000
0000
0001
0000
0100
,  // measure 48
0000
0010
1000
0010
0100
0000
0110
0000
,  // measure 49
1000
0000
1100
0000
1000
0100
1000
0000
,  // measure 50
0001
0010
0001
0000
0011
0000
0001
0000
,  // measure 51
1000
0100
0010
0000
0001
0000
0011
0000
,  // measure 52
0001
0010
0100
0000
1000
0000
1100
0000
,  // measure 53
0001
1000
0100
0000
0100
0000
0110
0000
,  // measure 54
0010
0001
1000
0000
1000
0000
1001
0000
,  // measure 55
0001
1000
0001
0000
0100
0010
0100
0000
,  // measure 56
0001
0010
1000
0100
,  // measure 57
0002
0003
2000
3000
,  // measure 58
0001
0000
0100
0010
0100
0000
0101
0000
,  // measure 59
1000
0100
0010
0000
0100
0000
1100
0000
,  // measure 60
0001
0100
0010
0000
0100
0000
0011
0000
,  // measure 61
1000
0000
0010
0100
0010
0000
1010
0000
,  // measure 62
0001
0000
1000
0000
0010
0200
0000
0010
,  // measure 63
0310
0100
0000
0001
0000
2000
0000
0001
,  // measure 64
3001
0001
1000
0000
1000
0000
1001
0000
,  // measure 65
0100
0100
0010
0000
0010
0000
0110
0000
,  // measure 66
0002
0000
0000
0000
,  // measure 67
0000
0000
0000
0000
,  // measure 68
0000
0000
0000
0003
;

//---------------dance-single - ----------------
#NOTES:
     dance-single:
     :
     Hard:
     8:
     0.589,0.593,0.451,0.258,0.055: // measure 1
0000
0000
0000
0000
,  // measure 2
0000
0000
0000
0000
,  // measure 3
0000
0000
0000
0000
,  // measure 4
0000
0000
0000
0000
,  // measure 5
1000
0100
0000
0001
0100
1000
0000
1000
,  // measure 6
0010
0001
0000
0010
1000
0000
1001
0000
,  // measure 7
0001
0100
0000
1000
0100
0001
0000
0001
,  // measure 8
0010
1000
0000
0010
0001
0000
1001
0000
,  // measure 9
0110
0000
0001
0010
0100
0010
0001
0010
,  // measure 10
0100
1010
0101
1001
,  // measure 11
0110
0000
1000
0100
0010
0100
1000
0100
,  // measure 12
0010
0011
1100
1001
,  // measure 13
1001
0000
0001
0100
0010
0200
0000
0000
,  // measure 14
0310
1000
0000
0011
0000
2010
0000
0000
,  // measure 15
3001
0010
0100
1000
0000
1100
0000
0101
,  // measure 16
0000
1000
0010
0100
0001
1000
0001
0000
,  // measure 17
1100
0000
0000
0001
0010
0000
0001
0000
0100
0000
0010
0000
1000
0000
0100
0000
,  // measure 18
1000
0100
0010
0001
0100
0010
1000
0001
,  // measure 19
0011
0000
0000
1000
0010
0000
1000
0000
0010
0000
0100
0000
0001
0000
0100
0000
,  // measure 20
0001
0100
0010
0100
0001
1000
0010
0100
,  // measure 21
1001
0000
0000
1000
0100
0000
1000
0000
0001
0000
0000
0100
0010
0000
0100
0000
,  // measure 22
0001
1000
0000
0110
0000
1001
0000
1000
,  // measure 23
0001
0010
1000
0010
0001
0100
0010
0100
,  // measure 24
0001
1000
0100
0010
0100
1000
0001
0000
,  // measure 25
2000
0000
3001
1100
0000
1010
0000
0000
,  // measure 26
0002
0000
1003
0011
0000
0101
0000
0000
,  // measure 27
1000
0100
0010
0001
0000
1001
0000
0110
,  // measure 28
0000
0001
0010
0100
1000
0000
1001
0000
,  // measure 29
0200
0000
0310
0101
0000
1100
0000
0000
,  // measure 30
0020
0000
0130
1010
0000
0011
0000
0000
,  // measure 31
0001
0100
1000
0100
0000
1001
0000
1001
,  // measure 32
0000
0010
0001
0010
1000
0000
0110
0000
,  // measure 33
0001
0010
0001
0010
0000
0010
0001
0000
,  // measure 34
1000
0100
1000
0100
0000
0100
1000
0000
,  // measure 35
0002
0000
1003
0200
0000
0310
0001
0000
,  // measure 36
2000
0000
3001
0020
0000
0130
1000
0000
,  // measure 37
0011
0000
1000
0200
0000
1300
0010
1000
,  // measure 38
1100
0000
0001
0020
0000
0031
0100
0001
,  // measure 39
0101
0000
1000
0001
0000
1010
0000
2002
,  // measure 40
0000
0000
0000
3003
0001
0100
0010
1000
,  // measure 41
0001
0100
0001
0010
0001
0100
0001
0010
,  // measure 42
0002
0000
1003
0100
2000
0000
3001
0000
,  // measure 43
1000
0010
1000
0100
1000
0010
1000
0100
,  // measure 44
2000
0000
3001
0010
0002
0000
1003
0000
,  // measure 45
0110
0000
0001
0010
0100
2000
0000
3100
,  // measure 46
0010
0001
0000
1001
0000
0110
0000
1000
,  // measure 47
0100
0001
0100
1000
0000
0110
0000
1001
,  // measure 48
0000
0001
0100
0010
0100
0001
0100
0010
,  // measure 49
1000
0000
0000
0001
0010
0000
0001
0000
1000
0000
0000
0000
0101
0000
0000
0000
,  // measure 50
1000
0100
0010
0000
0010
0100
1000
0001
,  // measure 51
0100
0000
0000
0010
0100
0000
0001
0000
0100
0000
0000
0000
0101
0000
0000
0000
,  // measure 52
1000
0100
0001
0200
0000
1300
0001
0010
,  // measure 53
0001
0000
0000
1000
0001
0000
0010
0000
0001
0000
0000
1000
0100
0000
1000
0000
,  // measure 54
0001
1000
0000
0110
0000
1001
0000
1000
,  // measure 55
0100
1000
0001
0020
0000
0031
0100
0000
,  // measure 56
0001
0010
0100
2000
0000
3010
1000
0000
,  // measure 57
0020
0000
0200
0330
,  // measure 58
1000
0000
0000
0001
0010
0000
0100
0000
1000
0000
0010
0000
1000
0000
0001
0000
,  // measure 59
1000
0100
0010
0100
0001
0100
0010
0200
,  // measure 60
0000
0000
1300
0010
1000
0000
0100
0000
0010
0000
0001
0000
1000
0000
0010
0000
,  // measure 61
0100
0001
1000
0010
0001
0010
1000
0002
,  // measure 62
0000
0000
0000
1003
0100
0000
1000
0000
0010
0000
0000
0100
0001
0000
0010
0000
,  // measure 63
0001
1000
0100
0010
0100
1000
0001
0000
,  // measure 64
1000
0100
0010
0100
1000
0100
0010
0001
,  // measure 65
0100
0010
1000
0001
0100
0010
1000
0000
,  // measure 66
2002
0000
0000
0000
,  // measure 67
0000
0000
0000
0000
,  // measure 68
0000
0000
0000
3003
;

//---------------dance-single - ----------------
#NOTES:
     dance-single:
     :
     Challenge:
     9:
     0.714,0.655,0.267,0.295,0.216: // measure 1
0000
0000
0000
0000
,  // measure 2
0000
0000
0000
0000
,  // measure 3
0000
0000
0000
0000
,  // measure 4
0000
0000
0000
0000
,  // measure 5
1001
0000
0000
1000
0100
0000
1000
0000
0100
0000
0010
0000
0001
0000
0100
0000
,  // measure 6
0110
0000
0000
0100
0001
0000
1000
0000
0010
0000
1000
0000
0001
0000
1000
0000
,  // measure 7
1001
0000
0000
0001
0100
0000
0010
0000
0100
0000
0001
0000
1000
0000
0010
0000
,  // measure 8
0110
0000
0000
0010
1000
0000
0001
0000
0100
0000
0001
0000
1000
0000
0000
0000
,  // measure 9
0001
0010
0001
0100
0001
1000
0001
0020
,  // measure 10
0000
0130
0010
0001
1000
0100
0010
0001
,  // measure 11
1000
0100
1000
0010
1000
0001
1000
0200
,  // measure 12
0000
0310
0100
1000
0001
0010
0100
1000
,  // measure 13
0001
1000
0010
1000
0001
0100
0101
0000
,  // measure 14
1000
0001
0100
0001
1000
0010
1010
0000
,  // measure 15
0001
0100
1000
0100
0001
0010
1000
0010
,  // measure 16
0001
0000
1000
0100
1000
0100
1000
0000
0001
0000
1000
0000
0100
0000
0010
0000
,  // measure 17
0001
0000
1000
0100
1000
0000
0001
0000
0200
0000
0000
0000
0301
0000
0010
0000
,  // measure 18
0001
0000
0100
0010
0100
0000
0001
0000
1000
0000
0010
0000
0100
0000
0002
0000
,  // measure 19
0000
0000
1003
0100
1000
0100
1000
0000
0001
0000
0010
0000
0100
0000
0010
0000
,  // measure 20
0001
1000
0010
1000
0001
0100
0010
2000
,  // measure 21
0000
0000
3001
0010
0001
0000
0100
0000
0010
0000
1000
0100
1000
0000
0001
0000
,  // measure 22
0010
0100
0010
0001
1000
0100
0010
0001
,  // measure 23
1000
0000
0100
0000
1000
0000
0001
0010
0001
0000
1000
0000
0100
0000
1000
0000
,  // measure 24
0001
0000
0100
0000
0010
0000
0100
0000
0001
1000
0001
0000
1000
0000
0100
0000
,  // measure 25
1000
0100
1000
0200
0000
1300
1100
0000
,  // measure 26
0010
0001
0010
0002
0000
0013
0011
0000
,  // measure 27
1000
0001
1000
0011
0000
1100
0000
1001
,  // measure 28
0000
0000
0100
0010
0100
0000
0001
0000
0100
0000
0010
0000
1000
0000
0001
0000
,  // measure 29
0100
0001
0100
0002
0000
0103
0101
0000
,  // measure 30
1000
0010
1000
0020
0000
1030
1010
0000
,  // measure 31
0001
0100
0010
1010
0000
0101
0000
0110
,  // measure 32
0000
0000
0001
1000
0001
0000
1000
0000
0100
0000
0010
0000
0100
0000
1000
0000
,  // measure 33
0001
0100
1000
0200
0000
0301
0010
0100
,  // measure 34
1000
0010
0001
0020
0000
1030
0100
0010
,  // measure 35
0001
0010
1000
0020
0000
0031
0100
0010
,  // measure 36
1000
0100
0001
0200
0000
1300
0100
0010
,  // measure 37
0001
0010
0001
0100
0010
0100
0001
0010
,  // measure 38
0100
1000
0010
1000
0100
1000
0010
1000
,  // measure 39
0001
0010
0100
1001
0000
0110
0000
1001
,  // measure 40
0000
0000
1000
0001
1000
0001
1000
0000
0001
0000
0010
0000
0100
0000
1000
0000
,  // measure 41
0001
0000
0100
0010
0100
0000
0001
0000
0010
0000
0100
0000
1000
0000
0001
0000
,  // measure 42
0000
1000
0001
0000
0100
0000
0010
0000
1000
0000
0001
0000
0100
0000
0010
0000
,  // measure 43
1000
0000
0010
0100
0010
0000
1000
0000
0010
0000
0100
0000
0001
0000
1000
0000
,  // measure 44
0000
0001
1000
0000
0100
0000
0010
0000
0100
0000
1000
0000
0001
0000
0100
0000
,  // measure 45
0010
1000
0001
0100
0001
0101
0000
1000
,  // measure 46
0010
1010
0000
1001
0000
0110
0000
1000
,  // measure 47
0100
0010
0001
1001
0000
0110
0000
1001
,  // measure 48
0000
0000
0100
0010
0100
0010
0100
0000
0001
0000
1000
0000
0010
0000
0100
0000
,  // measure 49
0002
0000
0000
0000
1003
0010
1000
0000
0010
0000
0000
0000
1100
0000
0000
0000
,  // measure 50
0001
0010
0001
0010
0001
0000
0000
0000
1000
0000
0001
0000
0100
0000
0020
0000
,  // measure 51
0000
0000
0000
0000
1030
0100
1000
0000
0001
0000
0000
0000
0011
0000
0000
0000
,  // measure 52
1000
0000
0100
0000
0010
0000
0001
1000
0001
0000
0100
0000
0010
0000
2000
0000
,  // measure 53
0000
0000
0000
0000
3001
0010
0001
0000
0020
0000
0000
0000
0130
1000
0100
0000
,  // measure 54
1000
0001
1000
0001
0000
0110
0000
1000
,  // measure 55
0001
0010
0001
0000
0100
0000
0010
0000
0100
0000
0001
0000
1000
0000
0010
0000
,  // measure 56
1000
0100
1000
0000
0010
0000
0100
0000
0001
0000
1000
0000
0100
0000
1000
0000
,  // measure 57
0002
0203
0320
2030
,  // measure 58
3001
0000
0100
0010
0100
0000
0001
0000
1000
0000
0100
0000
0001
0000
0100
0000
,  // measure 59
1000
0000
0010
0100
0010
0100
0010
0000
1000
0000
0001
0000
0010
0000
1000
0000
,  // measure 60
0010
0000
0001
1000
0001
1000
0001
0000
1000
0000
0100
0000
0010
0000
0100
0000
,  // measure 61
1000
0100
0010
0001
0100
0010
1000
0002
,  // measure 62
0000
0000
1003
0100
1000
0000
0001
0000
0100
0000
0001
0000
0010
0001
0010
0000
,  // measure 63
0001
1000
0010
0100
0001
0010
0100
1000
,  // measure 64
0001
0000
0100
0010
0100
0000
0001
0000
0100
0000
0001
1000
0001
0000
0100
0000
,  // measure 65
0001
0000
1000
0001
1000
0001
1000
0000
0001
0000
0010
0000
0100
0000
1000
0000
,  // measure 66
0002
0000
0203
0000
0320
0000
0000
0230
,  // measure 67
0000
0000
0000
0000
0000
0000
0302
0000
0000
0000
0000
0000
0000
0000
0000
0000
2003
0000
0000
0000
0000
0000
0000
0000
0000
0000
0000
3200
0000
0000
0000
0000
0000
0000
0000
0000
0000
0000
0000
0000
0000
0000
0000
0000
0000
0000
0000
0000
,  // measure 68
0000
0320
0000
0000
0230
0000
0000
0000
2300
0000
0000
0000
3000
0000
0000
0000
;
