#TITLE:key plus words;
#SUBTITLE:;
#ARTIST:Shihoko Hirata feat. Yumi Kawamura;
#TITLETRANSLIT:;
#SUBTITLETRANSLIT:;
#ARTISTTRANSLIT:;
#GENRE:P4A;
#CREDIT:AznPunk07/Frozen_Heat/GuardianFrozen;
#MENUCOLOR:#ffe706;
#METERTYPE:DDR;
#BANNER:key plus words-bn.png;
#BACKGROUND:key plus words-bg.png;
#LYRICSPATH:;
#CDTITLE:!cdtitle.png;
#MUSIC:key plus words.mp3;
#OFFSET:1.256;
#SAMPLESTART:22.200;
#SAMPLELENGTH:11.020;
#SELECTABLE:YES;
#LISTSORT:;
#BPMS:0.000=174.000;
#STOPS:;
#BGCHANGES:0.875=[Week 11] - key plus words.avi=1.000=1=0=1,
99999=-nosongbg-=1.000=0=0=0 // don't automatically add -songbackground-
;
#ATTACKS:;

//---------------dance-single - ----------------
#NOTES:
     dance-single:
     :
     Hard:
     8:
     0.663,0.653,0.347,0.425,0.034: // measure 1
0000
0000
0000
0000
,  // measure 2
1000
0100
0000
0010
0000
0010
0000
0011
,  // measure 3
0000
1001
0000
0000
0000
0000
0000
0000
,  // measure 4
0001
0100
0000
0010
1000
0010
0000
0100
,  // measure 5
0001
0100
0000
1010
0000
0110
0000
0000
,  // measure 6
0001
0010
0000
0100
0000
0100
0000
1100
,  // measure 7
0000
1001
0000
0000
0000
0000
0000
0000
,  // measure 8
1000
0100
0000
0010
0100
1000
0000
0100
,  // measure 9
0010
0001
0010
0100
0000
0110
0000
0010
,  // measure 10
0001
1000
0000
0101
0000
1000
0000
0001
,  // measure 11
0000
0011
0000
0000
0100
1000
0010
2000
,  // measure 12
0100
3100
0000
0020
0001
0031
0000
0200
,  // measure 13
0010
0310
0000
0002
0000
0103
0000
0010
,  // measure 14
0001
0100
0000
1010
0000
0100
0000
0001
,  // measure 15
0000
1100
0000
0000
1000
0010
0100
0002
,  // measure 16
0100
0103
0000
0020
1000
1030
0000
0200
,  // measure 17
0010
0000
0310
0000
0001
0000
0010
0000
0000
0000
0100
0000
1000
0001
1000
0000
,  // measure 18
0200
0000
1300
0020
0000
0100
0000
2030
,  // measure 19
0000
0001
0000
3001
0010
0001
0000
1000
,  // measure 20
0010
0010
0000
0100
0001
0010
0000
0100
,  // measure 21
0100
1000
0100
0010
0100
1000
0000
0010
,  // measure 22
2000
0000
3010
0200
0000
0010
0000
0302
,  // measure 23
0000
0010
0000
1003
0010
1000
0000
0001
,  // measure 24
0010
0001
0000
1000
1000
0100
0000
0010
,  // measure 25
0100
1000
0000
1100
0000
0010
0001
0010
,  // measure 26
0100
0100
0000
0010
0000
0001
1000
0000
,  // measure 27
0010
0010
0000
0100
0000
0001
1000
0000
,  // measure 28
0001
0010
0000
0011
0000
0110
0000
1100
,  // measure 29
0000
1001
0000
1000
0010
1000
0001
0000
,  // measure 30
1000
0100
1000
0100
1000
0000
0001
0100
,  // measure 31
0001
0100
0001
0000
0010
0100
0010
0000
,  // measure 32
0001
0010
0100
1000
0100
0000
0010
0100
,  // measure 33
1100
0000
0110
0000
0011
1000
0001
1000
,  // measure 34
0020
0000
1030
0200
0000
1300
0002
0000
,  // measure 35
0013
0200
0000
1300
0002
0000
0103
0020
,  // measure 36
0000
0130
2000
0000
3100
0002
0000
1003
,  // measure 37
0100
0000
0000
0001
0100
0000
0001
0000
,  // measure 38
1100
0000
0011
0000
1100
0000
0010
0001
,  // measure 39
0100
0001
0010
0000
0001
0100
0001
0000
,  // measure 40
1010
0100
2010
0001
,  // measure 41
3200
0000
0010
0000
2300
0000
3001
0100
,  // measure 42
0010
0100
0001
0100
0010
1000
0100
1000
,  // measure 43
0010
0000
0000
0010
1000
0000
0000
1000
0100
0000
0000
0100
0010
0000
0000
0010
,  // measure 44
0001
0000
0001
0100
0000
0001
1000
0000
,  // measure 45
0001
0010
0100
0010
0001
1000
0000
1000
,  // measure 46
0010
0100
0001
0000
0010
0100
1000
0001
,  // measure 47
0000
1000
0010
0000
0100
0001
1000
0001
,  // measure 48
0010
0100
0021
0100
,  // measure 49
2030
0000
3010
0000
0001
0100
0001
0000
,  // measure 50
1000
0010
0100
0010
1000
0000
0001
0010
,  // measure 51
0000
0001
1000
0001
0100
0000
0010
0010
,  // measure 52
1000
0100
0010
0000
0200
0000
2300
0000
,  // measure 53
3002
0103
0002
0023
,  // measure 54
0031
1000
0100
0000
0010
0000
0100
1000
,  // measure 55
0000
0001
0000
0100
0000
0001
0010
0100
,  // measure 56
1000
0000
1000
0100
0000
0100
1000
0100
,  // measure 57
0010
0000
0011
0000
0100
1000
0000
0001
,  // measure 58
0100
0001
0000
1010
0000
0101
0000
2000
,  // measure 59
0000
3002
0000
0000
0000
0000
0000
0000
,  // measure 60
1003
0100
0000
0010
0001
0010
0000
0100
,  // measure 61
1000
0100
0010
0001
0000
1001
0000
1000
,  // measure 62
0010
1000
0000
0101
0000
1010
0000
0001
,  // measure 63
0000
2000
0000
0010
0000
3001
0010
0200
,  // measure 64
1000
1300
0000
0020
0100
0130
0000
0002
,  // measure 65
0010
0000
0013
0000
0100
0000
0020
0000
0000
0000
0130
0000
1000
0001
1000
0000
;

//---------------dance-single - ----------------
#NOTES:
     dance-single:
     :
     Medium:
     6:
     0.514,0.544,0.123,0.380,0.000:
0000
0000
0000
0000
,
2000
3000
0000
0001
0000
0001
0000
1000
,
0000
1000
0000
0000
0000
0000
0000
0000
,
0002
0000
0003
1000
0020
0000
0030
1000
,
0200
0000
0300
1000
0000
1000
0000
0000
,
0002
0003
0000
1000
0000
1000
0000
0001
,
0000
0001
0000
0000
0000
0000
0000
0000
,
2000
0100
3000
0000
2000
0010
3000
0000
,
2000
0001
3000
0001
0000
0001
0000
0000
,
1000
0100
0000
0010
0000
0100
0000
1000
,
0000
1000
0000
0000
0000
0000
0000
0000
,
0001
0100
0000
0001
0010
0001
0000
0000
,
0001
0100
0000
0001
0000
0001
0000
0000
,
0010
0001
0000
1000
0000
1000
0000
0010
,
0000
0100
0000
0000
0000
0000
0000
0000
,
0010
1000
0000
0100
1000
0100
0000
1000
,
0010
1000
0000
0100
0000
0010
0000
0001
,
1000
0000
0010
0100
0000
0001
0000
1000
,
0000
0100
0000
0010
0100
1000
0000
0000
,
1000
0010
0000
0000
0010
0100
0000
0000
,
0100
0001
0000
1000
0000
0001
0000
0000
,
0010
0000
0010
0001
0000
0001
0000
1000
,
0000
1000
0000
0010
1000
0010
0000
0000
,
0010
0100
0000
0000
0100
0001
0000
0000
,
0001
1000
0000
0001
0000
1000
0100
0000
,
0010
0100
0000
1000
0000
0100
0010
0000
,
0001
0100
0000
1000
0000
0100
0001
0000
,
0010
0100
0000
1000
0000
0001
0000
0100
,
0000
0010
1000
0000
0001
0000
1000
0000
,
0101
0000
0010
0000
1000
0000
0001
1000
,
0001
1000
1100
0010
,
0001
0000
1000
0100
1000
0000
0010
1000
,
0020
0230
0302
2003
,
3001
0000
0001
0010
0000
0010
0100
0000
,
0100
1000
0000
1000
0010
0000
0010
0100
,
0000
0100
0001
0000
0001
1000
0000
1000
,
0002
0000
0000
2000
0000
3003
0000
0000
,
0001
0000
0100
0000
0101
0000
0010
1000
,
0000
1000
0100
0000
0010
0001
0000
0001
,
0100
0010
0100
0000
0002
0000
0023
0000
,
0230
1300
2000
3200
,
1300
0000
0001
0010
0100
0000
0010
0000
,
0011
0110
0011
1000
,
0101
0000
0001
1000
0000
1000
0001
0000
,
1000
0100
0010
0000
0100
1000
0000
1000
,
0100
0010
0100
0000
1000
0000
0001
1000
,
0000
1000
0001
0000
0100
0010
0100
0000
,
0001
0010
0100
0000
0020
0000
0032
0000
,
2003
3020
0230
0302
,
1003
0000
1010
0000
1001
0000
0010
0100
,
0000
0110
0000
0100
0001
0000
1000
0000
,
0100
0010
0100
0000
2000
0000
3002
0000
,
0203
0000
0320
2030
,
3001
0100
0010
0000
1000
0000
0100
1000
,
0000
0001
0000
1000
0000
0001
0100
0001
,
0010
0000
0010
0001
0000
0001
0010
0100
,
1000
0000
1000
0000
1000
0001
0000
0001
,
1000
0002
0000
0100
0000
0100
0000
0010
,
0000
0023
0000
0000
0000
0000
0030
0000
,
0100
1000
0000
0000
0100
0010
0000
0000
,
0100
0001
0000
0100
0000
0110
0000
1000
,
0001
2000
0000
0010
0000
0010
0000
0100
,
0000
3200
0000
0000
0000
0000
0300
0000
,
0010
0001
0000
0000
0001
1000
0000
0000
,
1000
0010
0000
0010
0000
0100
0010
0100
;

//---------------dance-single - ----------------
#NOTES:
     dance-single:
     :
     Beginner:
     2:
     0.131,0.179,0.000,0.000,0.000:
0000
0000
0000
0000
,
1000
0000
0000
0000
,
0000
0000
0000
0000
,
0001
0000
0001
0000
,
0001
0000
0000
0000
,
1000
0000
0000
0000
,
0000
0000
0000
0000
,
0001
0000
0001
0000
,
0001
0000
0000
0000
,
0010
0000
0000
0000
,
0000
0000
0000
0000
,
0100
0000
0100
0000
,
0100
0000
0000
0000
,
0010
0000
0000
0000
,
0000
0000
0000
0000
,
0100
0000
0100
0000
,
0100
0000
0000
0000
,
1000
0000
0000
0000
,
0010
0000
0000
0000
,
0100
0000
0000
0000
,
0001
0000
0000
0000
,
0010
0000
0000
0000
,
0100
0000
0000
0000
,
1000
0000
0000
0000
,
0001
0000
0000
0000
,
0100
0100
0000
0000
,
0000
0000
0000
0000
,
0010
0010
0000
0000
,
0000
0000
0000
0000
,
1000
0000
0000
0000
,
1000
0000
0000
0000
,
0001
0000
0000
0000
,
0001
0000
0000
0000
,
1000
0000
1000
0000
,
1000
0000
1000
0000
,
1000
0000
1000
0000
,
1000
0000
0000
0000
,
0001
0001
0001
0000
,
0000
0000
0000
0000
,
0010
0010
0010
0000
,
0000
0000
0000
0000
,
0100
0100
0100
0000
,
0000
0000
0000
0000
,
1000
1000
1000
0000
,
0000
0000
0000
0000
,
0001
0001
0000
0000
,
1000
1000
0000
0000
,
0001
0001
0000
0000
,
1000
1000
0000
0000
,
0100
0100
0000
0000
,
0010
0010
0000
0000
,
0100
0100
0000
0000
,
0010
0010
0000
0000
,
0001
0000
0001
0000
,
0001
0000
0000
0000
,
1000
0000
0000
0000
,
1000
1000
1000
0000
,
0010
0000
0000
0000
,
0000
0000
0000
0000
,
0100
0000
0100
0000
,
0100
0000
0000
0000
,
0001
0000
0000
0000
,
0000
0000
0000
0000
,
1000
0000
1000
0000
,
1000
0000
0000
0000
;

//---------------dance-single - ----------------
#NOTES:
     dance-single:
     :
     Easy:
     4:
     0.412,0.615,0.011,0.794,0.000:
0000
0000
0000
0000
,
0001
0000
0000
0000
,
0010
0000
0000
0000
,
0002
0000
0203
0000
,
0302
0000
0003
0000
,
1000
0000
0000
0000
,
0010
0000
0000
0000
,
2000
0000
3200
0000
,
2300
0000
3000
0000
,
0001
0010
0100
0010
,
0001
1000
0001
0000
,
2000
0000
3002
0000
,
2003
0000
3001
0000
,
1000
0100
0010
0100
,
1000
0001
1000
0000
,
0002
0000
2003
0000
,
3002
0000
1003
0000
,
0001
0010
0100
0000
,
0010
0000
0001
0000
,
1000
0100
0010
0000
,
0001
0000
1000
0000
,
0001
0100
0010
0000
,
1000
0000
0001
0000
,
1000
0010
0100
0000
,
0001
0000
1000
0100
,
0010
0000
0100
0010
,
0001
0000
1000
0000
,
0001
0010
0100
0000
,
0010
0100
1000
0100
,
0010
0010
0001
0000
,
1000
1000
0010
1000
,
0001
0001
0100
0000
,
0001
0010
0100
1000
,
0002
0000
0003
2000
,
0000
3000
0020
0000
,
0030
0200
0000
0300
,
0001
0000
1000
0001
,
2000
3200
0320
0230
,
2300
3002
1003
1000
,
0001
0010
0200
0320
,
0032
1003
0002
0203
,
0310
0010
0100
0002
,
0023
0230
2300
3002
,
2003
0000
3000
0002
0000
0003
0000
0000
,
1001
0000
0001
0010
,
0200
0320
0032
2003
,
3002
0023
0130
0100
,
1000
0001
2000
3020
,
0230
0320
2030
3002
,
2003
3200
0320
0032
,
2003
3002
0103
0100
,
0010
1000
0002
0023
,
0230
0310
0002
2003
,
3020
2030
3002
0203
,
0302
2003
3100
0020
,
0230
1300
0001
2000
,
3002
0203
0320
0030
,
2000
0000
0000
0001
0000
0001
0000
0001
,
0000
3001
0000
0000
0000
0000
0000
0000
,
0001
0010
0100
0000
,
0010
0100
1000
0000
,
0002
0000
0000
1000
0000
1000
0000
1000
,
0000
1003
0000
0000
0000
0000
0000
0000
,
1000
0100
0010
0001
,
0100
0010
1000
0001
;
