#TITLE:Ready to Go;
#SUBTITLE:;
#ARTIST:fen;
#TITLETRANSLIT:;
#SUBTITLETRANSLIT:;
#ARTISTTRANSLIT:;
#GENRE:;
#CREDIT:Meseki;
#MENUCOLOR:0.0,1.0,0.75,1.0;
#BANNER:Ready to Go-bn.png;
#BACKGROUND:Ready to Go-bg.png;
#LYRICSPATH:;
#CDTITLE:cdtitle.png;
#MUSIC:Ready to Go.ogg;
#OFFSET:-0.349;
#SAMPLESTART:58.934;
#SAMPLELENGTH:16.744;
#SELECTABLE:YES;
#LISTSORT:;
#BPMS:0.000=172.000;
#STOPS:;
#TICKCOUNT:0.000=2;
#BGCHANGES:;
#KEYSOUNDS:;
#ATTACKS:;

//---------------dance-single - ----------------
#NOTES:
     dance-single:
     :
     Medium:
     5:
     0.254,0.325,0.020,0.122,0.000: // measure 1
0000
0000
0000
0000
,  // measure 2
0000
0000
0000
0000
,  // measure 3
0000
0000
0000
0000
,  // measure 4
0000
0000
0000
0000
,  // measure 5
0000
0000
0000
1000
,  // measure 6
0000
0100
0000
0000
0000
0000
0010
0000
,  // measure 7
0000
0001
0000
0000
0000
0000
0100
0000
,  // measure 8
0000
0010
0000
0000
0000
2000
0000
0000
,  // measure 9
0000
0000
3000
0001
,  // measure 10
0000
0100
0000
0000
0001
0000
0000
0000
,  // measure 11
1000
0000
0100
1000
0000
0000
0000
0000
,  // measure 12
0100
0000
0010
0100
0000
0000
0000
0000
,  // measure 13
0010
0000
0001
0010
0000
0000
0000
0000
,  // measure 14
0100
0000
0000
2000
0000
0000
3000
0010
,  // measure 15
1000
0000
0000
0010
0000
0000
0000
0000
,  // measure 16
0100
0000
0001
0100
0000
0000
0000
0000
,  // measure 17
0001
0000
0010
0001
0000
0000
0000
0000
,  // measure 18
1000
0000
0000
0020
0000
0000
0030
0100
,  // measure 19
0010
0000
0000
1000
0000
0000
0000
0000
,  // measure 20
0001
0000
0010
0001
0000
0000
0000
0000
,  // measure 21
0100
0000
0010
0100
0000
0000
0000
0000
,  // measure 22
0010
0000
0000
2000
0000
0000
3000
0001
,  // measure 23
1000
0000
0000
0200
0000
0000
0300
0000
,  // measure 24
0001
0000
0000
0200
0000
0000
0300
0000
,  // measure 25
0010
0000
0000
0002
0000
0000
0003
0000
,  // measure 26
1000
0000
0000
0010
0000
0000
0100
0000
,  // measure 27
0001
0000
0000
0000
0010
0000
0000
0100
,  // measure 28
0000
0000
1000
0000
0000
0001
0000
0000
,  // measure 29
0100
0000
0000
0100
0000
0000
0100
0000
,  // measure 30
0000
0100
0000
0000
0100
0000
0000
0000
,  // measure 31
0010
0000
1000
0010
0000
0000
1000
0000
,  // measure 32
0000
0010
0000
0100
0010
0000
0000
0100
,  // measure 33
0000
0000
0001
0000
0100
0001
0000
0000
,  // measure 34
1000
0000
0000
0001
0000
0000
1000
0001
,  // measure 35
1000
0000
0000
0000
0010
0000
0000
0100
,  // measure 36
0000
0000
0001
0000
0000
0010
0000
0000
,  // measure 37
0100
0000
0000
0100
0000
0000
0100
0000
,  // measure 38
0000
0100
0000
0000
0100
0000
0000
0000
,  // measure 39
1000
0000
0000
0010
0000
0000
0100
0000
,  // measure 40
0001
0000
0000
0010
0000
0000
0100
0000
,  // measure 41
0010
0001
0000
1000
0000
0000
0001
0000
,  // measure 42
0200
0000
0000
0320
0000
0000
1030
0000
,  // measure 43
1001
0000
0001
0000
0100
0001
0000
0010
,  // measure 44
0000
0100
0000
0000
0000
0000
1000
0000
,  // measure 45
0100
0000
0010
0000
0100
0010
0000
0002
,  // measure 46
0000
0003
0100
0001
0000
0000
0000
1000
,  // measure 47
0000
0000
0010
0000
0100
0010
0000
1000
,  // measure 48
0000
0001
0000
0000
0000
0000
0010
0000
,  // measure 49
0100
0000
1000
0000
0010
1000
0000
0001
,  // measure 50
0000
0000
0000
0100
0000
0000
0000
1000
,  // measure 51
0000
0000
0100
0000
0010
0100
0000
0001
,  // measure 52
0000
0010
0000
0000
0100
0000
0010
0000
,  // measure 53
0100
0000
1000
0000
0001
1000
0000
0020
,  // measure 54
0000
0030
0100
0010
0000
0000
0000
1000
,  // measure 55
0001
0010
0001
0010
,  // measure 56
0100
1000
0100
1000
,  // measure 57
0010
0100
0010
0000
1000
0001
1000
0000
,  // measure 58
1002
0000
0000
0000
,  // measure 59
0103
0000
0000
0000
;

//---------------dance-single - ----------------
#NOTES:
     dance-single:
     :
     Easy:
     3:
     0.184,0.266,0.000,0.133,0.000: // measure 1
0000
0000
0000
0000
,  // measure 2
0000
0000
0000
0000
,  // measure 3
0000
0000
0000
0000
,  // measure 4
0000
0000
0000
0000
,  // measure 5
0000
0000
0000
1000
,  // measure 6
0000
0000
0000
0001
,  // measure 7
0000
0000
0000
0010
,  // measure 8
0000
0000
0000
0000
0000
0001
0000
0000
,  // measure 9
0000
0000
0000
1000
,  // measure 10
0000
0000
0000
0000
,  // measure 11
0010
0000
0000
1000
0000
0000
0000
0000
,  // measure 12
0001
0000
0000
0010
0000
0000
0000
0000
,  // measure 13
0100
0000
0000
1000
0000
0000
0000
0000
,  // measure 14
0001
0000
0000
0200
0000
0000
0300
0000
,  // measure 15
0010
0000
0000
1000
0000
0000
0000
0000
,  // measure 16
0001
0000
0000
0010
0000
0000
0000
0000
,  // measure 17
0100
0000
0000
1000
0000
0000
0000
0000
,  // measure 18
0001
0000
0000
2000
0000
0000
3000
0000
,  // measure 19
0010
0000
0000
0100
0000
0000
0000
0000
,  // measure 20
0001
0000
0000
0100
0000
0000
0000
0000
,  // measure 21
0001
0000
0000
0010
0000
0000
0000
0000
,  // measure 22
0100
0000
0000
0020
0000
0000
0030
0000
,  // measure 23
0001
0000
0000
0200
0000
0300
0000
0000
,  // measure 24
0010
0000
0000
2000
0000
3000
0000
0000
,  // measure 25
0100
0000
0000
0002
0000
0003
0000
0000
,  // measure 26
0100
0000
0000
1000
0000
0000
0010
0000
,  // measure 27
1000
0000
0000
0000
0001
0000
0000
1000
,  // measure 28
0000
0000
0010
0000
0000
1000
0000
0000
,  // measure 29
0200
0000
0000
0000
,  // measure 30
0000
0000
0300
0000
,  // measure 31
0010
0000
0000
0001
0000
0000
0010
0000
,  // measure 32
0000
0001
0000
0000
0100
0000
0000
0001
,  // measure 33
0000
0000
0100
0000
0000
0010
0000
0000
,  // measure 34
0100
0000
0000
0010
0000
0000
1000
0000
,  // measure 35
0001
0000
0000
0000
0010
0000
0000
0100
,  // measure 36
0000
0000
1000
0000
0000
0100
0000
0000
,  // measure 37
2000
0000
0000
0000
,  // measure 38
0000
0000
3000
0000
,  // measure 39
0100
0000
0000
1000
0000
0000
0100
0000
,  // measure 40
0100
0000
0000
0010
0000
0000
0001
0000
,  // measure 41
0001
0000
0000
1000
0000
0000
0001
0000
,  // measure 42
0200
0000
0300
0020
0000
0030
1000
0000
,  // measure 43
0001
0000
0100
0000
0001
0000
0000
1000
,  // measure 44
0000
0010
0000
0000
0000
0000
0000
0000
,  // measure 45
1000
0000
0100
0000
1000
0000
0000
0002
,  // measure 46
0000
0003
0000
0010
0000
0000
0000
0100
,  // measure 47
0000
0000
1000
0000
0010
0000
0000
0100
,  // measure 48
0000
0001
0000
0000
0000
0000
0000
0000
,  // measure 49
0000
0000
0010
0000
0100
0000
0000
1000
,  // measure 50
0000
0000
0000
0010
0000
0000
0000
0100
,  // measure 51
0000
0000
0001
0000
0010
0000
0000
0001
,  // measure 52
0000
0100
0000
0000
0000
0000
0000
0000
,  // measure 53
0000
0000
0010
0000
1000
0000
0000
0002
,  // measure 54
0000
0003
0000
0010
0000
0000
0000
0100
,  // measure 55
0000
1000
0100
0000
,  // measure 56
1000
0010
1000
0000
,  // measure 57
0001
0100
0001
0100
,  // measure 58
0020
0000
0000
0000
,  // measure 59
1030
0000
0000
0000
;

//---------------dance-single - ----------------
#NOTES:
     dance-single:
     :
     Beginner:
     1:
     0.086,0.148,0.010,0.041,0.000: // measure 1
0000
0000
0000
0000
,  // measure 2
0000
0000
0000
0000
,  // measure 3
0000
0000
0000
0000
,  // measure 4
0000
0000
0000
0000
,  // measure 5
0000
0000
0000
1000
,  // measure 6
0000
0000
0000
0100
,  // measure 7
0000
0000
0000
0010
,  // measure 8
0000
0000
0000
0000
0000
0001
0000
0000
,  // measure 9
0000
0000
0000
0000
,  // measure 10
0000
0000
0000
0000
,  // measure 11
1000
0000
0000
0000
,  // measure 12
0010
0000
0000
0000
,  // measure 13
0100
0000
0000
0000
,  // measure 14
0001
0000
0000
0000
,  // measure 15
1000
0000
0000
0000
,  // measure 16
0100
0000
0000
0000
,  // measure 17
0010
0000
0000
0000
,  // measure 18
0001
0000
0000
0000
,  // measure 19
0100
0000
0000
0000
,  // measure 20
0010
0000
0000
0000
,  // measure 21
0100
0000
0000
0000
,  // measure 22
0001
0000
0000
0000
,  // measure 23
2000
0000
0000
3000
0000
0000
0000
0000
,  // measure 24
0200
0000
0000
0300
0000
0000
0000
0000
,  // measure 25
0020
0000
0000
0030
0000
0000
0000
0000
,  // measure 26
0001
0000
0000
0000
,  // measure 27
1000
0000
1000
0000
,  // measure 28
0000
0010
0000
0000
,  // measure 29
0100
0000
0000
0000
,  // measure 30
0000
0000
0000
0000
,  // measure 31
0001
0000
0000
0100
,  // measure 32
0000
0000
0010
0000
,  // measure 33
0000
1000
0000
0000
,  // measure 34
0100
0000
0000
0010
,  // measure 35
0000
0000
0001
0000
,  // measure 36
0000
0100
0000
0000
,  // measure 37
0010
0000
0000
0000
,  // measure 38
0000
0000
0000
0000
,  // measure 39
1000
0000
0000
0000
,  // measure 40
0100
0000
0000
0000
,  // measure 41
0010
0000
0000
0000
,  // measure 42
0001
0000
0000
0000
,  // measure 43
1000
0000
0000
0000
0000
0000
0000
0010
,  // measure 44
0000
0000
0000
0000
,  // measure 45
0000
0000
1000
0000
0000
0000
0000
0001
,  // measure 46
0000
0000
0000
0000
,  // measure 47
0000
0000
0010
0000
0000
0000
0000
0001
,  // measure 48
0000
0000
0000
0000
,  // measure 49
0000
0000
0100
0000
0000
0000
0000
0010
,  // measure 50
0000
0000
0000
0000
,  // measure 51
0000
0000
1000
0000
0000
0000
0000
0100
,  // measure 52
0000
0000
0000
0000
,  // measure 53
0000
0000
0010
0000
0000
0000
0000
0001
,  // measure 54
0000
0000
0000
0000
,  // measure 55
1001
0000
0000
0000
,  // measure 56
1000
0000
0000
0000
,  // measure 57
0001
0000
1000
0000
,  // measure 58
0002
0000
0000
0000
,  // measure 59
0003
0000
0000
0000
;

//---------------dance-single - ----------------
#NOTES:
     dance-single:
     :
     Hard:
     7:
     0.354,0.414,0.031,0.214,0.005: // measure 1
0000
0000
0000
0000
,  // measure 2
0000
0000
0000
0000
,  // measure 3
0000
0000
0000
0000
,  // measure 4
0000
0000
0000
0000
,  // measure 5
0000
0000
0000
0000
0000
0000
1000
0100
,  // measure 6
1000
0100
0000
0000
0000
0000
0010
0100
,  // measure 7
0010
0100
0000
0000
0000
0000
0010
0001
,  // measure 8
0010
0001
0000
0000
0000
2000
0000
0000
,  // measure 9
0000
0000
3000
0001
,  // measure 10
0100
0010
0000
0000
1000
0001
1000
0000
,  // measure 11
0100
0010
0001
0010
0000
0000
0000
0000
,  // measure 12
0100
1000
0010
1000
0000
0000
0000
0000
,  // measure 13
0010
0100
0001
0010
0000
0000
0000
0000
,  // measure 14
0001
0000
1000
0020
0000
0100
0030
0100
,  // measure 15
0001
0100
0010
1000
0000
0000
0000
0000
,  // measure 16
0100
0010
0100
1000
0000
0000
0000
0000
,  // measure 17
0010
1000
0001
1000
0000
0000
0000
0000
,  // measure 18
0010
0000
0000
0000
0100
0000
0002
0000
0000
0000
0010
0000
0003
0000
0000
0010
,  // measure 19
0100
1000
0010
1000
0000
0000
0000
0000
,  // measure 20
0001
0100
0010
0100
0000
0000
0000
0000
,  // measure 21
0010
1000
0100
0010
0000
0000
0000
0000
,  // measure 22
0001
0000
0010
0200
0000
1000
0300
1000
,  // measure 23
0001
0100
0010
0002
0000
0000
0003
0000
,  // measure 24
0010
0100
0001
0020
0000
0000
0030
0000
,  // measure 25
0100
1000
0100
0002
0000
0000
0003
0000
,  // measure 26
0200
0000
0300
2000
0000
3000
0010
0000
,  // measure 27
1001
0000
0000
0000
1000
0000
0000
0010
,  // measure 28
0000
0000
0100
0000
0000
0001
0000
0000
,  // measure 29
0020
0000
0000
0001
0000
0000
0001
0000
,  // measure 30
0000
0001
0000
0000
0031
0000
0000
0000
,  // measure 31
1000
0100
0010
0001
0100
0010
0000
0010
,  // measure 32
1000
0000
0001
0010
0000
0100
0010
0001
,  // measure 33
0100
0010
0000
1000
0010
0000
0100
0001
,  // measure 34
0000
0010
0001
0000
0100
0010
1000
0010
,  // measure 35
1000
0000
0000
0000
0001
0000
0000
0010
,  // measure 36
0000
0000
0100
0000
0000
1000
0000
0000
,  // measure 37
0020
0000
0000
1000
0000
0000
1000
0000
,  // measure 38
0000
1000
0000
0000
1030
0000
0000
0000
,  // measure 39
0001
0000
1000
0010
0000
0100
0001
0010
,  // measure 40
0100
0000
1000
0001
0000
0010
0100
0010
,  // measure 41
0001
1000
0000
0010
1000
0000
0100
0010
,  // measure 42
0200
0000
0000
0320
0000
0000
0031
0000
,  // measure 43
1001
0000
1000
0000
0010
0100
0000
0002
,  // measure 44
0000
0013
0000
0000
0000
0100
0010
0001
,  // measure 45
1000
0000
0010
0000
0100
0001
0000
0020
,  // measure 46
0000
0000
0130
1000
0000
0010
0000
0100
,  // measure 47
0000
0000
0001
0000
0010
0100
0000
2000
,  // measure 48
0000
3010
0000
0000
0000
0000
0100
0000
,  // measure 49
0001
0000
0010
0000
0100
1000
0000
0020
,  // measure 50
0000
0130
0000
0020
0000
0031
0000
0010
,  // measure 51
0000
0000
1000
0000
0100
0010
0000
0002
,  // measure 52
0000
0103
0000
0000
0001
0100
0010
1000
,  // measure 53
0100
0000
0010
0000
0001
0100
0000
0020
,  // measure 54
0000
0000
1030
0100
0000
0010
0000
0001
,  // measure 55
0100
0010
0100
0010
,  // measure 56
1000
0001
1000
0001
,  // measure 57
1000
0100
0010
0001
0100
0010
1000
0000
,  // measure 58
1002
0000
0000
0000
,  // measure 59
0103
0000
0000
0000
;
