#TITLE:ReMiX 8;
#SUBTITLE:;
#ARTIST:Rhythm Heaven;
#TITLETRANSLIT:;
#SUBTITLETRANSLIT:;
#ARTISTTRANSLIT:;
#CREDIT:;
#BANNER:banner.png;
#BACKGROUND:bg.png;
#LYRICSPATH:;
#CDTITLE:;
#MUSIC:Remix 8.ogg;
#OFFSET:-0.095;
#SAMPLESTART:50.195;
#SAMPLELENGTH:21.098;
#SELECTABLE:YES;
#DISPLAYBPM:91.000:182.000;
#BPMS:0.000=181.960,70.000=728.000,72.000=182.000,80.000=91.000,96.000=182.000,262.000=728.000,264.000=182.000;
#STOPS:70.000=0.061
,70.250=0.062
,70.500=0.061
,70.750=0.062
,71.000=0.061
,71.250=0.062
,71.500=0.061
,71.750=0.062
,99.500=1.319
,103.500=1.319
,262.000=0.061
,262.250=0.062
,262.500=0.061
,262.750=0.062
,263.000=0.061
,263.250=0.062
,263.500=0.061
,263.750=0.062
;
#BGCHANGES:;

//---------------dance-single - TaroNuke----------------
#NOTES:
     dance-single:
     TaroNuke:
     Hard:
     9:
     0.757,1.000,0.339,0.976,0.284: // measure 1
0000
0000
0000
0000
,  // measure 2
0000
0000
0000
0000
,  // measure 3
0000
0000
0000
0000
,  // measure 4
0000
0000
0000
1001
,  // measure 5
1000
0000
0100
0000
0010
0000
0100
0000
1000
0000
0001
0100
0000
0000
0100
0000
,  // measure 6
0001
0000
0100
0000
0010
0000
0100
0000
0001
0000
1000
0100
0000
0000
0100
0000
,  // measure 7
1000
0010
0100
0010
1000
0001
0010
0001
,  // measure 8
1000
0100
0010
0001
0100
0010
1000
0001
,  // measure 9
1000
0010
0200
0000
0000
0300
0001
1000
0200
0000
0000
0300
1000
0001
0200
0000
,  // measure 10
0000
0300
0010
1000
0200
0000
0000
0300
0010
0001
0200
0000
0000
0300
0001
1000
,  // measure 11
0200
0000
0000
0300
1000
0001
0200
0000
0000
0000
0301
0100
0020
0000
0000
0030
,  // measure 12
1000
0100
0020
0000
0000
0030
0100
1000
0002
0000
0000
0000
2000
3003
0000
0000
,  // measure 13
1001
0002
0203
0320
0000
2030
0000
3002
,  // measure 14
0023
0000
0032
0000
,  // measure 15
1003
0100
1000
0100
0001
0100
0001
0100
,  // measure 16
1000
0000
0100
0000
1000
0000
0100
0000
0010
0000
0000
0001
0000
0000
1000
0000
,  // measure 17
0200
2300
3200
0320
0230
0320
0032
2003
,  // measure 18
3020
0000
2030
0000
3002
0000
0203
0000
0310
1000
0010
1000
0010
1000
0010
1000
,  // measure 19
0001
0000
0000
0000
1000
0000
0100
0010
0002
0000
0000
0000
0103
0000
0000
0000
,  // measure 20
1001
0000
1001
0000
0000
0110
0110
0000
,  // measure 21
1000
0010
0100
0010
0001
0000
0010
0001
,  // measure 22
1000
0000
0100
0001
0010
0000
1001
0000
,  // measure 23
1000
0100
1000
0010
0000
0100
0001
0010
0000
0100
0000
1000
0000
0001
0000
0010
,  // measure 24
0100
0000
0000
0010
0001
0000
0000
0000
0010
0001
0010
1000
0010
0001
1000
0010
,  // measure 25
1010
0000
0010
1000
0000
0011
0000
1001
,  // measure 26
1100
0000
0010
0001
0000
1010
0000
1001
,  // measure 27
0001
0100
0001
0010
0000
0100
0000
1000
,  // measure 28
1200
0000
0000
0010
0000
0001
0000
0010
,  // measure 29
1300
0000
0000
0200
0300
0002
0003
0000
,  // measure 30
1001
1001
0000
0000
0000
0000
0000
0000
,  // measure 31
0001
1000
0200
0000
0000
0300
1000
0001
0200
0000
0000
0000
0301
0100
0020
0000
,  // measure 32
0000
0000
0000
0000
0000
0000
0000
0000
0000
0000
0000
0000
0030
0000
0000
0000
0000
0000
0000
0000
0000
0000
0000
0000
1000
0000
0000
0000
0000
0000
0000
0000
0000
0000
0000
0000
0100
0000
0000
0000
0000
0000
0000
0000
0000
0000
0000
0000
0020
0000
0000
0000
0000
0000
0000
0000
0000
0000
0000
0000
0000
0000
0000
0000
0000
0000
0000
0000
0000
0000
0000
0000
0000
0000
0000
0000
0000
0000
0000
0000
0000
0000
0000
0000
0030
0000
0000
0000
0000
0000
0000
0000
0000
0000
0000
0000
0100
0000
0000
0000
0000
0000
0000
0000
0000
0000
0000
0000
1000
0000
0000
0000
0000
0000
0000
0000
0000
0000
0000
0000
0002
0003
0000
0000
0000
0000
0000
0000
0000
0000
0000
0000
1000
0000
0000
0000
0000
0000
0000
0000
0000
0000
0000
0000
0001
0000
0000
0000
0000
0000
0000
0000
0000
0000
0000
0000
1000
0000
0000
0000
0000
0000
0000
0000
0000
0000
0000
0000
0001
0000
0000
0000
0000
0000
0000
0000
0000
0000
0000
0000
1000
0000
0000
0000
0000
0000
0000
0000
0000
0000
0000
0000
,  // measure 33
0001
0000
0120
0000
1030
0001
0100
0010
,  // measure 34
0000
0100
0001
0010
0000
0001
0100
0010
,  // measure 35
0000
1000
0000
0001
0010
0100
1000
0020
,  // measure 36
0000
2030
0000
3200
1000
0000
1300
0000
,  // measure 37
1001
0000
0001
0000
1000
0100
0010
0001
,  // measure 38
0000
1000
0001
0010
0000
0000
0000
0011
,  // measure 39
0000
0010
0100
1000
0100
0010
0000
2002
,  // measure 40
0000
0000
0000
3003
1100
0000
0101
0000
,  // measure 41
1001
0000
0210
0000
0301
1000
0100
0002
,  // measure 42
0000
1003
0010
0002
0000
1003
0100
0002
,  // measure 43
0000
0103
0000
0010
0010
0001
0100
2000
,  // measure 44
0000
3200
0000
0302
0000
0000
0013
0000
,  // measure 45
1001
0000
1001
0000
1000
0100
0010
0002
,  // measure 46
0000
0013
1000
0020
0000
0030
0000
0002
,  // measure 47
0000
0013
0100
1000
0100
0020
0000
0032
,  // measure 48
0000
0000
1003
0000
0010
0000
1000
0002
,  // measure 49
0000
0103
0010
1000
0010
0200
0000
0302
,  // measure 50
0000
1000
0100
1003
,  // measure 51
0202
1000
0000
1000
,  // measure 52
0000
1000
1303
0101
,  // measure 53
1000
0000
0100
0000
0001
0000
0100
0000
1000
0000
0001
0100
0000
0000
0100
0000
,  // measure 54
0001
0000
0100
0000
1000
0000
0100
0000
0001
0000
1000
0100
0000
0000
0100
0000
,  // measure 55
1000
0010
0001
0010
1000
0001
0010
0001
,  // measure 56
1000
0100
0010
0001
0100
0010
0001
0010
,  // measure 57
1000
0010
0200
0000
0000
0300
0001
1000
0200
0000
0000
0300
1000
0001
0200
0000
,  // measure 58
0000
0300
0010
1000
0200
0000
0000
0300
0010
0001
0200
0000
0000
0300
0001
1000
,  // measure 59
0200
0000
0000
0300
1000
0001
0200
0000
0000
0000
0301
0100
0020
0000
0000
0030
,  // measure 60
1000
0100
0020
0000
0000
0030
0100
1000
0002
0000
0000
0000
2000
3003
0000
0000
,  // measure 61
1001
0002
0203
2300
0000
3200
0000
0302
,  // measure 62
0023
0000
2030
0000
,  // measure 63
3002
0000
0203
0000
,  // measure 64
2300
0000
0000
0000
0000
0000
0000
0000
3010
0000
0000
0100
0000
0000
0001
0000
,  // measure 65
2000
3002
2003
3020
0230
0320
2030
3200
,  // measure 66
0302
0000
0203
0000
2300
0000
3020
0000
0130
0001
0100
0001
0100
0001
0100
0001
,  // measure 67
1000
0000
0000
0000
0001
0000
0100
0010
2000
0000
0000
0000
3010
0000
0000
0000
,  // measure 68
1001
0000
1001
0000
0000
0110
0110
0000
,  // measure 69
2002
0000
3003
0000
;

//---------------dance-single - TaroNuke----------------
#NOTES:
     dance-single:
     TaroNuke:
     Easy:
     5:
     0.360,0.374,0.149,0.279,0.000: // measure 1
0000
0000
0000
0000
,  // measure 2
0000
0000
0000
0000
,  // measure 3
0000
0000
0000
0000
,  // measure 4
0000
0000
0000
1001
,  // measure 5
1000
0010
1000
1000
,  // measure 6
0001
0010
0001
0001
,  // measure 7
1000
0100
1000
0010
,  // measure 8
0100
0001
0010
0001
,  // measure 9
2000
0000
0000
3020
0000
0000
0230
0000
,  // measure 10
0000
0302
0000
0000
0023
0000
0000
0230
,  // measure 11
0000
0000
2300
0000
0000
3020
0000
0000
,  // measure 12
0230
0000
0000
0302
0000
0000
0003
0000
,  // measure 13
1001
1000
0010
0100
,  // measure 14
0001
0001
0010
0000
,  // measure 15
1000
1000
0001
0001
,  // measure 16
1000
1000
0010
0000
,  // measure 17
0100
0100
0001
0001
,  // measure 18
1000
1000
0020
0000
,  // measure 19
0130
0000
0100
0000
,  // measure 20
1001
1001
0000
0000
,  // measure 21
1000
0100
0001
0010
,  // measure 22
1000
0100
0010
1001
,  // measure 23
1000
1000
0010
0010
,  // measure 24
0100
0001
0010
0010
,  // measure 25
1000
0000
1000
0000
0000
1000
0000
1000
,  // measure 26
0000
0000
0001
0000
0000
0001
0000
0001
,  // measure 27
0000
1000
0100
0010
,  // measure 28
0001
0001
0010
0100
,  // measure 29
1000
0010
0100
0001
,  // measure 30
1001
0000
0000
0000
,  // measure 31
0002
0000
0000
0203
0000
0000
0320
0000
,  // measure 32
0000
2030
0000
0000
0000
0000
3001
0000
,  // measure 33
0001
0100
0001
0100
,  // measure 34
1000
0100
1000
0100
,  // measure 35
0001
0100
0001
0100
,  // measure 36
1000
0000
0000
0000
,  // measure 37
1000
0010
1000
0010
,  // measure 38
0001
0010
0001
0010
,  // measure 39
1000
0010
1000
0010
,  // measure 40
0100
0000
1001
1001
,  // measure 41
1000
0100
0010
0100
,  // measure 42
1000
0100
0010
0100
,  // measure 43
1000
0100
0001
0100
,  // measure 44
1000
0000
0000
0000
,  // measure 45
0001
0100
0010
0100
,  // measure 46
0001
0100
0010
0100
,  // measure 47
0001
0100
1000
0100
,  // measure 48
0001
0000
1001
0000
,  // measure 49
0001
0100
1000
0100
,  // measure 50
0001
0000
1001
0000
,  // measure 51
0000
1000
0000
1000
,  // measure 52
0000
1000
1000
1001
,  // measure 53
1000
0010
1000
1000
,  // measure 54
0001
0010
0001
0001
,  // measure 55
1000
0100
1000
0010
,  // measure 56
0100
0001
0010
0001
,  // measure 57
2000
0000
0000
3020
0000
0000
0230
0000
,  // measure 58
0000
0302
0000
0000
0023
0000
0000
0230
,  // measure 59
0000
0000
2300
0000
0000
3020
0000
0000
,  // measure 60
0230
0000
0000
0302
0000
0000
0003
0000
,  // measure 61
1001
1000
0010
0100
,  // measure 62
0001
0001
0010
0000
,  // measure 63
1000
1000
0001
0001
,  // measure 64
1000
1000
0010
0000
,  // measure 65
0100
0100
0001
0001
,  // measure 66
1000
1000
0020
0000
,  // measure 67
0130
0000
0100
0000
,  // measure 68
1001
1001
0000
0000
,  // measure 69
0220
0330
0000
0000
;

//---------------dance-single - TaroNuke----------------
#NOTES:
     dance-single:
     TaroNuke:
     Beginner:
     1:
     0.147,0.203,0.149,0.110,0.000: // measure 1
0000
0000
0000
0000
,  // measure 2
0000
0000
0000
0000
,  // measure 3
0000
0000
0000
0000
,  // measure 4
0000
0000
0000
0000
,  // measure 5
1001
0000
0000
0000
,  // measure 6
1001
0000
0000
0000
,  // measure 7
1001
0000
0000
0000
,  // measure 8
0100
0000
0100
0000
,  // measure 9
2002
0000
0000
0000
,  // measure 10
0000
0000
0000
0000
,  // measure 11
0000
0000
0000
0000
,  // measure 12
3003
0000
0000
0000
,  // measure 13
1000
0000
1000
0000
,  // measure 14
0001
0000
0001
0000
,  // measure 15
0100
0000
0100
0000
,  // measure 16
0100
0000
0000
0000
,  // measure 17
0001
0000
0000
0000
,  // measure 18
2000
0000
0000
0000
,  // measure 19
3000
0000
0000
0000
,  // measure 20
1001
0000
0000
0000
,  // measure 21
1001
0000
0000
0000
,  // measure 22
0010
0000
0000
0000
,  // measure 23
0100
0000
0100
0000
,  // measure 24
0100
0000
0010
0000
,  // measure 25
0002
0000
0000
0000
,  // measure 26
0000
0000
0000
0000
,  // measure 27
1003
0000
0000
0000
,  // measure 28
1000
0000
0000
0000
,  // measure 29
0001
0000
0000
0000
,  // measure 30
1001
0000
0000
0000
,  // measure 31
2002
0000
0000
0000
,  // measure 32
0000
0000
3003
0000
,  // measure 33
1000
0000
0100
0000
,  // measure 34
0010
0000
0100
0000
,  // measure 35
1000
0000
0100
0000
,  // measure 36
0010
0000
0000
0000
,  // measure 37
0001
0000
0100
0000
,  // measure 38
0010
0000
0100
0000
,  // measure 39
0001
0000
0100
0000
,  // measure 40
0010
0000
0000
0000
,  // measure 41
1000
0000
1000
0000
,  // measure 42
0001
0000
0001
0000
,  // measure 43
1000
0000
1000
0000
,  // measure 44
0010
0000
0000
0000
,  // measure 45
0010
0000
0010
0000
,  // measure 46
0100
0000
0100
0000
,  // measure 47
0010
0000
0010
0000
,  // measure 48
0010
0000
0000
0000
,  // measure 49
0010
0000
0010
0000
,  // measure 50
0010
0000
0000
0000
,  // measure 51
2002
0000
0000
0000
,  // measure 52
3003
0000
0000
0000
,  // measure 53
1001
0000
0000
0000
,  // measure 54
1001
0000
0000
0000
,  // measure 55
1001
0000
0000
0000
,  // measure 56
0100
0000
0100
0000
,  // measure 57
2002
0000
0000
0000
,  // measure 58
0000
0000
0000
0000
,  // measure 59
0000
0000
0000
0000
,  // measure 60
3003
0000
0000
0000
,  // measure 61
1000
0000
1000
0000
,  // measure 62
0001
0000
0001
0000
,  // measure 63
0100
0000
0100
0000
,  // measure 64
0100
0000
0000
0000
,  // measure 65
0001
0000
0000
0000
,  // measure 66
2000
0000
0000
0000
,  // measure 67
3000
0000
0000
0000
,  // measure 68
1001
0000
0000
0000
,  // measure 69
0110
0000
0000
0000
;

//---------------dance-single - TaroNuke----------------
#NOTES:
     dance-single:
     TaroNuke:
     Medium:
     7:
     0.468,0.576,0.359,0.677,0.000: // measure 1
0000
0000
0000
0000
,  // measure 2
0000
0000
0000
0000
,  // measure 3
0000
0000
0000
0000
,  // measure 4
0000
0000
0000
1001
,  // measure 5
1000
0100
1000
1000
,  // measure 6
0010
0100
0010
0010
,  // measure 7
1000
0100
1000
1000
,  // measure 8
0010
0100
0010
1000
,  // measure 9
0001
0200
0000
0310
2000
0000
3001
0020
,  // measure 10
0000
0130
2000
0000
3010
0200
0000
0301
,  // measure 11
0020
0000
0130
2000
0000
3100
0020
0000
,  // measure 12
0031
0200
0000
0310
2000
0000
3001
0000
,  // measure 13
1000
0010
0100
0002
0000
0023
0000
0130
,  // measure 14
2000
0000
3020
0000
,  // measure 15
0230
0300
0200
0300
,  // measure 16
2002
0000
3003
0000
,  // measure 17
1000
0100
1000
0100
1000
0000
0000
0000
,  // measure 18
0001
0100
0001
0100
0020
0000
0000
0000
,  // measure 19
1030
0000
1010
0000
,  // measure 20
1001
0000
1001
0000
0000
0110
0000
0000
,  // measure 21
1001
0000
1000
0100
1000
0000
0010
0100
,  // measure 22
0001
0000
0001
0010
0100
0000
1001
0000
,  // measure 23
1000
0100
0010
0000
0100
0010
0001
0000
,  // measure 24
0010
0001
1000
0001
0100
0010
1000
0001
,  // measure 25
0010
0000
0010
0000
0010
0000
0000
1001
,  // measure 26
0100
0000
0100
0000
0100
0000
0000
1001
,  // measure 27
1000
0100
0010
0001
,  // measure 28
1000
0001
0010
0100
,  // measure 29
1000
0010
0100
0001
,  // measure 30
0010
0010
0000
0000
0000
0000
0000
0000
,  // measure 31
0001
0200
0000
0310
2000
0000
3100
0020
,  // measure 32
0000
0031
2000
0000
3010
0200
0300
0000
,  // measure 33
0102
0000
0000
1000
0000
0003
0000
2001
,  // measure 34
0000
0000
0000
0100
0000
3000
0000
1200
,  // measure 35
0000
0000
0000
0010
0000
0300
0000
0120
,  // measure 36
0000
0000
0001
0031
,  // measure 37
0012
0000
0000
0100
0000
0003
0000
0201
,  // measure 38
0000
0000
0000
0010
0000
0300
0000
0120
,  // measure 39
0000
0000
0000
1000
0000
0030
0000
2002
,  // measure 40
0000
0000
3003
0000
,  // measure 41
0102
0000
0000
1000
0000
0003
0000
2001
,  // measure 42
0000
0000
0000
0100
0000
3000
0000
1200
,  // measure 43
0000
0000
0000
0010
0000
0300
0000
0120
,  // measure 44
0000
0000
0001
0031
,  // measure 45
0012
0000
0000
0100
0000
0003
0000
0201
,  // measure 46
0000
0000
0000
0010
0000
0300
0000
0220
,  // measure 47
0000
0000
0000
0000
0000
0330
0000
2002
,  // measure 48
0000
0000
0000
0000
0000
3003
0000
0220
,  // measure 49
0000
0000
0000
0000
0000
0330
0000
2002
,  // measure 50
0000
0000
0000
0000
0000
0000
0000
3003
,  // measure 51
2002
0000
0000
0000
,  // measure 52
3003
0000
0000
1001
,  // measure 53
1000
0000
0100
0000
1000
0010
1000
0000
,  // measure 54
0001
0000
0100
0000
0001
0010
0001
0000
,  // measure 55
1000
0000
0010
0000
1000
0100
1000
0000
,  // measure 56
0001
0010
0100
0000
1000
0010
1000
0000
,  // measure 57
0001
0200
0000
0310
2000
0000
3001
0020
,  // measure 58
0000
0130
2000
0000
3010
0200
0000
0301
,  // measure 59
0020
0000
0130
2000
0000
3100
0020
0000
,  // measure 60
0031
0200
0000
0310
2000
0000
3001
0000
,  // measure 61
1000
0010
0100
0002
0000
0023
0000
0130
,  // measure 62
2000
0000
3020
0000
,  // measure 63
0230
0300
0200
0300
,  // measure 64
2002
0000
3003
0000
,  // measure 65
1000
0100
1000
0100
1000
0000
0000
0000
,  // measure 66
0001
0100
0001
0100
0020
0000
0000
0000
,  // measure 67
1030
0000
1001
0000
,  // measure 68
1001
0000
1001
0000
0000
0110
0000
0000
,  // measure 69
1001
0000
0000
0000
;
