#TITLE:Put Your Hearts Up;
#SUBTITLE:;
#ARTIST:Ariana Grande;
#TITLETRANSLIT:;
#SUBTITLETRANSLIT:;
#ARTISTTRANSLIT:;
#CREDIT:hooky;
#BANNER:Put Your Hearts Up.png;
#BACKGROUND:Put Your Hearts Up-bg.jpg;
#LYRICSPATH:;
#CDTITLE:;
#MUSIC:Put Your Hearts Up.ogg;
#OFFSET:-0.571;
#SAMPLESTART:39.060;
#SAMPLELENGTH:16.220;
#SELECTABLE:YES;
#DISPLAYBPM:81.000;
#BPMS:0.000=80.985,49.500=323.940,52.000=80.990;
#STOPS:36.000=0.740
,49.500=0.180
,50.500=0.200
,51.500=0.240
;
#BGCHANGES:;

//---------------dance-single - ----------------
#NOTES:
     dance-single:
     :
     Medium:
     3:
     0.200,0.211,0.075,0.225,0.000:
0000
0000
0000
0000
,
0010
0000
0010
0200
0000
0000
0300
0000
,
0001
0000
0001
2000
0000
0000
3000
0000
,
0010
0100
0010
0100
,
0220
0000
0000
0330
2002
0000
3003
0000
,
0100
0010
0100
0100
,
0001
1000
0001
0001
,
1000
0010
0100
0001
,
1000
0010
0100
1000
,
0001
1000
1000
0010
,
0100
0001
0001
1000
,
1000
0000
0010
0010
0010
0010
0000
0000
,
0100
0000
0010
0100
0000
0100
0000
0100
,
0001
1000
0100
0010
,
0001
1000
0100
0000
,
0010
0000
0010
0000
0100
0100
0100
0000
,
0002
0000
2000
3003
,
1000
0100
0010
0001
,
0010
0100
0001
0000
,
1000
0000
1000
0000
0100
1000
0100
0000
,
0020
0000
0002
0033
,
0100
0000
0010
0220
0000
0000
0330
0000
,
0001
0000
1000
2002
0000
0000
3003
0000
,
0100
0001
0100
0010
,
1000
1000
2200
3300
,
2002
0000
0000
0000
,
3003
0000
0000
0000
;

//---------------dance-single - hooky----------------
#NOTES:
     dance-single:
     hooky:
     Beginner:
     1:
     0.034,0.063,0.013,0.000,0.000:
0000
0000
0000
0000
,
0000
0000
0000
0000
,
0000
0000
0000
0000
,
0000
0000
0000
0000
,
0000
0000
0000
0000
,
1000
0000
0000
0000
,
0000
0000
0000
0000
,
0001
0000
0000
0000
,
0000
0000
0000
0000
,
1000
0000
0000
0001
,
0000
0000
0000
1000
,
0000
0000
0000
0001
,
0000
1000
0000
0000
,
1000
0000
0000
0000
,
0000
0000
0000
0000
,
0001
0000
0000
0000
,
0000
0000
0000
0000
,
1000
0000
0000
0000
,
0000
0000
0000
0000
,
0010
0000
0000
0000
,
0000
0000
0000
0000
,
0100
0000
0100
0000
,
0010
0000
0000
0000
,
1000
0000
1000
0000
,
0001
0000
0000
0000
,
1001
0000
0000
0000
;

//---------------dance-single - hooky----------------
#NOTES:
     dance-single:
     hooky:
     Hard:
     6:
     0.313,0.309,0.213,0.375,0.025:
0000
0000
0000
0000
,
1000
1000
1100
0000
0001
0001
0011
0000
,
0100
0100
0110
0000
0001
0001
1001
0000
,
1000
0100
1000
0100
0010
0001
0010
0001
,
2000
0100
0002
3003
,
1000
0100
1000
0000
0010
0001
0010
0000
,
0001
0100
0001
0000
1000
0100
1000
0000
,
0010
0010
0100
0000
1000
1000
0001
0000
,
0100
0010
0100
0010
1000
0001
1000
0001
,
0100
0000
0100
0000
0010
0000
1000
0100
,
1000
0000
0010
0001
0010
0000
0100
0000
,
0100
0000
0000
0000
0010
0100
0010
0100
0020
0000
0200
0000
0330
0000
1000
0000
,
0100
0010
0001
1001
0000
1001
0000
1001
,
2000
0000
0000
0000
3020
0000
0000
0000
0032
0000
0000
0200
0003
0000
0000
0000
,
2300
3020
0032
0003
,
1000
1000
1100
0001
0001
0011
0101
0000
,
0200
1000
0002
0303
,
0002
0000
0000
0000
0203
0000
0000
0000
2300
0000
0000
0020
3000
0000
0000
0000
,
0032
0203
2300
3000
,
0100
0100
0110
0001
0001
1001
1100
0110
,
0002
1000
0020
0033
,
0100
0010
0100
2200
0000
0000
3300
0000
,
0010
0001
0010
0220
0000
0000
0330
0000
,
1000
0100
1000
0100
0010
0001
0010
0001
,
2000
0100
0002
3003
,
0220
0000
0000
0000
,
0330
0000
0000
0000
;

//---------------dance-single - hooky----------------
#NOTES:
     dance-single:
     hooky:
     Easy:
     2:
     0.159,0.211,0.075,0.350,0.000:
0000
0000
0000
0000
,
0200
0000
0020
0330
,
0002
0000
0020
0033
,
0100
0000
0100
0000
,
0220
0000
0000
0330
,
1000
0000
1000
0000
,
0001
0000
0001
0000
,
0100
0000
0100
0000
,
0010
0000
0100
0100
,
0100
0100
0010
0100
,
0010
1000
0100
1000
,
0000
0010
0010
0100
,
0000
0100
0000
0000
,
2000
3000
0002
0003
,
0020
0030
0200
0300
,
0001
1000
0001
1000
,
2002
0000
0000
3003
,
0200
0300
0020
0030
,
2000
3000
0002
0003
,
0100
0010
0100
0010
,
0220
0330
0220
0330
,
0020
0000
0200
0330
,
2000
0000
0200
3300
,
0001
0000
0001
0000
,
0202
0000
0000
0303
,
2002
0000
0000
0000
,
3003
0000
0000
0000
;
