#TITLE:Overpowering Enemies;
#SUBTITLE:(Ruboy Rmx 2010);
#ARTIST:DJ DEPATH&M-Project;
#TITLETRANSLIT:;
#SUBTITLETRANSLIT:;
#ARTISTTRANSLIT:;
#CREDIT:348 with Timer Rabbit;
#BANNER:Overpowering Enemies Banner.png;
#BACKGROUND:Overpowering Enemies Background.png;
#LYRICSPATH:;
#CDTITLE:348 with Timer Rabbit.png;
#MUSIC:Overpowering Enemies Cut 2.ogg;
#OFFSET:-0.104;
#SAMPLESTART:65.940;
#SAMPLELENGTH:15.000;
#SELECTABLE:YES;
#BPMS:0.000=175.000;
#STOPS:;
#BGCHANGES:;

//---------------dance-single - ----------------
#NOTES:
     dance-single:
     :
     Beginner:
     2:
     0.115,0.175,0.000,0.000,0.000:
0000
0000
0000
0000
,
0000
0000
0000
0000
,
0000
0000
0000
0000
,
0000
0000
0000
0000
,
1000
0000
0000
0000
,
0001
0000
0000
0000
,
1000
0000
0001
0000
,
1000
0000
0000
0000
,
0001
0000
0000
0000
,
0001
0000
0000
0000
,
0001
0000
0000
0000
,
0001
0000
0000
0000
,
1000
0000
0000
0000
,
1000
0000
0000
0000
,
1000
0000
0000
0000
,
1000
0000
0000
0000
,
0001
0000
0000
0000
,
0010
0000
0000
0000
,
0100
0000
0000
0000
,
1000
0000
0000
0000
,
0001
0000
0000
0000
,
0100
0000
0000
0000
,
0010
0000
0000
0000
,
1000
0000
0000
0000
,
0001
0000
0000
0000
,
1000
0000
0001
0000
,
0100
0000
0000
0000
,
0010
0000
0100
0000
,
0010
0000
0000
0000
,
0100
0000
0010
0000
,
1000
0000
0000
0000
,
0001
0000
1000
0000
,
0001
0000
1000
0000
,
1000
0000
0000
0000
,
0001
0000
0001
0000
,
1000
0000
0000
0000
,
0010
0000
0010
0000
,
0100
0000
0000
0000
,
0010
0000
0010
0000
,
0100
0000
0000
0000
,
0001
0000
0000
0000
,
0100
0000
0000
0000
,
0010
0000
0000
0000
,
1000
0000
0000
0000
,
0001
0000
0100
0000
,
0010
0000
1000
0000
,
0010
0000
0100
0000
,
0010
0000
0000
0000
,
1000
0000
0000
0000
,
0100
0000
0000
0100
,
0100
0000
0000
0000
,
1000
0000
0000
0000
,
0001
0000
0000
0000
,
0010
0000
0000
0010
,
0010
0000
0000
0000
,
0001
0000
0000
0000
,
0100
0000
0000
0000
,
0001
0000
0000
0001
,
0001
0000
0000
0000
,
0100
0000
0000
0000
,
0010
0000
0000
0000
,
1000
0000
0000
1000
,
1000
0000
0000
0000
,
0010
0000
0000
0000
,
1000
0000
0000
0000
,
0001
0000
0000
0000
,
1000
0000
0000
0000
,
1000
0000
0000
0000
,
0001
0000
0000
0000
,
1000
0000
0000
0000
,
0001
0000
0000
0000
,
0001
0000
0000
0000
,
0100
0000
0000
0000
,
0001
0000
0000
0000
,
0100
0000
0000
0000
,
0100
0000
0000
0000
,
0010
0000
0000
0000
,
0100
0000
0000
0000
,
0010
0000
0000
0000
,
0010
0000
0000
0000
,
0100
0000
0000
0000
,
0100
0000
0000
0000
,
0100
0000
0000
0000
,
0100
0000
0000
0000
,
0010
0000
0000
0000
,
0010
0000
0000
0000
,
0010
0000
0000
0000
,
0010
0000
0000
0000
,
1000
0000
0000
0000
;

//---------------dance-single - ----------------
#NOTES:
     dance-single:
     :
     Easy:
     4:
     0.308,0.428,0.207,0.239,0.000:
0000
0000
0000
0000
,
0000
0000
0000
0000
,
0000
0000
0000
0000
,
0000
0000
0000
0000
,
1000
0000
0100
0000
,
0010
0000
0001
0000
,
1000
0100
0010
0001
,
2000
0000
0002
3003
,
1001
0000
1010
0000
,
1001
0000
0101
0000
,
0110
0000
0011
0000
,
0110
0000
1100
0000
,
1100
0000
0101
0000
,
0110
0000
1001
0000
,
0011
0000
1010
0000
,
0110
0000
1001
0000
,
2000
0000
0000
3000
,
0200
0000
0000
0300
,
0020
0000
0000
0030
,
0002
0000
0000
0003
,
0200
0000
0000
0300
,
0002
0000
0000
0003
,
2000
0000
0000
3000
,
0020
0000
0000
0030
,
2000
0000
3100
0000
,
0200
0000
1300
0000
,
0002
0000
0013
0000
,
0020
0000
0031
0000
,
0002
0000
0103
0000
,
0200
0000
0301
0000
,
0020
0000
1030
0000
,
2000
0000
3010
0000
,
1000
0100
1100
0000
,
0010
0001
0011
0000
,
0001
0100
0101
0000
,
0010
1000
1010
0000
,
0001
1000
0002
0003
,
0100
0010
0200
0300
,
0010
0100
0020
0030
,
1000
0001
2000
3000
,
0001
0010
0001
0010
,
0100
1000
0100
1000
,
0001
0100
0001
0100
,
0010
1000
0010
1000
,
0001
1000
0001
1000
,
0010
0100
0010
0100
,
0001
1000
0010
0100
,
0020
0000
0200
0330
,
0001
0000
0001
0100
,
0010
0000
1000
0010
,
0100
0000
0001
1000
,
0001
0000
0001
0000
,
1000
0000
1000
0100
,
0010
0000
0100
0010
,
0001
0000
1000
0001
,
1000
0000
1000
0000
,
0010
0000
0010
0100
,
0001
0000
1000
0010
,
0100
0000
0100
0010
,
0100
0010
0100
0000
,
0100
0000
0100
0010
,
1000
0000
0001
0100
,
0010
0000
0010
0100
,
0010
0100
0010
0000
,
1000
0000
0100
0000
,
1000
0000
0100
0000
,
0010
0000
0001
0000
,
0010
0000
0001
0001
,
0001
0000
0100
0000
,
0001
0000
0100
0000
,
0010
0000
1000
0000
,
0010
0000
1000
1000
,
1000
0000
0100
0000
,
0010
0000
0001
0000
,
1000
0000
0010
0000
,
0100
0000
0001
0001
,
0001
0000
0010
0000
,
0100
0000
1000
0000
,
0001
0000
0100
0000
,
0010
0000
1000
1000
,
1001
0000
0002
0013
,
0011
0000
2000
3100
,
1100
0000
0020
1030
,
1010
0000
0200
0301
,
0101
0100
0010
1000
,
0001
0010
0100
1000
,
0001
1000
0010
0100
,
0010
0100
0001
1000
,
2002
0000
0000
0000
,
0000
0000
3003
0000
;

//---------------dance-single - ----------------
#NOTES:
     dance-single:
     :
     Medium:
     6:
     0.439,0.463,0.223,0.287,0.000: // measure 1
0000
0000
0000
0000
,  // measure 2
0000
0000
0000
0000
,  // measure 3
0000
0000
0000
0000
,  // measure 4
0000
0000
0000
0000
,  // measure 5
1000
0000
1000
0000
1000
0100
1000
0000
,  // measure 6
0001
0000
0001
0000
0001
0010
0001
0000
,  // measure 7
0100
0100
0010
0010
,  // measure 8
2002
3003
0220
0330
,  // measure 9
1000
0100
0011
0000
,  // measure 10
0001
0100
1010
0000
,  // measure 11
1000
0010
0101
0000
,  // measure 12
0001
0010
1100
0000
,  // measure 13
0001
1000
0110
0000
,  // measure 14
0010
0100
1001
0000
,  // measure 15
1000
0001
1001
0000
,  // measure 16
0220
0330
0100
0010
,  // measure 17
2000
0000
0100
0000
,  // measure 18
3200
0000
0010
0000
,  // measure 19
0320
0000
0001
0000
,  // measure 20
0032
0000
1000
0000
,  // measure 21
2003
0000
0010
0000
,  // measure 22
3020
0000
0100
0000
,  // measure 23
0230
0000
0001
0000
,  // measure 24
0302
0000
1000
0000
,  // measure 25
1003
0000
0001
0000
1000
0000
0001
0010
,  // measure 26
0001
0000
1000
0000
0001
0000
0100
0010
,  // measure 27
0100
0000
0010
0000
0100
0000
0010
0100
,  // measure 28
0010
0000
0100
0000
0010
0000
1000
0001
,  // measure 29
1000
0000
0100
0000
0010
0000
0001
1000
,  // measure 30
0001
0000
0100
0000
0010
0000
0100
0010
,  // measure 31
0100
0000
0001
0000
1000
0000
0010
0100
,  // measure 32
0010
0000
1000
0000
0001
0000
1000
0001
,  // measure 33
2000
0100
0010
3100
,  // measure 34
0200
0010
0001
0310
,  // measure 35
0020
0001
0100
0031
,  // measure 36
0002
0010
1000
0013
,  // measure 37
0002
0013
0200
1300
,  // measure 38
2000
3100
0020
0031
,  // measure 39
0002
0103
0020
1030
,  // measure 40
2000
3010
0200
0301
,  // measure 41
1000
0100
1000
0011
,  // measure 42
0001
0010
0001
1100
,  // measure 43
0010
1000
0010
0101
,  // measure 44
0100
0001
0100
1010
,  // measure 45
0001
1000
0110
1001
,  // measure 46
0100
0010
1001
0110
,  // measure 47
1000
0001
1001
1001
,  // measure 48
0220
0330
0010
0100
,  // measure 49
0001
1000
0100
0000
,  // measure 50
0100
1000
0001
0000
,  // measure 51
0001
0000
0010
0000
0100
0000
1000
0100
,  // measure 52
1000
0100
0010
0001
,  // measure 53
1000
0001
0010
0000
,  // measure 54
0010
0001
1000
0000
,  // measure 55
1000
0000
0010
0000
0100
0000
0001
0010
,  // measure 56
0001
0100
0010
1000
,  // measure 57
0010
1000
0001
0000
,  // measure 58
1000
0001
0100
0000
,  // measure 59
0001
0000
0100
0000
0010
1000
0010
0000
,  // measure 60
0100
0001
0100
0000
0010
0000
1000
0000
,  // measure 61
0100
1000
0001
0000
,  // measure 62
1000
0001
0010
0000
,  // measure 63
0001
0000
0010
0000
0100
1000
0100
0000
,  // measure 64
0010
0001
0010
0000
0100
0000
1000
0000
,  // measure 65
0001
0100
1000
0100
,  // measure 66
0001
0010
1000
0010
,  // measure 67
0001
1000
0010
0100
,  // measure 68
0002
1003
2000
3001
,  // measure 69
1000
0100
0001
0100
,  // measure 70
1000
0010
0001
0010
,  // measure 71
1000
0001
0100
0010
,  // measure 72
0100
1001
0010
1001
,  // measure 73
1000
0100
0100
1000
,  // measure 74
0001
0010
0010
0001
,  // measure 75
1000
0010
0100
0001
,  // measure 76
0200
0310
0020
0130
,  // measure 77
0001
0100
0100
0001
,  // measure 78
1000
0010
0010
1000
,  // measure 79
0010
0100
0100
0010
,  // measure 80
1000
0110
0001
0110
,  // measure 81
1000
0100
2000
3001
,  // measure 82
0001
0010
0002
0103
,  // measure 83
0100
0001
0100
1010
,  // measure 84
0010
1000
0010
0101
,  // measure 85
0001
1000
0010
0100
,  // measure 86
0010
0000
1000
0000
0001
0100
0001
0000
,  // measure 87
1000
0010
1000
0000
0010
0100
0010
0000
,  // measure 88
1000
0001
1000
0000
0001
0000
1000
0000
,  // measure 89
2002
0000
0000
0000
,  // measure 90
0000
0000
3003
0000
;

//---------------dance-single - ----------------
#NOTES:
     dance-single:
     :
     Hard:
     8:
     0.656,0.677,0.454,0.287,0.131: // measure 1
0000
0000
0000
0000
,  // measure 2
0000
0000
0000
0000
,  // measure 3
0000
0000
0000
0000
,  // measure 4
0000
0000
0000
0000
,  // measure 5
1000
1100
0001
0011
,  // measure 6
1000
0100
0010
0000
0001
0010
0100
0000
,  // measure 7
1000
0010
0100
0001
1000
0010
0100
0001
,  // measure 8
1000
0000
0001
0000
1000
0000
0002
0000
2000
0000
0000
3003
1001
0000
0000
0000
,  // measure 9
0110
0000
0000
0000
0000
0000
0000
0000
1000
0000
0000
1100
0000
0000
1010
0000
,  // measure 10
1001
0000
0000
0000
0000
0000
0000
0000
0100
0000
0000
0011
0000
0000
0101
0000
,  // measure 11
0110
0000
0000
0000
0000
0000
0000
0000
0001
0000
0000
0011
0000
0000
0101
0000
,  // measure 12
1001
0000
0000
0000
0000
0000
0000
0000
0010
0000
0000
1100
0000
0000
1010
0000
,  // measure 13
0110
0000
0000
0000
0000
0000
0000
0000
2000
0000
0000
3001
0000
0000
1001
0000
,  // measure 14
1001
0000
0000
0000
0000
0000
0000
0000
0020
0000
0000
0130
0000
0000
0110
0000
,  // measure 15
0110
0000
0000
0000
0000
0000
0000
0000
0002
0000
0000
0013
0000
0000
0200
0000
,  // measure 16
1300
0100
0000
0000
0010
0001
0000
0000
1000
0010
0000
0000
0100
0001
0000
0000
,  // measure 17
2000
0000
0100
0000
3010
1000
0010
0000
,  // measure 18
0200
0000
0010
0000
0301
0100
0001
0000
,  // measure 19
0002
0000
0010
0000
0103
0001
0100
0000
,  // measure 20
0020
0000
0100
0000
1030
0100
1000
0000
,  // measure 21
0002
0000
0100
0000
1003
0001
1000
0000
,  // measure 22
0020
0000
0001
0000
0130
0010
0100
0000
,  // measure 23
0200
0000
1000
0000
0310
0100
0010
0000
,  // measure 24
2000
0000
0010
0000
3001
1000
0001
0000
,  // measure 25
1001
0000
0010
1000
0001
1000
0020
0000
,  // measure 26
0130
0000
0001
0100
1000
0100
0002
0000
,  // measure 27
0013
0000
0001
1000
0100
1000
0002
0000
,  // measure 28
1003
0001
1100
0011
,  // measure 29
0110
0000
1000
0100
0010
0100
1000
0000
,  // measure 30
0001
0000
1000
0100
0001
0100
1000
0000
,  // measure 31
0010
0000
1000
0010
0100
0010
1000
0000
,  // measure 32
0010
0100
0101
1010
,  // measure 33
1001
0000
1001
0000
1000
0100
0010
0001
,  // measure 34
1000
0000
0011
0000
0001
0010
0100
1000
,  // measure 35
0100
0000
1100
0000
0001
1000
0010
0100
,  // measure 36
0010
1000
0001
0000
1000
0001
1000
0000
,  // measure 37
0110
0000
0110
0000
0100
0001
1000
0010
,  // measure 38
1000
0000
0101
0000
0010
1000
0001
0100
,  // measure 39
0001
0000
1010
0000
1000
0100
0010
0001
,  // measure 40
0010
0100
1000
0000
0010
0100
0010
0000
,  // measure 41
1000
0000
0000
0010
0200
0000
0000
0000
0010
0000
0010
0000
0310
0000
0000
0000
,  // measure 42
0001
0000
0000
0100
0020
0000
0000
0000
0100
0000
0100
0000
0130
0000
0000
0000
,  // measure 43
0010
0000
0000
1000
0002
0000
0000
0000
1000
0000
1000
0000
1000
0000
0000
0000
,  // measure 44
0103
0000
0000
0001
2000
0000
0000
0000
0001
0000
0001
0000
3001
0000
0000
0000
,  // measure 45
1000
1000
0100
0000
0010
0010
0001
0000
,  // measure 46
0001
0001
0100
0000
0010
0010
1000
0000
,  // measure 47
0001
0100
0001
0100
0010
1000
0010
1000
,  // measure 48
0002
0000
0000
1003
0001
0000
0000
0000
0200
0000
0000
0310
0100
0000
0000
0000
,  // measure 49
0011
0000
1100
0000
0001
1000
0001
0100
,  // measure 50
0020
0000
1030
0100
0001
0100
1000
0001
,  // measure 51
2000
0000
3001
0010
1000
0010
0001
1000
,  // measure 52
0001
1010
0101
1001
,  // measure 53
1100
0000
0101
0000
1000
0001
0010
0001
,  // measure 54
0200
0000
0301
0010
0100
1000
0010
0100
,  // measure 55
0002
0000
1003
0100
0010
0001
0100
0010
,  // measure 56
1000
0000
0000
1000
0100
0000
0000
0100
0010
0000
0000
0010
0001
0000
0000
0001
,  // measure 57
1000
0000
0110
0000
0001
0100
0001
0010
,  // measure 58
0001
1000
0002
0000
1003
0010
1000
0100
,  // measure 59
1000
0001
2000
0000
3001
1000
0001
0000
,  // measure 60
0110
1001
1001
0110
,  // measure 61
0011
0000
1010
0000
0010
1000
0010
0001
,  // measure 62
0010
0100
0020
0000
0130
0001
0100
1000
,  // measure 63
0100
0010
0100
0000
0010
0100
0010
0000
,  // measure 64
0100
0000
0000
0001
1000
0000
0000
1000
0001
0000
0000
0100
0010
0000
0000
0010
,  // measure 65
0100
0000
0001
0010
0001
0000
1000
0100
,  // measure 66
1000
0000
0001
0100
0001
0000
1000
0010
,  // measure 67
1000
0000
0001
0100
0010
0000
1000
0100
,  // measure 68
0010
0000
0001
1000
0001
0000
0110
0000
,  // measure 69
1001
0000
0100
0001
0100
0000
0100
1000
,  // measure 70
0100
0000
0010
0001
0010
0000
0010
1000
,  // measure 71
0010
0000
1000
0100
0010
0000
0001
0100
,  // measure 72
0010
0000
0000
1000
0001
0000
0000
0100
0010
0000
0000
0010
0100
0000
0000
0001
,  // measure 73
1000
0000
0001
0010
1000
0000
1000
0010
,  // measure 74
0001
0000
1000
0100
0001
0000
0001
0100
,  // measure 75
1000
0000
0001
1000
0100
0010
0100
1000
,  // measure 76
0001
0110
1001
1001
,  // measure 77
0110
0000
1000
0100
0010
0000
0010
0100
,  // measure 78
1000
0000
0001
0100
0010
0000
0010
0100
,  // measure 79
0001
0000
0100
0001
1000
0010
1000
0001
,  // measure 80
0100
0000
0000
0100
0001
0000
0000
1000
0010
0000
0000
1000
0100
0000
0000
0010
,  // measure 81
0001
0200
0000
0001
0000
0010
0000
0301
,  // measure 82
0000
2000
0000
0100
0000
0010
0000
3001
,  // measure 83
0000
0002
0000
0010
0000
0100
0000
1003
,  // measure 84
0000
0020
0000
1000
0000
0100
0000
1030
,  // measure 85
0001
0000
1000
0000
0001
1000
0001
0000
,  // measure 86
1000
1000
0001
0000
0100
0100
0010
0000
,  // measure 87
1000
0001
1000
0001
0100
0010
0100
0010
,  // measure 88
1000
0001
1001
0110
,  // measure 89
2002
0000
0000
0000
,  // measure 90
0000
0000
3003
0000
;

//---------------dance-single - ----------------
#NOTES:
     dance-single:
     :
     Challenge:
     9:
     0.759,0.748,0.279,0.350,0.187: // measure 1
0000
0000
0000
0000
,  // measure 2
0000
0000
0000
0000
,  // measure 3
0000
0000
0000
0000
,  // measure 4
0000
0000
0000
0000
,  // measure 5
1010
0000
0101
0000
1000
0100
0010
0000
,  // measure 6
0001
0010
0100
0000
1000
0001
1000
0000
,  // measure 7
0001
0100
0010
1000
0001
0100
0010
1000
,  // measure 8
0001
1000
0001
1000
0001
0100
0010
0100
0010
0000
0000
0000
0110
0000
0000
0000
,  // measure 9
2001
0000
0000
0000
3020
0000
0000
0000
0100
0000
0000
1000
0000
0000
0130
0000
,  // measure 10
0210
0000
0000
0000
0302
0000
0000
0000
1000
0000
0000
0100
0000
0000
1003
0000
,  // measure 11
0102
0000
0000
0000
2003
0000
0000
0000
0001
0000
0000
0100
0000
0000
3010
0000
,  // measure 12
1020
0000
0000
0000
0230
0000
0000
0000
0001
0000
0000
0010
0000
0000
0301
0000
,  // measure 13
0012
0000
0000
0000
0023
0000
0000
0000
0001
0000
0000
0001
0000
0000
0130
0000
,  // measure 14
1200
0000
0000
0000
2300
0000
0000
0000
0100
0000
0000
0010
0000
0000
3100
0000
,  // measure 15
1001
0000
0000
0000
0100
0000
0000
0000
0010
0000
0000
1000
0000
0000
0001
0000
,  // measure 16
1000
0100
1000
0000
0001
0100
0001
0000
1000
0010
1000
0000
0001
0010
0001
0000
,  // measure 17
2000
0000
3200
0000
1300
0100
0001
0100
,  // measure 18
2000
0000
3020
0000
1030
0010
0001
0010
,  // measure 19
2000
0000
3002
0000
1003
0010
0100
0001
,  // measure 20
1000
0001
1000
0110
,  // measure 21
0002
0000
0023
0000
0031
0010
1000
0010
,  // measure 22
0002
0000
0203
0000
0301
0100
1000
0100
,  // measure 23
0002
0000
2003
0000
3001
0010
0100
1000
,  // measure 24
0010
0100
0010
1001
,  // measure 25
1000
0100
1000
0000
1000
0100
0010
0001
,  // measure 26
0010
0001
0010
0000
0010
0001
1000
0100
,  // measure 27
1000
0010
0100
0000
0100
0001
1000
0010
,  // measure 28
1000
0001
1000
0000
0110
0000
1001
0000
,  // measure 29
0001
0010
0001
0000
0001
0010
0100
1000
,  // measure 30
0100
1000
0100
0000
0100
1000
0001
0010
,  // measure 31
0001
0100
0010
0000
0010
1000
0001
0100
,  // measure 32
0010
0100
0010
0000
1001
0000
0110
0000
,  // measure 33
1000
0100
0001
0100
1000
0001
2000
0000
,  // measure 34
3001
0010
1000
0010
0001
1000
0002
0000
,  // measure 35
0103
0001
1000
0010
1000
0001
0100
0000
,  // measure 36
0101
1010
1100
0011
,  // measure 37
1000
0010
0001
0010
1000
0010
0200
0000
,  // measure 38
0301
0100
1000
0100
0001
0100
0020
0000
,  // measure 39
1030
0100
0010
0001
0100
0010
1000
0000
,  // measure 40
0011
1010
1100
0101
,  // measure 41
1001
0000
0000
1000
0100
0000
0000
0100
0010
0000
0000
0010
0001
0000
0000
0001
,  // measure 42
1000
0000
0000
1000
0010
0000
0000
0010
0100
0000
0000
0100
0001
0000
0000
0001
,  // measure 43
1000
0000
0000
0010
0100
0000
0000
0001
1000
0000
0000
0100
0010
0000
0000
0001
,  // measure 44
1000
0000
0000
0001
0010
0000
0000
0100
1000
0000
0000
0001
1000
0000
0000
1000
,  // measure 45
0001
1000
0002
0000
0103
0010
0200
0000
,  // measure 46
0310
0100
0020
0000
1030
0001
2000
0000
,  // measure 47
3001
0010
0100
1000
0001
0010
0100
1000
,  // measure 48
0001
1000
0001
0000
0100
0010
0100
0000
0110
0000
0000
0000
1001
0000
0000
0000
,  // measure 49
0110
0000
1000
0100
0010
0001
0100
0010
,  // measure 50
2000
0000
3001
0100
1000
0100
0001
1000
,  // measure 51
0002
0000
1003
0100
0010
0001
0100
0010
,  // measure 52
1000
0000
0100
0000
0001
0000
0100
0000
1000
0000
0001
0000
1000
0000
0001
1000
,  // measure 53
0001
0000
0100
0001
0100
1000
0100
0010
,  // measure 54
0200
0000
0310
1000
0001
0100
0001
1000
,  // measure 55
0020
0000
1030
0001
0100
0010
0100
0001
,  // measure 56
1000
0000
0100
1000
0100
0000
0010
0001
0010
0000
0001
0100
0001
0000
1000
0010
,  // measure 57
1000
0000
0001
1000
0100
1000
0001
1000
,  // measure 58
0002
0000
1003
0010
0001
0010
1000
0010
,  // measure 59
2000
0000
3001
0100
0010
0100
0001
1000
,  // measure 60
0001
0000
0010
0000
0001
0000
0010
0000
1000
0000
0010
0000
0001
0000
1000
0001
,  // measure 61
1000
0000
0100
1000
0100
0010
0001
1000
,  // measure 62
0200
0000
0310
0001
0010
1000
0010
0001
,  // measure 63
0020
0000
0031
0100
0010
1000
0001
0100
,  // measure 64
0001
0100
0001
0100
0010
1000
0010
1000
0010
0000
0000
0000
1001
0000
0000
0000
,  // measure 65
1000
0100
0001
0100
1000
0100
0001
0100
,  // measure 66
1000
0100
0010
0001
0100
0010
1000
0001
,  // measure 67
0100
0001
1000
0010
1000
0001
0100
0001
,  // measure 68
0100
0001
1000
0100
0010
0001
1000
0010
,  // measure 69
1000
0010
0001
0010
1000
0010
0001
0010
,  // measure 70
1000
0001
0010
0100
1000
0010
0100
0001
,  // measure 71
0010
0001
1000
0100
1000
0001
0100
0010
,  // measure 72
0100
0001
0010
0100
1000
0001
1000
0001
,  // measure 73
0100
0001
0100
1000
0100
0001
0100
1000
,  // measure 74
0100
0001
1000
0100
1000
0001
0010
0001
,  // measure 75
1000
0100
0010
0001
1000
0010
0100
0001
,  // measure 76
0100
0010
0100
0010
1000
0001
1000
0001
,  // measure 77
0010
0001
0010
1000
0010
0001
0010
1000
,  // measure 78
0010
0001
0010
0100
1000
0001
0100
0010
,  // measure 79
1000
0001
0100
0010
0100
0010
1000
0001
,  // measure 80
1000
0001
0100
0010
1000
0001
0100
0010
,  // measure 81
1000
0002
0000
1003
0000
1000
0100
1000
,  // measure 82
0000
1000
0000
1100
0000
0001
0010
0001
,  // measure 83
0000
0200
0000
0310
0000
0100
0010
0100
,  // measure 84
0000
0001
0000
1001
0000
0001
1000
0001
,  // measure 85
1000
0100
0010
0001
1000
0001
0100
0010
,  // measure 86
0100
0001
1000
0001
0010
0100
1000
0001
,  // measure 87
1000
0000
0001
0100
0001
0000
1000
0010
1000
0000
0001
0010
0001
0000
1000
0100
,  // measure 88
1000
1001
0110
0110
,  // measure 89
2002
0000
0000
0000
,  // measure 90
0000
0000
3003
0000
;

//---------------dance-single - ----------------
#NOTES:
     dance-single:
     :
     Edit:
     10:
     0.870,1.000,0.326,0.326,0.446: // measure 1
0000
0000
0000
0000
,  // measure 2
0000
0000
0000
0000
,  // measure 3
0000
0000
0000
0000
,  // measure 4
0000
0000
0000
0000
,  // measure 5
1000
0100
0010
0001
0100
0010
1000
0001
,  // measure 6
0100
0001
1000
0010
1000
0001
0100
0001
,  // measure 7
1000
0100
1000
0100
0010
0001
0010
0001
1000
0010
1000
0010
0100
0001
0100
0001
,  // measure 8
1000
0001
1000
0001
0100
0010
0100
0010
1000
0001
0100
0010
0100
0000
0000
0000
,  // measure 9
0110
0000
0000
0000
0100
0001
0100
0000
0002
0000
0000
0103
0000
0000
0101
0000
,  // measure 10
0110
0000
0000
0000
0010
1000
0010
0000
2000
0000
0000
3010
0000
0000
1010
0000
,  // measure 11
1001
0000
0000
0000
1000
0100
1000
0000
0002
0000
0000
0013
0000
0000
0011
0000
,  // measure 12
1001
0000
0000
0000
0001
0010
0001
0000
2000
0000
0000
3100
0000
0000
1100
0000
,  // measure 13
1001
0000
0000
0000
0100
0010
0100
0000
0020
0000
0000
0130
0000
0000
0110
0000
,  // measure 14
0110
0000
0000
0000
0001
1000
0001
0000
2000
0000
0000
3001
0000
0000
1001
0000
,  // measure 15
1001
0000
0000
0000
1000
0100
0010
0000
0002
0000
0000
1003
0000
0000
0110
0000
,  // measure 16
0010
1000
0010
1000
0001
0100
0001
0100
0001
0010
0001
0010
0100
1000
0100
1000
,  // measure 17
0001
0010
0002
0000
0103
0001
2000
0000
,  // measure 18
3001
1000
0020
0000
0230
0000
0310
0000
,  // measure 19
1000
0100
2000
0000
3010
0100
0002
0000
,  // measure 20
1003
0000
0010
0000
0200
0000
0000
0000
0320
0000
0000
0030
0110
0000
0000
0000
,  // measure 21
0100
0001
0200
0000
0301
1000
0020
0000
,  // measure 22
0130
0001
2000
0000
3002
0000
1003
0000
,  // measure 23
0010
1000
0020
0000
1030
0001
0200
0000
,  // measure 24
0310
0000
1000
0000
0002
0000
0000
0000
2003
0000
0000
3000
1001
0000
0000
0000
,  // measure 25
1000
0100
0001
0100
1000
0100
0001
0100
,  // measure 26
2000
0000
3100
0010
0001
0010
0200
0000
,  // measure 27
1300
0010
0001
0010
1000
0010
0001
0010
,  // measure 28
1001
1100
0011
1001
,  // measure 29
0001
0100
1000
0100
0001
0100
1000
0100
,  // measure 30
0002
0000
0013
0100
1000
0100
0020
0000
,  // measure 31
0031
0010
1000
0010
0001
0010
1000
0010
,  // measure 32
0001
0000
1000
0100
0010
0000
0001
0010
0100
0000
1000
0010
0100
0000
0001
0100
,  // measure 33
0010
1000
1010
0000
0001
0100
0001
0100
,  // measure 34
0001
0100
0101
0000
0010
1000
0010
1000
,  // measure 35
0010
0100
0110
0000
1000
0010
0100
0001
,  // measure 36
1010
0101
0011
1100
,  // measure 37
1000
0100
1100
0000
0010
0001
0010
0001
,  // measure 38
0010
0001
0011
0000
1000
0100
1000
0100
,  // measure 39
1000
0001
1001
0000
0010
0100
0001
1000
,  // measure 40
0001
0000
1000
0001
0100
0000
0010
1000
0001
0000
1000
0010
0100
0000
0010
0100
,  // measure 41
0001
0000
1000
0000
0100
0000
1000
0000
0001
0000
0100
0000
0010
0000
1000
0001
,  // measure 42
1000
0000
0001
0000
0010
0000
0001
0000
1000
0000
0100
0000
0010
0000
0001
1000
,  // measure 43
0001
0000
0010
0000
0100
0000
0010
0000
0001
0000
1000
0000
0001
0000
1000
0100
,  // measure 44
1000
0000
0100
0000
0010
0000
0100
0000
1000
0000
0001
0000
1000
0000
0001
0010
,  // measure 45
0001
0100
0010
1000
0001
0010
0100
1000
0010
0100
0001
1000
0010
0100
0001
1000
,  // measure 46
0001
1000
0001
1000
0010
0100
0010
0100
0001
0100
0001
0010
0100
1000
0010
1000
,  // measure 47
0001
1000
0100
0010
0100
1000
0001
1000
0001
0010
0100
1000
0100
0010
0001
1000
,  // measure 48
0001
0000
0000
0000
0220
0000
0000
0330
0110
0000
0000
0000
1001
0000
0000
0000
,  // measure 49
1000
0000
0000
0100
1000
0000
0000
0000
0001
0000
0010
0000
0001
0000
0100
0000
,  // measure 50
0001
0000
0000
0010
0001
0000
0000
0000
1000
0000
0100
0000
1000
0000
0010
0000
,  // measure 51
1000
0000
0000
0010
0100
0000
0000
0000
0001
0000
1000
0000
0010
0000
0100
0000
,  // measure 52
0001
0000
1001
0000
1000
0100
0110
0100
,  // measure 53
1000
0000
0000
0001
0100
0000
0000
0000
0001
0000
0100
0000
0010
0000
0100
0000
,  // measure 54
0001
0000
0000
1000
0010
0000
0000
0000
1000
0000
0010
0000
0100
0000
0010
0000
,  // measure 55
1000
0000
0000
0001
1000
0000
0000
0000
0001
0000
0010
0000
0100
0000
1000
0000
,  // measure 56
0001
0000
0000
0010
0001
0000
0000
1000
0100
0000
0000
1000
0001
0000
1000
0001
,  // measure 57
1000
0000
0001
0000
2000
0000
0000
0000
3001
0000
0010
0001
0010
0000
0001
0000
,  // measure 58
0100
0000
0010
0000
0200
0000
0000
0000
0310
0000
1000
0010
1000
0000
0010
0000
,  // measure 59
1000
0000
0100
0000
0020
0000
0000
0000
0031
0000
0100
0010
0100
0000
0001
0000
,  // measure 60
0100
0010
1000
0001
0010
0100
1001
0100
,  // measure 61
0010
0000
0100
0000
0020
0000
0000
0000
0130
0000
0001
0010
0001
0000
0100
0000
,  // measure 62
0001
0000
0010
0000
0002
0000
0000
0000
1003
0000
0010
0100
0010
0000
1000
0000
,  // measure 63
0100
0000
0010
0000
0200
0000
0000
0000
1300
0000
0001
0100
0001
0000
1000
0000
,  // measure 64
0001
0100
0001
0010
0100
1000
0010
1000
0001
1000
0001
1000
0002
0000
0000
0000
,  // measure 65
1003
0100
1000
0010
0100
0001
0010
0001
,  // measure 66
1000
0100
0010
0100
1000
0001
0010
0001
,  // measure 67
1000
0001
0100
0010
0100
0001
1000
0001
,  // measure 68
0100
0000
0001
0000
1000
0000
0010
0000
0100
0000
0001
0000
1000
0000
0010
0100
,  // measure 69
0010
1000
0100
0010
0001
0100
0010
1000
,  // measure 70
0001
1000
0100
0010
0100
1000
0001
1000
,  // measure 71
0100
1000
0001
0010
0100
1000
0001
0100
,  // measure 72
0001
0000
0000
1000
0100
0000
0000
0010
0001
0000
0000
1000
0001
0000
0100
0010
,  // measure 73
0100
0001
1000
0010
1000
0001
0100
0001
,  // measure 74
1000
0100
0010
0001
1000
0010
0100
0001
,  // measure 75
0010
0100
1000
0001
0100
0001
1000
0010
,  // measure 76
0100
0000
0001
0000
0010
0000
0001
0000
0100
0000
0010
0000
1000
0000
0001
1000
,  // measure 77
0001
0100
0010
0100
0001
1000
0100
0010
,  // measure 78
0100
1000
0001
0100
0010
0100
0001
1000
,  // measure 79
0001
1000
0010
1000
0001
0100
0001
1000
,  // measure 80
0010
0100
0010
0100
0010
0000
1000
0000
0100
0000
0010
0000
0001
0000
1000
0000
,  // measure 81
0001
0000
0100
0000
0000
0000
1001
0000
0000
0000
0010
0100
0010
0000
2000
0000
,  // measure 82
0000
0000
3001
0000
0000
0000
0110
0000
0000
0000
1000
0001
1000
0000
0020
0000
,  // measure 83
0000
0000
0130
0000
0000
0000
0011
0000
0000
0000
1000
0100
1000
0000
0002
0000
,  // measure 84
0000
0000
1003
0000
0000
0000
1100
0000
0000
0000
0001
0010
0001
0000
0100
0000
,  // measure 85
0010
1000
0001
0100
0010
1000
0001
0100
,  // measure 86
0001
0010
0100
1000
0001
0010
0100
1000
,  // measure 87
0001
0000
1000
0001
0100
0000
0100
0001
1000
0000
0001
1000
0010
0000
0010
1000
,  // measure 88
0001
1000
0001
1000
0001
0000
0100
0000
0010
0000
0100
0000
0010
0000
1000
0000
,  // measure 89
2002
0000
0000
0000
,  // measure 90
0000
0000
3003
0000
;
