#TITLE:Burning Warriors;
#SUBTITLE:;
#ARTIST:Team KY;
#TITLETRANSLIT:;
#SUBTITLETRANSLIT:;
#ARTISTTRANSLIT:;
#CREDIT:;
#BANNER:Burning Warriors bn.png;
#BACKGROUND:Burning Warriors bg.png;
#LYRICSPATH:;
#CDTITLE:;
#MUSIC:Burning Warriors.mp3;
#OFFSET:-0.060;
#SAMPLESTART:65.205;
#SAMPLELENGTH:14.020;
#SELECTABLE:YES;
#BPMS:0.000=162.000;
#STOPS:;
#BGCHANGES:;

//---------------dance-single - ----------------
#NOTES:
     dance-single:
     :
     Hard:
     8:
     0.633,0.633,0.259,0.157,0.291: // measure 1
0000
0000
0000
0000
,  // measure 2
0000
0000
0000
0000
,  // measure 3
0000
0000
0000
0000
,  // measure 4
0000
0000
0000
0000
,  // measure 5
1000
0000
0000
0100
0000
0000
0010
0000
0000
0001
0000
0000
1000
0000
0010
0000
,  // measure 6
1000
0000
0000
0001
0000
0000
0010
0000
0001
0000
0000
0100
0000
0000
0010
0000
,  // measure 7
1000
0000
0000
0100
0000
0000
0001
0000
0000
0100
0000
0000
1000
0000
0010
0000
,  // measure 8
0100
0000
0001
0000
0100
0000
0010
1000
0000
0100
0000
1000
0000
0001
1000
0000
,  // measure 9
0000
0000
0000
0000
,  // measure 10
1100
0000
0100
0000
0010
0000
0000
0001
0000
0000
0100
0000
0001
0000
0000
0000
,  // measure 11
0010
0000
0100
0000
1000
0000
0000
0010
0000
0000
1000
0000
0100
0000
0000
0000
,  // measure 12
0010
0000
0000
0011
0000
0000
0001
0000
0000
0101
0000
0000
0100
0000
0010
0000
,  // measure 13
1000
0000
0001
0000
0010
0000
0000
0001
0000
0000
1000
0000
0100
0000
0000
0000
,  // measure 14
1100
0000
0100
0000
0010
0000
0000
0001
0000
0000
1000
0000
0010
0000
0000
0000
,  // measure 15
1000
0000
0100
0000
0010
0000
0000
0001
0000
0000
1000
0000
0010
0000
0000
0000
,  // measure 16
1000
0000
0000
1100
0000
0000
0001
0000
0000
0101
0000
0000
0100
0000
0010
0000
,  // measure 17
1000
0000
0100
0000
0010
0000
0001
0000
1000
0001
0000
1000
0000
0010
1000
0000
,  // measure 18
1001
0000
1000
0000
0010
0100
0001
0200
,  // measure 19
0000
0000
0310
0000
0000
0000
1000
0000
0100
0000
0010
0000
0001
1000
0001
0000
,  // measure 20
1000
0000
0010
0000
1000
0010
0100
0002
,  // measure 21
0000
0000
0013
0000
0000
0000
0100
0000
1000
0000
0001
0000
0010
0001
0010
0000
,  // measure 22
0100
0000
0010
0000
0001
1000
0100
2000
,  // measure 23
0000
0000
3002
0000
0000
0000
0013
0000
0000
0000
0001
0000
1000
0010
1000
0000
,  // measure 24
0010
1000
0001
0010
0000
0001
0100
0110
,  // measure 25
0000
0000
0010
0000
1000
0000
1000
0000
0001
0000
0001
0000
1000
0010
0100
0001
,  // measure 26
1000
0000
0010
1000
0100
1000
0001
0020
,  // measure 27
0000
0031
0000
0100
0010
1000
0001
1000
,  // measure 28
0010
0000
1000
0100
0001
0100
1000
0020
,  // measure 29
0000
0130
0000
0001
0010
0100
1000
0001
,  // measure 30
0010
0000
0001
0100
0010
1000
0100
2000
,  // measure 31
0000
3002
0000
0023
0000
0001
0031
0000
,  // measure 32
0010
0100
1000
0001
0000
0010
0001
0100
,  // measure 33
0010
0000
1000
0000
0001
0000
0010
0000
0001
0000
0000
0001
1000
0000
0010
0000
,  // measure 34
1000
0100
1000
0001
0000
0010
0001
0100
,  // measure 35
0010
0000
0110
0000
0010
1000
0001
0020
,  // measure 36
0000
0100
0130
0000
0100
1000
0001
0010
,  // measure 37
1000
0010
0100
0000
0001
1000
0000
0010
,  // measure 38
1010
0000
0100
1000
0001
0010
0001
0200
,  // measure 39
0000
0010
0310
0000
1000
0001
0010
0100
,  // measure 40
1000
0010
0100
0010
0000
0010
1000
0010
,  // measure 41
0100
0001
0010
0001
0100
0010
1000
0000
,  // measure 42
0001
0000
0010
0000
0100
0000
1000
0000
0001
0000
0000
0001
1000
0000
0000
1000
,  // measure 43
0010
0000
0000
1000
0000
0000
0100
0000
0010
0000
0000
0001
0000
0000
0100
0000
,  // measure 44
0101
0000
0000
0110
0000
0000
1010
0000
1000
0001
0100
0001
1000
0000
0000
0000
,  // measure 45
0001
1000
0010
0100
0000
0001
0101
0000
,  // measure 46
0001
0100
0010
1000
0000
0100
1100
0000
,  // measure 47
1000
0000
0000
0100
0000
0000
0010
0000
0001
0000
0000
1000
0000
0000
0010
0000
,  // measure 48
0100
0000
0000
0001
0000
0000
0010
0000
0100
0000
1000
0000
0001
0000
0000
0000
,  // measure 49
2001
0000
3010
1000
0001
0100
0010
1000
,  // measure 50
0100
0000
0000
0010
0000
0000
0002
0000
0000
0000
0100
0000
0103
0000
0000
0000
,  // measure 51
1010
0000
0000
0101
0000
0000
0001
0000
0010
0000
0100
0000
0000
0000
1000
0000
,  // measure 52
0020
0000
0000
0000
2030
0000
0000
0000
3100
0000
0000
0100
0010
0000
0000
0010
,  // measure 53
0001
1000
0010
1000
0000
0001
1001
0000
,  // measure 54
0001
0100
0010
1000
0000
0100
1100
0000
,  // measure 55
1000
0000
0000
0100
0000
0000
0010
0000
0001
0000
0000
1000
0000
0000
0010
0000
,  // measure 56
0100
0000
0000
0001
0000
0000
0010
0000
0100
0000
1000
0001
0000
0010
0001
0000
,  // measure 57
0200
0000
0000
0320
0000
0000
1030
0000
,  // measure 58
1001
0000
0000
0001
0000
0000
0010
0000
0100
0000
0000
1000
0000
0000
0010
0000
,  // measure 59
1000
0100
0010
0001
1000
0010
0100
0001
,  // measure 60
1000
0100
0001
0100
1000
0000
1001
0000
,  // measure 61
0001
0000
0010
0000
0100
0000
0000
1000
0000
0000
0010
0000
1000
0000
0000
0000
,  // measure 62
0100
0000
0010
0000
0001
0000
0000
0100
0000
0000
0001
0000
0010
0000
0000
0000
,  // measure 63
0100
0000
0000
1100
0000
0000
1000
0000
0000
1010
0000
0000
0010
0000
0100
0000
,  // measure 64
0001
0000
1000
0000
0100
0000
0000
1000
0000
0000
0001
0000
0010
0000
0000
0000
,  // measure 65
0011
0000
0010
0000
0100
0000
0000
1000
0000
0000
0001
0000
0100
0000
0000
0000
,  // measure 66
0001
0000
0010
0000
0100
0000
0000
1000
0000
0000
0001
0000
0100
0000
0000
0000
,  // measure 67
0001
0000
0000
0011
0000
0000
1000
0000
0000
1010
0000
0000
0010
0000
0100
0000
,  // measure 68
0001
0000
0010
0000
0100
0000
1000
0000
0001
1000
0000
0001
0000
0100
0001
0000
,  // measure 69
1001
0000
1000
0100
0000
0001
0100
1000
,  // measure 70
0010
0000
0000
0000
0001
0000
0010
0000
0000
0000
1000
0000
0100
0000
0010
0001
,  // measure 71
0010
0000
0100
1000
0000
0010
0100
0001
,  // measure 72
1000
0000
0000
0000
0001
0000
0100
0000
0010
0000
1000
0100
1000
0000
0001
0000
,  // measure 73
0100
0000
0000
0000
;

//---------------dance-single - ----------------
#NOTES:
     dance-single:
     :
     Beginner:
     1:
     0.122,0.200,0.009,0.000,0.000:
0000
0000
0000
0000
,
0000
0000
0000
0000
,
0000
0000
0000
0000
,
0000
0000
0000
0000
,
1000
0000
0000
0000
,
0001
0000
0001
0000
,
0001
0000
0000
0000
,
0100
0000
0100
0000
,
0000
0000
0000
0000
,
0010
0000
0000
0000
,
1000
0000
0000
0000
,
0001
0000
0001
0000
,
1000
0000
1000
0000
,
0100
0000
0000
0000
,
0010
0000
0000
0000
,
0001
0000
0001
0000
,
0100
0000
0100
0000
,
0010
0000
0000
0000
,
1000
0000
0000
0000
,
0001
0000
0000
0000
,
0100
0000
0000
0000
,
0010
0000
0000
0000
,
1000
0000
0000
0000
,
0100
0000
0000
0000
,
0010
0000
0010
0000
,
0010
0000
0000
0000
,
0001
0000
0000
0000
,
1000
0000
0000
0000
,
0100
0000
0000
0000
,
1000
0000
0000
0000
,
0010
0000
0000
0000
,
0100
0000
0000
0000
,
0001
0000
0001
0000
,
0001
0000
0000
0000
,
1000
0000
0000
0000
,
0010
0000
0010
0000
,
0010
0000
0000
0000
,
0100
0000
0000
0000
,
0001
0000
0000
0000
,
1000
0000
1000
0000
,
1000
0000
0000
0000
,
0001
0000
0000
0000
,
1000
0000
1000
0000
,
0001
0000
0001
0000
,
1000
0000
0000
0000
,
0010
0000
0000
0000
,
0100
0000
0100
0000
,
0001
0000
0001
0000
,
1000
0000
0000
0000
,
0001
0000
0000
0000
,
0010
0000
0000
0000
,
0100
0000
0100
0000
,
1000
0000
0000
0000
,
0001
0000
0000
0000
,
0010
0000
0000
0000
,
0001
0000
0001
0000
,
0001
0000
0000
0000
,
1000
0000
0000
0000
,
0010
0000
0000
0000
,
0100
0000
0100
0000
,
0100
0000
0000
0000
,
0001
0000
0000
0000
,
0010
0000
0010
0000
,
0100
0000
0100
0000
,
1000
0000
0000
0000
,
0001
0000
0000
0000
,
1000
0000
1000
0000
,
0010
0000
0010
0000
,
0100
0000
0000
0000
,
0001
0000
0000
0000
,
0010
0000
0010
0000
,
0100
0000
0100
0000
,
1001
0000
0000
0000
;

//---------------dance-single - ----------------
#NOTES:
     dance-single:
     :
     Easy:
     4:
     0.329,0.333,0.037,0.028,0.000:
0000
0000
0000
0000
,
0000
0000
0000
0000
,
0000
0000
0000
0000
,
0000
0000
0000
0000
,
1000
0001
0100
0001
,
1000
1000
0001
0001
,
0010
0001
0100
0010
,
1000
1000
0001
0001
,
0000
0000
0000
0000
,
1000
0100
1000
0000
,
0001
0100
0001
0000
,
1000
0010
0100
0001
,
1000
1000
0001
0001
,
1000
0010
1000
0000
,
0001
0010
0001
0000
,
1000
0100
0010
0001
,
1000
1000
0001
0001
,
0100
0000
0010
0000
,
1000
0001
1000
0001
,
1000
0000
0100
0000
,
0010
0001
0010
0001
,
0010
0000
0001
0000
,
0100
0010
0100
0010
,
0100
0000
0010
0000
,
1000
0001
1000
0001
,
1000
0010
1000
0001
,
0010
0001
0100
0000
,
0010
1000
0100
1000
,
0001
0010
0001
0000
,
0100
0010
1000
0010
,
0100
0100
0001
0001
,
0010
0001
0100
0010
,
1000
1000
0001
0001
,
1000
0010
0100
0001
,
1000
0000
0001
0001
,
1000
0010
0100
0001
,
0010
0010
0100
0100
,
0110
0100
1000
0010
,
0100
0100
0001
0010
,
0001
0001
1000
1000
,
0010
0010
0100
0100
,
0002
0000
1003
0000
,
0001
0001
1000
1000
,
0010
0010
0100
0110
,
0100
0001
0010
0010
,
0001
0100
0010
0010
,
1000
0001
0010
0001
,
1000
0100
1000
0000
,
1001
0000
1000
0010
,
0100
0001
0010
0000
,
0100
1000
0001
0010
,
0001
0001
1000
1000
,
0010
0100
0001
0001
,
0010
0100
1000
1000
,
0010
0100
0001
1000
,
0010
1000
0001
0010
,
0002
0000
0103
0000
,
0020
0000
1030
0100
,
0010
0010
0001
0001
,
1000
1000
0010
0010
,
0100
0001
0010
0010
,
0100
1000
0010
0010
,
0100
0001
1000
0010
,
1000
1000
0001
0001
,
0010
0001
0100
0100
,
0010
1000
0100
0100
,
0010
0001
1000
0010
,
0100
0100
0001
0001
,
0010
0000
0001
0000
,
0100
0000
0010
0000
,
1000
0100
0010
0001
,
1000
0010
0100
0001
,
1001
0000
0000
0000
;

//---------------dance-single - ----------------
#NOTES:
     dance-single:
     :
     Medium:
     6:
     0.501,0.599,0.527,0.092,0.000:
0000
0000
0000
0000
,
0000
0000
0000
0000
,
0000
0000
0000
0000
,
0000
0000
0000
0000
,
1000
0000
0100
0000
0010
0000
0001
0100
,
0001
0000
1000
0100
1000
0000
1001
0000
,
1000
0000
0010
0000
0100
0000
0001
0010
,
0001
0000
0100
0000
0010
1000
0001
0100
,
0000
0000
0000
0000
,
0001
0010
0001
0000
0100
0000
0110
0000
,
0010
1000
0010
0000
1000
0000
1100
0000
,
1000
1000
0001
0001
,
1000
0010
1000
0000
0001
0000
1001
0000
,
0001
0100
0001
0000
1000
0000
1100
0000
,
1000
0001
1000
0000
0001
0000
0101
0000
,
1000
1000
0010
0010
,
0100
0001
0100
0000
0001
0010
0001
0000
,
0101
0000
0100
0000
0010
0000
1000
0010
,
0000
0100
0000
0001
0000
0100
0010
0000
,
1010
0000
1000
0000
0100
0000
0010
0001
,
0000
0010
0000
0100
0000
1000
0010
0000
,
0101
0000
0001
0000
0010
0000
0100
1000
,
0000
0001
0000
0010
0000
0001
0100
0000
,
0010
0000
1000
0010
0000
0100
0000
0001
,
0000
0010
0100
0000
1000
0000
0001
0000
,
1001
0000
1000
0000
0010
0000
0100
0001
,
0000
0100
0000
0010
0000
1000
0100
0000
,
1100
0000
1000
0000
0100
0000
0010
0001
,
0000
0010
0000
0100
0000
1000
0010
0000
,
0101
0000
0001
0000
0010
0000
0100
1000
,
0000
0001
0000
0010
0000
0001
0100
0000
,
0010
0000
1000
0100
0000
1000
0000
0001
,
0000
0010
0001
0000
0100
0000
0110
0000
,
0010
0000
1000
0100
0000
1000
0000
0001
,
0010
0000
0011
0000
0001
0100
0001
0000
,
1000
0100
1000
0000
0001
0100
0001
0000
,
1000
0010
1000
0000
0001
0010
0001
0000
,
1001
0000
1000
0000
0010
0000
0100
0001
,
0000
0100
0001
0000
0100
0000
0110
0000
,
0010
1000
0010
0000
1000
0100
1000
0000
,
0001
1000
0001
0000
0010
0001
0010
0000
,
0102
1003
1001
1100
,
1000
0000
0010
0100
0001
0000
0010
0100
,
1000
0001
1000
1001
,
1000
0000
1010
0000
0010
0100
0001
0000
,
0010
0000
0011
0000
0001
0010
0100
0000
,
1100
1100
0101
0101
,
1010
0011
2001
3100
,
2001
0000
3010
0000
1000
0010
0100
0000
,
0001
0010
0200
1300
,
1100
0000
1100
0000
1000
0100
0010
0000
,
0011
0011
0101
0101
,
1000
0000
1001
0000
0001
0100
0010
0000
,
1000
0000
1100
0000
1000
0100
0010
0000
,
0011
0011
1100
1100
,
0101
0101
1010
1010
,
2002
0000
0000
3003
,
0110
0010
1000
0100
,
0012
0010
0100
1003
,
2000
3001
1001
0110
,
0001
0010
0001
0000
0100
0000
0110
0000
,
0010
1000
0010
0000
1000
0000
1100
0000
,
1000
1000
0001
0001
,
1000
0010
1000
0000
0001
0000
1001
0000
,
0001
0100
0001
0000
1000
0000
1100
0000
,
1000
0001
1000
0000
0001
0000
0101
0000
,
1000
1000
0010
0010
,
0100
0001
0100
0000
0001
0010
0001
0000
,
0102
0000
0000
0100
0000
0000
0013
0000
,
2000
0000
0000
0100
0000
0000
3010
0000
,
1000
0000
0010
0000
0100
0001
0000
0100
,
0010
0000
1000
0000
0001
0000
0010
0001
,
1000
0000
0000
0000
;
