#TITLE:Akasagarbha;
#SUBTITLE:;
#ARTIST:wa. vs ETIA.;
#TITLETRANSLIT:;
#SUBTITLETRANSLIT:;
#ARTISTTRANSLIT:;
#CREDIT:;
#BANNER:STAY (Joey Riot remix).png;
#BACKGROUND:STAY (Joey Riot remix)-bg.png;
#LYRICSPATH:;
#CDTITLE:./CDTITLES/DanceDanceRevolution HOTTEST PARTY 2.png;
#MUSIC:[BMS]Akasagarbha[BGA].mp3;
#OFFSET:-0.055;
#SAMPLESTART:32.047;
#SAMPLELENGTH:15.000;
#SELECTABLE:YES;
#BPMS:0.000=192.000;
#STOPS:68.000=0.040
;
#BGCHANGES:;

//---------------dance-single - ----------------
#NOTES:
     dance-single:
     :
     Hard:
     9:
     0.653,0.749,0.396,0.337,0.207: // measure 1
0000
0000
0000
0000
,  // measure 2
2002
0000
0000
3003
,  // measure 3
0001
0100
0010
1000
0001
0000
1010
0000
,  // measure 4
2200
0000
3300
0000
1000
0010
0100
0001
,  // measure 5
0202
0303
1001
1000
,  // measure 6
1000
0000
0000
1010
0000
0000
0000
0000
,  // measure 7
0001
0000
0000
0110
0000
0000
1000
0000
,  // measure 8
0001
0000
0100
0100
0000
0000
0000
0000
,  // measure 9
0001
0100
0001
0000
1000
0010
1000
0000
,  // measure 10
1001
0000
0000
2002
0000
3003
0000
0000
,  // measure 11
1000
0010
1000
0001
0010
0000
0100
0000
,  // measure 12
2000
0000
0000
0000
3001
0100
0010
1000
,  // measure 13
0010
0000
0000
0000
,  // measure 14
1000
0010
1000
0010
0000
0100
0001
0100
,  // measure 15
0001
0010
0100
1000
0000
0001
0100
0001
,  // measure 16
1000
0100
0010
0001
0000
1000
0010
1000
,  // measure 17
0002
0000
1003
1000
,  // measure 18
2002
3003
0001
0000
,  // measure 19
1000
0000
0000
0001
0000
0000
1000
0000
,  // measure 20
0001
0100
0010
1000
0000
1000
0010
0000
,  // measure 21
1010
0000
0000
1001
0000
0000
2000
0000
,  // measure 22
3001
0000
0000
0000
0000
0000
0100
0000
0000
0000
0010
0000
1000
0010
1000
0000
,  // measure 23
0010
0000
0000
1000
0000
0000
0001
0000
,  // measure 24
2001
0000
0000
0010
3000
0000
0001
0100
,  // measure 25
0001
0000
0000
0000
1000
0000
0001
0100
,  // measure 26
0001
0000
0000
0000
0000
1000
0010
0100
,  // measure 27
0001
0000
1000
0010
0000
1000
0000
0000
,  // measure 28
0001
0000
1000
0100
0010
0000
0001
0000
,  // measure 29
1000
0000
0000
0000
0010
0000
0000
0000
0100
0000
0000
0001
0100
0000
0001
0000
,  // measure 30
0201
0000
0000
0000
0000
0000
0301
0000
0000
0000
1000
0000
0001
0100
0001
0000
,  // measure 31
1000
0000
0000
1001
0000
0000
0001
0000
,  // measure 32
0200
0000
0000
0310
0000
0000
1000
0001
,  // measure 33
1000
0000
0002
0000
0203
0000
0310
1000
,  // measure 34
0010
1000
0001
0100
0001
0100
0001
0001
,  // measure 35
2000
0000
0000
0010
0000
0000
0001
0000
,  // measure 36
3001
0000
0010
0100
0000
1000
0000
0001
,  // measure 37
2002
0000
0000
0000
0000
0000
0000
0000
3003
0000
0000
0001
0100
0000
0010
0000
,  // measure 38
2000
0010
0001
3010
,  // measure 39
0002
1000
0010
1003
,  // measure 40
0100
0010
0001
0010
0000
0100
1000
0100
,  // measure 41
0000
0010
0001
0010
0000
0100
1000
0100
,  // measure 42
2000
0010
0010
3001
,  // measure 43
0200
0301
2000
3001
,  // measure 44
0001
1000
0100
0001
0000
0001
0100
1000
,  // measure 45
0000
0000
0001
0000
0100
0000
0010
0000
0000
0000
0000
1000
0010
0000
1000
0000
,  // measure 46
0002
0100
0010
1003
,  // measure 47
2000
3010
0200
0301
,  // measure 48
1000
0001
0100
1000
0000
1000
0100
0001
,  // measure 49
0000
0001
0100
0010
0000
0010
1000
0001
,  // measure 50
2001
0010
0001
3010
,  // measure 51
0002
0103
0020
1030
,  // measure 52
0001
0100
0010
1000
0001
0100
0010
1000
,  // measure 53
0002
0000
0000
0000
,  // measure 54
1003
0000
0001
0000
,  // measure 55
1000
0000
0000
0000
0000
0000
0000
0000
0001
0000
0000
0000
0000
0000
1000
0000
0000
0000
0000
0000
0100
0000
0000
0000
0010
0000
0000
0000
0000
0000
0001
0000
0000
0000
0000
0000
1000
0000
0000
0100
0000
0000
1000
0000
0000
0100
0000
0000
,  // measure 56
1000
0000
0000
0000
0000
0000
0001
0000
0000
0000
1000
0000
0001
0000
1000
0010
,  // measure 57
1000
0000
0000
0001
0100
0010
1000
0001
,  // measure 58
0100
0000
0000
0000
0000
0000
0010
0000
0000
0000
1000
0000
0001
1000
0001
0000
,  // measure 59
1000
0000
0100
0000
0010
0000
0001
0000
1000
0000
0100
0000
0010
0000
0000
0001
0000
0000
0100
0000
0000
0010
0000
0000
,  // measure 60
0100
0000
0000
0001
0000
1000
0000
0010
,  // measure 61
0000
1000
2002
0000
0000
0000
3003
0000
,  // measure 62
1001
0000
0001
1001
0000
1000
0100
0001
,  // measure 63
0100
1000
0010
0100
0001
1000
0100
1000
,  // measure 64
2100
3002
0203
0301
,  // measure 65
1001
0000
1001
0000
1001
0000
1010
0000
1010
0000
1010
0000
,  // measure 66
0000
0000
0110
0000
0000
1001
0000
1001
,  // measure 67
0000
0000
1000
0000
0001
0100
0001
0000
1000
0000
1100
0000
0000
0000
1100
0000
,  // measure 68
1000
0002
0103
0002
1003
0100
0001
0100
,  // measure 69
1000
0000
0000
0000
0000
0000
0000
0000
0000
0000
0001
1000
0001
0000
0000
0000
,  // measure 70
1000
0000
0000
0010
0000
0000
0100
0000
0000
0001
0000
1000
0010
1000
0010
0000
,  // measure 71
0100
0000
0000
0001
0000
0000
1000
0000
0000
0010
0000
0000
0100
0001
0100
0000
,  // measure 72
0001
0000
0000
0010
0000
0000
0100
0000
0000
1000
0000
0000
0001
0100
0001
0000
,  // measure 73
1000
0000
0000
0010
0000
0000
0100
0000
0010
0000
0000
1000
0000
0000
0010
0000
,  // measure 74
1000
0000
0000
0100
0000
0000
0001
0000
0000
0100
0000
0000
1000
0100
0010
0000
,  // measure 75
0001
0000
0000
0001
0000
0000
0001
0000
0100
0000
0000
0100
0000
0000
0100
0000
,  // measure 76
0001
0010
0001
0010
0001
0000
1000
0100
1000
0100
1000
0000
0001
0000
0100
0000
,  // measure 77
0010
0000
1000
0000
0100
0000
0010
0000
0001
0000
0000
1000
0000
0000
0001
0000
,  // measure 78
1000
0000
0010
1010
0000
1000
0010
0100
,  // measure 79
0001
1000
0010
0100
0001
1000
0100
0001
,  // measure 80
0100
1000
0100
0010
0001
0100
0010
1000
,  // measure 81
0001
0000
0010
0000
0100
0000
1000
0000
0001
0000
0000
0001
0000
0000
0001
0000
,  // measure 82
1001
0000
0000
1000
0000
0000
0010
0000
1010
0000
0000
0101
0000
0000
1010
0000
,  // measure 83
1000
0000
0000
0001
0000
0000
0100
0000
0010
0000
1010
0000
0000
0000
1010
0000
,  // measure 84
1000
0100
0010
0001
1000
1000
0010
0010
,  // measure 85
1010
0000
0000
0000
1001
0000
0000
0000
0101
0000
0000
0101
0000
0000
0101
0000
,  // measure 86
0001
0000
1000
0000
,  // measure 87
1000
0000
0000
0100
0000
0000
0001
0000
,  // measure 88
0100
1000
0100
0010
0000
0001
0100
0000
,  // measure 89
0101
0000
0000
1001
0000
0000
0101
0000
;
