#TITLE:trezire de spirit;
#SUBTITLE:;
#ARTIST:TAKESHI KURAMOCHI;
#TITLETRANSLIT:;
#SUBTITLETRANSLIT:;
#ARTISTTRANSLIT:;
#CREDIT:;
#BANNER:trezire de spirit BN.png;
#BACKGROUND:trezire de spirit BG.png;
#LYRICSPATH:;
#CDTITLE:;
#MUSIC:trezire de spirit.mp3;
#OFFSET:-0.282;
#SAMPLESTART:14.565;
#SAMPLELENGTH:14.840;
#SELECTABLE:YES;
#BPMS:0.000=268.000,272.000=134.000,304.000=268.001;
#STOPS:;
#BGCHANGES:;

//---------------dance-single - ----------------
#NOTES:
     dance-single:
     :
     Beginner:
     3:
     0.292,0.514,0.028,0.102,0.000:
0000
0000
0000
0000
,
0000
0000
0000
0000
,
0000
0000
0000
0000
,
0000
0000
0000
0000
,
0000
0000
0000
0000
,
0000
0000
0000
0000
,
0000
0000
0000
0000
,
0000
0000
0000
0000
,
1000
0000
1000
0000
,
2000
0000
0000
0000
,
0001
0000
0001
0000
,
3001
0000
0000
0000
,
0100
0000
0100
0000
,
1000
0000
1000
0000
,
0002
0000
0000
0000
,
1003
0000
0001
0001
,
0001
0000
1000
0000
,
0010
0000
0100
0000
,
0001
0000
0010
0000
,
0100
0000
1000
0000
,
0100
0000
0010
0000
,
0001
0000
0100
0000
,
0010
0000
1000
0000
,
0100
0000
1000
0000
,
0001
0000
0010
0000
,
0001
0000
0100
0000
,
0010
0000
1000
0000
,
0001
0000
0010
0000
,
0001
0000
0100
0000
,
0010
0000
1000
0000
,
0100
0000
0010
0000
,
0001
0001
0001
0000
,
0010
0000
0100
0000
,
1000
0000
0010
0000
,
0100
0000
0001
0000
,
1000
0000
0010
0000
,
1000
0000
0001
0000
,
0010
0000
0001
0000
,
0100
0000
0010
0000
,
1000
0000
0100
0000
,
0001
0000
0100
0000
,
1000
0000
0100
0000
,
0001
0000
0001
0000
,
1000
0000
1000
0000
,
0001
0000
0010
0000
,
0100
0000
1000
0000
,
0010
0000
0100
0000
,
0001
0000
1000
1000
,
1000
0000
0001
0000
,
0010
0000
0001
0001
,
0001
0000
0100
0000
,
0010
0000
1000
1000
,
1000
0000
0010
0000
,
0100
0000
0001
0001
,
0001
0000
0010
0000
,
0100
0000
1000
1000
,
1000
0000
0010
0000
,
0100
0000
0001
0001
,
0001
0000
1000
0000
,
0100
0000
0010
0000
,
0001
0001
0001
0000
,
0100
0100
0100
0000
,
0010
0010
0010
0000
,
1000
1000
1000
0000
,
0001
0001
0001
0000
,
1000
1000
1000
0000
,
2002
0000
0000
0000
,
3003
0000
0000
0000
,
1000
0000
0010
0000
,
0100
0000
0001
0000
,
1000
0000
0100
0000
,
0010
0000
0001
0000
,
0100
0000
0010
0000
,
1000
0000
0010
0000
,
0100
0000
0001
0000
,
1000
0000
0100
0000
,
0010
0000
0001
0000
,
0010
0000
0100
0000
,
1000
0000
0010
0000
,
1000
0000
0100
0000
,
0010
0000
0001
0000
,
0100
0000
0010
0000
,
1000
0000
0001
0000
,
0010
0000
0001
0000
,
1000
0000
0001
0000
,
0010
0000
0100
0000
,
1000
0000
1000
0000
,
0001
0000
0001
0000
,
1000
0000
0010
0000
,
0100
0000
0001
0000
,
2002
0000
0000
0000
,
0000
0000
3003
0000
,
1000
0000
1000
0000
,
2000
0000
0000
0000
,
0001
0000
0001
0000
,
3001
0000
0000
0000
,
1000
0000
0000
0000
,
0010
0000
0000
0000
,
0100
0000
0100
0000
,
0001
0000
0001
0000
,
1000
0000
1000
0000
,
2000
0000
0000
0000
,
0001
0000
0001
0000
,
3001
0000
0000
0000
,
0100
0000
0100
0000
,
1000
0000
1000
0000
,
0002
0000
0000
0000
,
1003
0000
0001
0000
,
1000
1000
0010
0010
,
0100
0100
0001
0001
,
2002
0000
0000
0000
,
3003
0000
0000
0000
;

//---------------dance-single - ----------------
#NOTES:
     dance-single:
     :
     Easy:
     6:
     0.512,0.514,0.259,0.120,0.000:
0000
0000
0000
0000
,
0000
0000
0000
0000
,
0000
0000
0000
0000
,
0000
0000
0000
0000
,
0000
0000
0000
0000
,
0000
0000
0000
0000
,
0000
0000
0000
0000
,
0000
0000
0000
0000
,
1000
0010
0100
0001
,
1000
0000
1001
0000
,
1000
1000
0010
0010
,
0100
0100
0001
0001
,
1000
0000
0000
0100
0000
0000
0010
0000
,
0000
0001
0000
0000
0100
0000
0010
0000
,
2000
0000
3001
0000
,
1001
1000
0010
0100
,
0001
1000
0010
1000
,
0001
0010
0001
0100
,
0010
1000
0100
0001
,
0100
1000
0010
0100
,
0001
0000
1001
0000
,
1000
0010
0100
0001
,
1000
0100
1000
0100
,
0001
0100
0001
0100
,
1000
0010
0100
0001
,
1000
0100
0010
0001
,
1000
0010
0100
0001
,
1000
0100
0001
0100
,
1000
0010
0100
0001
,
1000
0100
0010
0001
,
1000
0000
0000
0010
0000
0000
0100
0000
,
0001
1000
1001
0000
,
1000
0010
0100
0001
,
1000
0100
0010
0001
,
1000
0010
0001
0010
,
1000
0100
0001
0100
,
1100
0000
0011
0000
,
0001
0100
0010
1000
,
0001
0010
1000
0010
,
0001
0100
1000
0100
,
0101
0100
0010
0000
,
1010
1000
0100
0000
,
1100
0000
0011
0000
,
0101
0000
1010
0000
,
1000
0010
0100
0001
,
1000
0100
0010
0001
,
1000
0000
0000
0010
0000
0000
0100
0000
,
0001
1000
0010
1000
,
1001
1000
0010
0010
,
0100
0100
0001
0001
,
0010
0010
0100
0100
,
1000
1000
0010
0010
,
0100
0100
0001
0001
,
0010
0010
1000
1000
,
0010
0010
0001
0001
,
0100
0100
0010
0010
,
1000
1000
0100
0100
,
1000
1000
0001
0001
,
0010
0010
0001
0001
,
0100
0100
0010
0010
,
1000
1000
1000
1000
,
0001
0001
0001
0001
,
0100
0100
0100
0100
,
0010
0010
0010
0010
,
1000
0100
0010
0001
,
0100
0010
1000
0001
,
2002
0000
0000
0000
,
0000
0000
3003
0000
,
1000
0010
0100
0001
,
1000
0100
0010
0001
,
1000
0010
0001
0010
,
1000
0100
0001
0100
,
1000
0010
0100
0001
,
1000
0100
0010
0001
,
1000
0010
0001
0010
,
1000
0001
0100
0101
,
0001
0100
0010
1000
,
0100
0001
0100
1000
,
0010
0001
0010
1000
,
0100
0010
0001
0100
,
0110
0000
1010
0000
,
1000
0100
0010
0001
,
0100
0010
1000
0010
,
0100
0001
0010
0100
,
1100
0000
0010
0000
,
0011
0000
0001
0000
,
0102
0000
1003
0000
,
1001
0000
0000
1000
0000
0000
0010
0000
,
0200
0000
0301
0000
,
0020
0000
0130
0000
,
2000
0000
3001
0000
,
1000
0010
0110
0000
,
0010
1000
0001
0010
,
0001
0000
1001
0000
,
2000
0000
3020
0000
,
0230
0000
0302
0000
,
1003
0000
1001
0000
,
1000
0000
0000
0010
0000
0000
0100
0000
,
0001
0000
0101
0000
,
1000
0000
1100
0000
,
1000
0010
0100
0001
,
1000
0000
1001
0000
,
1000
1000
0010
0010
,
0100
0100
0001
0001
,
1000
0000
0000
0100
0000
0000
0010
0000
,
0000
0001
0000
0000
0100
0000
0010
0000
,
2000
0000
0001
0000
,
3001
0000
1001
0000
,
1000
0010
0100
0001
,
1000
0000
0100
0000
0010
0000
0001
2000
,
0000
0000
0000
0000
,
3000
0000
0000
0000
;

//---------------dance-single - Copied from Copied f----------------
#NOTES:
     dance-single:
     Copied from Copied f:
     Medium:
     9:
     0.771,0.822,0.342,0.500,0.000:
0000
0000
0000
0000
,
0000
0000
0000
0000
,
0000
0000
0000
0000
,
0000
0000
0000
0000
,
0000
0000
0000
0000
,
0000
0000
0000
0000
,
0000
0000
0000
0000
,
0000
0000
0000
0000
,
1000
0000
1001
0000
0001
0010
0100
2000
,
0000
0000
3010
0000
,
1000
0010
0100
0001
,
1000
0100
1000
0000
0001
0100
0001
0000
,
1001
0000
1000
0010
0000
0010
0100
0000
,
0100
0001
0000
0001
0010
0100
1000
0002
,
0010
0000
0010
0000
,
0013
0000
0001
0100
0010
1000
0001
0010
,
0001
0000
1000
0000
0100
1000
0100
0000
,
0010
0000
0001
0000
1000
0010
1000
0000
,
0010
0000
0100
0000
0001
0100
0001
0000
,
1000
0000
0010
0000
1000
0100
1000
0000
,
0002
0103
0020
1030
,
0200
2300
3020
0230
,
0302
0000
1003
0000
0001
0100
0010
0000
,
2000
0000
3100
0000
0010
0001
1000
0000
,
1100
0000
0100
0000
0010
0001
0010
0000
,
0001
0000
0100
0000
0010
1000
0010
0000
,
0100
0000
0001
0000
1000
0010
1000
0000
,
0100
0000
0010
0000
0001
0100
0001
0000
,
0101
0000
0100
0000
0010
1000
0010
0000
,
1000
0000
0100
0000
1000
0100
1000
0000
,
1001
0000
1000
0001
0000
0001
0010
0000
,
0100
1000
0100
0010
0002
0000
1003
0000
,
1001
0000
0001
0000
0100
0010
1000
0000
,
0010
0000
0100
0000
0001
0010
0100
0000
,
1000
0000
0001
0000
0010
0001
1000
0000
,
0100
0000
1000
0000
0010
0100
0001
0000
,
0200
0310
2000
3001
,
0020
0032
0203
0320
,
2030
0000
3001
0000
1000
0010
0100
0000
,
0002
0000
0013
0000
0100
1000
0001
0000
,
1100
0000
0100
0000
0010
0001
1000
0000
,
1010
0000
0010
0000
0100
0001
0010
0000
,
0110
0100
1100
1000
,
1010
0000
0010
0000
0100
0001
0010
0001
,
0100
0000
0010
0000
1000
0001
1000
0000
,
0001
0000
0010
0000
0001
0100
0001
0000
,
0101
0000
0100
0010
0000
0010
1000
0000
,
0001
0000
1000
0100
1000
0001
1000
0000
,
1010
0000
1000
0001
1000
0000
0001
0010
,
0001
0000
1000
0100
1000
0000
0001
0000
,
0101
0000
0100
0010
0100
0000
0010
1000
,
0010
0000
1000
0100
1000
0000
0100
0000
,
0110
0000
0010
0001
0010
0000
0001
0100
,
0001
0000
0100
0010
0100
0000
0010
0000
,
1010
0000
1000
0100
1000
0000
0001
0100
,
0001
0000
1000
0010
1000
0000
0001
0000
,
0011
0000
0001
0010
0100
0000
1000
0010
,
0100
0000
0001
1000
0010
0000
1000
0000
,
1100
0000
0100
0010
0001
0000
0100
0010
,
1000
0000
0001
0010
0100
0000
1000
0000
,
0001
0100
0001
1000
0002
0000
1003
0000
,
0010
1000
0100
1000
0020
0000
0130
0000
,
0001
0010
1000
0010
0002
0000
0103
0000
,
0010
1000
0100
1000
0002
0000
0013
0000
,
0001
0100
0010
1000
0010
0100
0001
0000
,
0010
0100
1000
0100
0010
0001
1000
0000
,
2002
0000
0000
0000
,
0000
0000
0000
3003
,
2000
0000
3100
0000
0002
0000
0103
1000
,
0020
0000
0130
0000
0002
0000
0013
0100
,
1000
0000
0001
0000
1000
0100
0010
0001
,
2000
3010
0200
0301
,
0020
0000
1030
0000
0010
0001
0100
0010
,
2000
0000
3002
0000
0103
0000
0001
0100
,
0010
0000
1000
0100
0010
0000
0001
0100
,
2000
0000
3100
0000
0001
0001
1000
1000
,
1001
0000
1000
0000
0100
0010
0001
0000
,
0100
0000
0010
0000
1000
0001
0010
0000
,
0001
0000
1000
0000
0100
1000
0001
0000
,
0010
0000
0001
0000
0100
0010
1000
0000
,
0002
0103
0020
1030
,
0002
0023
0230
2300
,
3002
0000
0103
0000
0001
0100
0010
0000
,
2000
0000
3100
0000
0010
0001
0100
0000
,
0011
0000
0010
0000
0100
1000
0010
0000
,
0110
0000
0100
0001
1000
0001
0010
0000
,
0120
0000
0000
0000
0130
0000
0000
0100
,
1000
0000
0000
0001
0000
0000
0010
0000
,
0012
0000
1003
0000
,
2100
0000
3001
1000
,
2010
0000
3010
0000
,
1000
0010
0100
0001
1000
0000
0000
0000
,
1001
0000
1000
0001
0010
0001
0100
0020
,
0000
0000
1030
0000
,
0010
0100
0001
0010
,
0001
1000
0001
0000
1000
0010
1000
0000
,
2100
0000
3010
1000
,
1001
0000
0000
0011
0000
0000
0110
0000
,
1100
0100
0010
0001
,
1000
0010
1000
0001
0020
0000
0031
0000
,
0011
0000
0010
0100
1000
0001
0010
0002
,
0000
0000
0103
0000
,
0001
0100
0010
1000
,
0001
1000
0001
0000
1000
0100
1000
0000
,
1100
0000
0100
0010
0000
0010
0001
0000
,
0001
1000
0000
1000
0010
0100
0001
0200
,
0010
0000
1000
0000
,
0310
0000
0110
0000
,
1001
0000
1000
0100
0010
0001
0000
1000
,
0010
0000
0100
0001
0010
0100
1000
2002
,
0000
0000
0000
0000
,
3003
0000
0000
0000
;

//---------------dance-single - Copied from----------------
#NOTES:
     dance-single:
     Copied from:
     Hard:
     11:
     0.907,0.976,0.601,0.546,0.005:
0000
0000
0000
0000
,
0000
0000
0000
0000
,
0000
0000
0000
0000
,
0000
0000
0000
0000
,
0000
0000
0000
0000
,
0000
0000
0000
0000
,
0000
0000
0000
0000
,
0000
0000
0000
0000
,
1001
0000
1000
0010
0100
0001
0100
0020
,
0000
1030
0200
0301
,
0100
1000
0010
0100
0001
0010
0100
1000
,
0001
0010
0001
0100
0010
1000
0001
0010
,
0002
0003
1000
0020
0030
0100
0002
0003
,
1000
0020
0030
0100
0001
1000
0100
0020
,
0001
0000
0100
0030
,
1001
0000
1000
0010
1000
0001
0010
0001
,
0100
0000
0010
0000
1000
0001
0100
0000
,
0001
0000
0010
0100
1000
0100
0010
0000
,
0001
0000
0100
0000
0010
1000
0100
0000
,
1000
0000
0001
0010
0001
0100
0010
0000
,
2100
3001
0102
1003
,
1010
0101
0011
1100
,
2001
0000
3010
0000
1000
0010
0100
0000
,
0201
0000
0301
0010
0100
1000
0001
0000
,
0101
0000
0001
0000
0010
0100
1000
0000
,
0100
0000
0010
0001
0100
0010
1000
0000
,
0001
0000
0010
0000
0001
0100
0010
0000
,
1000
0000
0100
0001
0100
1000
0010
0000
,
0110
0000
0100
0000
0001
0010
1000
0000
,
0010
0000
0001
0100
0010
1000
0100
0000
,
2000
3000
0010
0200
0300
0001
2000
3000
,
0001
0010
0100
1000
0002
0000
0103
0000
,
0101
0000
0100
0000
0010
1000
0100
0000
,
1000
0000
0001
0010
0001
0100
0010
0000
,
1000
0000
0100
0000
0001
0100
1000
0000
,
0010
0000
0100
0001
0010
0001
0100
0000
,
2010
3001
0012
1003
,
1100
0011
0110
1010
,
1002
0000
0103
0000
0001
0100
0010
0000
,
0210
0000
0310
1000
0001
0010
0100
0000
,
0110
0000
0100
0000
1000
0010
0100
0000
,
0101
0000
0001
0000
0010
0100
1000
0000
,
2100
3001
0102
0103
,
2010
0000
3001
0000
1000
0010
0100
0001
,
1000
0000
0001
0100
0001
1000
0001
0000
,
0010
0000
0100
1000
0100
0010
0001
0000
,
1001
0000
1000
0010
0000
0100
0001
1000
,
0100
0000
0010
0001
0010
0100
1000
0000
,
0001
0100
0010
0100
0001
0100
0010
0100
,
0001
1000
0100
1000
0001
1000
0100
1000
,
0010
0100
1000
0100
0010
0100
1000
0100
,
0001
0010
1000
0010
0001
0010
1010
0000
,
0010
0001
0100
0001
0010
0001
0100
0001
,
0010
0100
1000
0100
0010
0100
1000
0100
,
0010
0001
1000
0001
0010
0001
1000
0001
,
0100
0010
1000
0010
0100
0010
1010
0000
,
0010
1000
0100
1000
0010
1000
0100
1000
,
0010
0100
0001
0100
0010
0100
0001
0100
,
0010
1000
0001
1000
0010
1000
0001
1000
,
0100
1000
0001
1000
0010
1000
1001
0000
,
1000
0010
0100
0001
0100
0010
1000
0000
,
0001
0010
0100
1000
0100
0010
0001
0000
,
1000
0010
0100
0001
0010
0001
0100
0000
,
0010
1000
0100
1000
0001
0010
0001
0000
,
0100
0010
1000
0010
0100
0001
0010
0100
,
1000
0010
0100
0001
1000
0010
0100
0000
,
2002
0000
0000
0000
,
0000
0000
3003
0000
,
2000
0000
3010
0000
0200
0000
0301
1000
,
0200
0000
1300
0000
0020
0000
0130
0001
,
1001
0000
1100
0000
0100
1000
0001
0010
,
0002
0103
0020
1030
,
0200
0000
1300
0000
0001
0010
1000
0010
,
0011
0000
0101
0000
0120
0000
1030
0001
,
0200
0000
0310
1000
0200
0000
0310
0001
,
2000
0000
0000
0000
3001
0000
0100
0000
0010
0000
1000
0001
1000
0000
0001
0000
,
1001
0000
1000
0000
0010
0100
0001
0000
,
0010
0000
0100
1000
0001
0010
0001
0000
,
0100
0000
0010
0000
1000
0100
0001
0000
,
0100
0000
1000
0010
0100
0001
0010
0000
,
0012
0103
2010
3100
,
1010
0110
0101
1001
,
2010
0000
3001
0000
1000
0010
0100
0000
,
0102
0000
0013
0100
1000
0001
1000
0000
,
1001
0000
1000
0000
0010
0100
0001
0000
,
0011
0000
0001
0010
0100
1000
0100
0000
,
0012
0000
0000
0000
1003
0000
0000
0001
,
1100
0000
0000
0110
0000
0000
0011
0000
,
1002
0000
0103
0010
,
2010
0000
3100
0010
,
0012
0000
1003
0000
,
0001
0100
0010
1000
1001
0000
0000
0000
,
1100
0000
1000
0100
0010
0001
0100
0020
,
0000
1030
0002
0103
,
0020
1030
0200
0310
,
0001
1000
0010
1000
0001
0100
0001
0000
,
0021
0000
0130
1000
,
1010
0000
0000
0110
0000
0000
0101
0000
,
2001
0010
0001
3100
,
1000
0010
0100
0001
2000
0000
3001
0000
,
1001
0000
1000
0010
0100
0001
0010
0200
,
0000
1300
0020
0130
,
0001
0010
0100
1000
0010
0100
0001
1000
,
0010
1000
0001
0010
0001
0100
0010
1000
,
0200
0300
1000
0020
0030
0100
0002
0003
,
1000
0200
0300
0010
0001
1000
0010
0200
,
0001
0000
1000
0000
,
0301
0000
0110
0000
,
1001
0000
1000
0010
0100
0001
0000
0010
,
0100
0000
1000
0001
0010
0001
1000
2020
,
0000
0000
0000
0000
,
3030
0000
0000
0000
;
