#TITLE:ラン・デビル・ラン;
#SUBTITLE:;
#ARTIST:少女時代;
#TITLETRANSLIT:Run Devil Run (Japanese ver.);
#SUBTITLETRANSLIT:;
#ARTISTTRANSLIT:Shojo Jidai (Girls' Generation);
#CREDIT:348;
#BANNER:Run Devil Run (JP) Banner.png;
#BACKGROUND:Run Devil Run (JP) Background.png;
#LYRICSPATH:Run Devil Run (JP).lrc;
#CDTITLE:;
#MUSIC:Run Devil Run (JP).ogg;
#OFFSET:-0.606;
#SAMPLESTART:64.569;
#SAMPLELENGTH:15.000;
#SELECTABLE:YES;
#BPMS:0.000=130.000;
#STOPS:12.000=0.923
;
#BGCHANGES:;

//---------------dance-single - ----------------
#NOTES:
     dance-single:
     :
     Beginner:
     1:
     0.088,0.132,0.000,0.000,0.000: // measure 1
0000
0000
0000
0000
,  // measure 2
0000
0000
0000
0000
,  // measure 3
0000
0000
0000
0000
,  // measure 4
1000
0000
0001
0000
,  // measure 5
0000
0000
0001
0000
,  // measure 6
0000
0000
1000
0000
,  // measure 7
0000
0000
1000
0000
,  // measure 8
0000
0000
0010
0000
,  // measure 9
0000
0000
0010
0000
,  // measure 10
0000
0000
0100
0000
,  // measure 11
0000
0000
0100
0000
,  // measure 12
0000
0000
0001
0000
,  // measure 13
0010
0000
0100
0000
,  // measure 14
1000
0000
0001
0000
,  // measure 15
1000
0000
0001
0000
,  // measure 16
0000
0000
1000
0000
,  // measure 17
0000
0000
1000
0000
,  // measure 18
0000
0000
0010
0000
,  // measure 19
0000
0000
0010
0000
,  // measure 20
0000
0000
0100
0000
,  // measure 21
0000
0000
0100
0000
,  // measure 22
0000
0000
0001
0000
,  // measure 23
0000
0000
0001
0000
,  // measure 24
0000
0000
1000
0000
,  // measure 25
0010
0000
0100
0000
,  // measure 26
0001
0000
0100
0000
,  // measure 27
0010
0000
0100
0000
,  // measure 28
0000
0000
0001
0000
,  // measure 29
0000
0000
1000
0000
,  // measure 30
0000
0000
0001
0000
,  // measure 31
0000
0000
1000
0000
,  // measure 32
0000
0000
0010
0000
,  // measure 33
0000
0000
0100
0000
,  // measure 34
0000
0000
0010
0000
,  // measure 35
0100
0000
0001
0000
,  // measure 36
0000
0000
1000
0000
,  // measure 37
0000
0000
1000
0000
,  // measure 38
0000
0000
0001
0000
,  // measure 39
0000
0000
0100
0000
,  // measure 40
0000
0000
0010
0000
,  // measure 41
0000
0000
0010
0000
,  // measure 42
0000
0000
0100
0000
,  // measure 43
0000
0000
0001
0000
,  // measure 44
1000
0000
0001
0000
,  // measure 45
0000
0000
0100
0000
,  // measure 46
0010
0000
0100
0000
,  // measure 47
0000
0000
0001
0000
,  // measure 48
1000
0000
0010
0000
,  // measure 49
0100
0000
0001
0000
,  // measure 50
0000
0000
0010
0000
,  // measure 51
0000
0000
0100
0000
,  // measure 52
0000
0000
1000
0000
,  // measure 53
0000
0000
1000
0000
,  // measure 54
0000
0000
0100
0000
,  // measure 55
0000
0000
0010
0000
,  // measure 56
0000
0000
0001
0000
;

//---------------dance-single - ----------------
#NOTES:
     dance-single:
     :
     Easy:
     3:
     0.214,0.265,0.076,0.171,0.000: // measure 1
0000
0000
0000
0000
,  // measure 2
0000
0000
0000
0000
,  // measure 3
0000
0000
0000
0000
,  // measure 4
0001
0000
1000
0000
,  // measure 5
0100
0000
0010
0000
,  // measure 6
0001
0000
1000
0000
,  // measure 7
0010
0000
0100
0000
,  // measure 8
0001
0000
1000
0000
,  // measure 9
0010
0000
1000
0000
,  // measure 10
0010
0000
0100
0000
,  // measure 11
0001
0000
0100
0000
,  // measure 12
0001
0000
1000
1000
,  // measure 13
0001
0001
0100
0010
,  // measure 14
0200
0300
0010
0010
,  // measure 15
0100
0100
0002
0000
,  // measure 16
0003
1000
0100
0000
,  // measure 17
0000
0100
1000
0000
,  // measure 18
0000
0001
0010
0000
,  // measure 19
0000
0010
0001
0000
,  // measure 20
0000
0100
0001
0000
,  // measure 21
0000
0001
0100
0000
,  // measure 22
0000
0010
1000
0000
,  // measure 23
0000
1000
0010
0000
,  // measure 24
0000
0100
0001
0000
,  // measure 25
0011
0000
1000
0000
,  // measure 26
1100
0000
0001
0000
,  // measure 27
0110
0000
2002
0000
,  // measure 28
0000
3003
1000
0100
,  // measure 29
1000
0000
0001
0010
,  // measure 30
0001
0000
1000
0010
,  // measure 31
1000
0000
0001
0100
,  // measure 32
0001
0000
1000
0100
,  // measure 33
0010
0001
0100
0010
,  // measure 34
1000
0001
1001
0000
,  // measure 35
0110
0000
2000
3000
,  // measure 36
0002
0003
2000
3000
,  // measure 37
0002
0003
1000
0001
,  // measure 38
0100
0010
0100
0001
,  // measure 39
1000
0000
0020
0030
,  // measure 40
0200
0300
0020
0030
,  // measure 41
0200
0300
0010
1000
,  // measure 42
0001
0100
0001
1000
,  // measure 43
0010
0000
1000
0000
,  // measure 44
1000
0000
0100
0000
,  // measure 45
0100
0000
0010
0000
,  // measure 46
0010
0000
0001
0000
,  // measure 47
0001
0000
2000
3000
,  // measure 48
0200
0300
0020
0030
,  // measure 49
0002
0003
1000
0100
,  // measure 50
0010
0000
0001
0010
,  // measure 51
0100
0000
1000
0100
,  // measure 52
0010
0001
1000
0000
,  // measure 53
0110
0000
0001
0100
,  // measure 54
0010
0000
1000
0010
,  // measure 55
0100
0000
0001
0100
,  // measure 56
0010
1000
0220
0330
;

//---------------dance-single - ----------------
#NOTES:
     dance-single:
     :
     Medium:
     6:
     0.378,0.450,0.456,0.247,0.133: // measure 1
0000
0000
0000
0000
,  // measure 2
0000
0000
0000
0000
,  // measure 3
0000
0000
0000
0000
,  // measure 4
2000
3001
0001
0010
,  // measure 5
0001
0001
1000
0100
,  // measure 6
1000
1000
0010
1000
,  // measure 7
0010
0010
0100
0001
,  // measure 8
0100
0100
0001
0010
,  // measure 9
0100
0100
0010
0100
,  // measure 10
1000
1000
1000
0100
,  // measure 11
0010
0010
0100
0010
,  // measure 12
0001
0001
1000
1100
,  // measure 13
0001
0011
0100
0101
,  // measure 14
0010
1010
1000
0110
,  // measure 15
0001
0110
2002
0000
,  // measure 16
3003
1001
1000
1000
,  // measure 17
1000
0000
0001
1000
0000
0000
0001
0000
0000
0001
0000
0000
,  // measure 18
0001
0000
1000
0001
0000
0000
0100
0000
0000
0100
0000
0000
,  // measure 19
0100
0000
0010
0100
0000
0000
0010
0000
0000
0010
0000
0000
,  // measure 20
0010
0000
0100
0010
0000
0000
1000
0000
0000
0100
0000
0000
,  // measure 21
0010
0000
0010
0001
0000
0000
0001
0000
0000
0100
0000
0000
,  // measure 22
0010
0000
0010
1000
0000
0000
1000
0000
0000
0001
0000
0000
,  // measure 23
0100
0000
0001
1000
0000
0000
0001
0000
0000
1000
0000
0000
,  // measure 24
0010
0000
1000
0001
0000
0000
2000
0000
0000
3100
0000
0000
,  // measure 25
0020
0031
0002
0013
,  // measure 26
0200
1300
2000
3001
,  // measure 27
0002
1003
0220
0000
,  // measure 28
0330
0110
2000
0010
,  // measure 29
3010
1010
0002
0100
,  // measure 30
0103
0101
0020
0001
,  // measure 31
0031
0011
0200
1000
,  // measure 32
1300
1100
2000
3001
,  // measure 33
1001
0000
0001
1000
0000
0000
0020
0000
0000
0130
0000
0000
,  // measure 34
0110
0000
0100
0010
0000
0000
1001
0000
0000
0110
0000
0000
,  // measure 35
2002
0000
0000
3003
0000
0000
1010
0000
0000
0000
0000
0101
,  // measure 36
0000
0000
0000
0000
0000
1100
0000
0000
0000
0000
0000
0011
,  // measure 37
0000
0000
0000
0000
0000
1001
0000
0000
0000
2000
0000
0000
,  // measure 38
0100
0000
0000
3010
0000
0000
1001
0000
0000
0100
0000
0002
,  // measure 39
0000
0000
0000
0013
0000
0000
0011
0000
0000
0000
0000
1010
,  // measure 40
0000
0000
0000
0000
0000
1100
0000
0000
0000
0000
0000
0101
,  // measure 41
0000
0000
0000
0000
0000
0110
0000
0000
0000
0200
0000
0000
,  // measure 42
0001
0000
0000
1300
0000
0000
0110
0000
0000
0010
0000
0100
,  // measure 43
0000
0000
1001
0000
0000
1000
0010
0000
0000
1001
0000
0000
,  // measure 44
0100
1001
0010
1100
,  // measure 45
0010
0101
0100
1001
,  // measure 46
0010
1001
0100
0011
,  // measure 47
0100
0000
0000
1010
0000
0000
1001
0000
0000
0000
0000
0110
,  // measure 48
0000
0000
0000
0000
0000
1001
0000
0000
0000
0000
0000
0110
,  // measure 49
0000
0000
0000
0000
0000
1001
0000
0000
0000
0100
0000
0000
,  // measure 50
0010
1000
0100
0010
,  // measure 51
0002
0000
1003
0010
,  // measure 52
0100
0001
0010
0100
,  // measure 53
2000
3000
0001
1000
,  // measure 54
0001
0000
0100
0010
0000
0000
0100
0000
0000
0010
0000
0000
,  // measure 55
0100
0000
0001
1000
0000
0000
0001
0000
0000
0110
0000
0000
,  // measure 56
1000
0110
2002
3003
;

//---------------dance-single - ----------------
#NOTES:
     dance-single:
     :
     Hard:
     8:
     0.551,0.476,0.456,0.361,0.622: // measure 1
0000
0000
0000
0000
,  // measure 2
0000
0000
0000
0000
,  // measure 3
0000
0000
0000
0000
,  // measure 4
1001
0000
1000
0100
0000
0100
1000
0000
0000
0010
0000
0000
,  // measure 5
1000
0000
0001
0010
0000
0010
0001
0000
0000
0100
0000
0000
,  // measure 6
0001
0000
1000
0010
0000
0010
1000
0000
0000
0001
0000
0000
,  // measure 7
1100
0000
0001
0100
0000
0100
0001
0000
0000
1000
0000
0000
,  // measure 8
0011
0000
1000
0001
0000
0001
2000
0000
0000
0010
0000
0000
,  // measure 9
3010
0000
0100
0010
0000
0010
0200
0000
0000
0001
0000
0000
,  // measure 10
0301
0000
0001
1000
0000
1000
0002
0000
0000
0103
0000
0000
,  // measure 11
1010
0000
0010
0100
0000
0100
0020
0000
0000
1030
0000
0000
,  // measure 12
0101
0000
0000
1001
0000
0000
1000
0000
0000
0010
0000
0100
,  // measure 13
0001
0000
0000
0110
0000
0000
0001
0000
0001
0100
0000
0010
,  // measure 14
1000
0000
0000
0110
0000
0000
1001
0000
0000
0100
0000
0001
,  // measure 15
1000
0000
0001
0100
0000
0000
0011
0000
0000
1100
0000
0000
,  // measure 16
1001
0000
1000
0010
0000
0100
0001
0000
0000
1000
0000
0001
,  // measure 17
1000
0000
0001
0100
0000
0010
1000
0000
0000
0001
0000
1000
,  // measure 18
0001
0000
1000
0100
0000
0010
0001
0000
0000
1010
0000
0010
,  // measure 19
0100
0000
0001
0010
0000
0100
1000
0000
0000
0101
0000
0100
,  // measure 20
0010
0000
1000
0100
0000
0001
0100
0000
0000
2000
0000
3010
,  // measure 21
1000
0000
0001
0010
0000
1000
0010
0000
0000
0002
0000
0013
,  // measure 22
0001
0000
1000
0010
0000
0001
0010
0000
0000
0200
0000
0301
,  // measure 23
0100
0000
0000
0000
0000
0000
0000
0000
0001
0000
0000
0000
0100
0000
0000
0000
0000
0000
0000
0000
1000
0000
0000
0000
0100
0000
0000
0000
0000
0000
0000
0000
0000
0000
0000
0000
0002
0000
0000
0000
0000
0000
0000
0000
0000
0003
0000
0000
,  // measure 24
0011
0000
0000
1100
0000
0000
1001
0000
1000
0100
0000
0100
,  // measure 25
0010
0000
0010
0001
0000
0001
0010
0000
0010
0100
0000
0100
,  // measure 26
1000
0000
1000
0001
0000
0000
0110
0000
0001
1000
0000
1000
,  // measure 27
0010
0000
0010
0100
0000
0100
0010
0000
0000
1001
0000
0000
,  // measure 28
1001
0000
0000
0110
0000
0000
1000
0000
0001
1000
0000
0000
,  // measure 29
0001
1000
0001
1000
0000
0000
0010
0000
0100
0010
0000
0000
,  // measure 30
0100
0010
0100
0010
0000
0000
1000
0000
0001
1000
0000
0010
,  // measure 31
0100
0000
0100
0010
0000
0000
1000
0001
1000
0001
0000
0000
,  // measure 32
0100
0010
0100
0010
0000
0000
2001
0000
0000
3100
0000
0000
,  // measure 33
1002
0000
0000
0103
0000
0000
1001
0000
1000
0010
0000
0010
,  // measure 34
0100
0000
0100
0001
0000
0000
0110
0000
0001
1000
0000
0010
,  // measure 35
0200
0000
0310
0100
0000
0001
2000
0000
0000
3001
0000
1002
,  // measure 36
0000
0000
0000
1003
0000
0020
0000
0000
0000
0130
0000
0210
,  // measure 37
0000
0000
0000
0310
0000
1100
0000
0000
0001
0010
0000
0100
,  // measure 38
1000
0000
0001
0100
0000
0010
2000
0000
0000
3010
0000
1020
,  // measure 39
0000
0000
0130
0010
0000
1000
0002
0000
0000
1003
0000
2001
,  // measure 40
0000
0000
0000
3001
0000
0200
0000
0000
0000
0310
0000
0120
,  // measure 41
0000
0000
0000
0130
0000
0011
0000
0000
1000
0010
0000
0100
,  // measure 42
0001
0000
1000
0100
0000
0010
0002
0000
0000
0103
0000
0101
,  // measure 43
0000
0000
0110
0000
0000
1000
0020
0000
0000
0130
0000
0000
,  // measure 44
0201
0000
0000
0310
0000
0000
0210
0000
0000
0320
0000
0130
,  // measure 45
0000
0000
0001
1000
0000
2100
0000
0000
0000
3010
0000
0012
,  // measure 46
0000
0000
0000
0103
0000
1002
0000
0000
0000
2003
0000
3001
,  // measure 47
0000
0000
1000
0001
0000
0100
0010
0000
0000
2000
0000
3002
,  // measure 48
0000
0000
0103
0020
0000
0230
0000
0000
0000
0300
0000
1001
,  // measure 49
0000
0000
0110
0000
0000
1001
0000
0000
1000
0100
0000
0010
,  // measure 50
0100
0000
1000
0001
0000
0000
1001
0000
0001
0010
0000
0100
,  // measure 51
0010
0000
0001
1000
0000
0000
1001
0000
0001
0100
0000
0100
,  // measure 52
0010
0000
0010
1000
0000
1000
0002
0000
0000
2003
0000
0000
,  // measure 53
3001
0000
0000
1001
0000
0000
0110
0000
1000
0010
0000
0100
,  // measure 54
0010
0000
1000
0010
0000
0000
0110
0000
0001
0100
0000
0010
,  // measure 55
0100
0000
0001
0100
0000
0000
0110
0000
0001
0010
0000
0010
,  // measure 56
0100
0000
0100
1000
0000
0020
0200
0000
0000
0330
0000
0000
;

//---------------dance-single - ----------------
#NOTES:
     dance-single:
     :
     Challenge:
     9:
     0.655,0.661,0.304,0.332,1.000: // measure 1
0000
0000
0000
0000
,  // measure 2
0000
0000
0000
0000
,  // measure 3
0000
0000
0000
0000
,  // measure 4
1002
0000
1003
0100
0000
0010
0001
0000
0000
1100
0000
0001
,  // measure 5
1000
0000
0001
0010
0000
0100
1000
0000
0000
0011
0000
1000
,  // measure 6
0001
0000
1000
0010
0000
0100
0001
0000
0000
1010
0000
0010
,  // measure 7
0100
0000
0001
0100
0000
0010
1000
0000
0000
0101
0000
0100
,  // measure 8
0010
0000
1000
0100
0000
0001
0100
0000
0000
1001
0000
1000
,  // measure 9
0001
0000
0001
0010
0000
1000
0010
0000
0000
1001
0000
0001
,  // measure 10
1000
0000
1000
0010
0000
0001
0010
0000
0000
0110
0000
0010
,  // measure 11
0100
0000
0001
0100
0000
1000
0100
0000
0000
0100
0010
0100
,  // measure 12
0010
0000
0000
0110
0000
0000
1001
0000
1000
0100
0000
0100
,  // measure 13
0001
0000
0001
0100
0000
0100
1000
0000
0001
0010
0000
0010
,  // measure 14
1000
0000
1000
0010
0000
0010
0001
0000
0001
0010
0000
0010
,  // measure 15
0100
0000
0100
1000
0000
1000
0001
1000
0002
2000
0000
0000
,  // measure 16
3003
0000
0000
0000
0010
0000
0100
0000
0000
0000
0100
0000
0010
0000
0000
0000
1000
0100
2000
0000
0000
0000
3010
0000
,  // measure 17
0200
0000
0000
0000
0301
0000
1000
0000
0000
0000
0001
0000
1000
0000
0000
0000
0001
0010
0002
0000
0000
0000
0103
0000
,  // measure 18
0020
0000
0000
0000
0130
0000
0010
0000
0000
0000
0010
0000
0100
0000
0000
0000
0001
0100
0002
0000
0000
0000
1003
0000
,  // measure 19
0200
0000
0000
0000
1300
0000
0001
0000
0000
0000
1000
0000
0001
0000
0000
0000
1000
0010
2000
0000
0000
0000
3001
0000
,  // measure 20
0020
0000
0000
0000
0031
0000
0100
0000
0000
0000
0100
0000
0001
0000
0000
0000
1000
0001
2000
0000
0000
0000
3100
0000
,  // measure 21
0020
0000
0000
0000
0031
0000
1000
0000
0000
0000
0010
0000
0100
0000
0000
0000
0100
0010
0200
0000
0000
0000
0301
0000
,  // measure 22
1000
0000
0000
0000
1000
0000
0010
0000
0000
0000
0010
0000
1000
0000
0000
0000
0001
1000
0002
0000
0000
0000
0013
0000
,  // measure 23
0200
0000
0000
0000
1300
0000
0001
0000
0000
0000
0100
0000
0010
0000
0000
0000
0010
0100
0020
0000
0000
0000
1030
0000
,  // measure 24
0001
0000
0000
0000
0000
0000
2002
0000
0000
0000
0000
3003
1001
0000
0000
0000
1000
0000
0100
0000
0000
0000
0010
0000
,  // measure 25
0001
0100
0010
1000
0000
0010
0100
0000
0001
0010
0000
0100
,  // measure 26
1000
0100
0010
0001
0000
0100
0010
0000
0010
0100
0000
0001
,  // measure 27
1000
0001
1000
0001
0000
1000
0001
0000
0000
0100
0010
0100
,  // measure 28
0010
0000
0000
0110
0000
1000
0100
0010
0100
2000
0000
3001
,  // measure 29
0010
0100
0010
0002
0000
1003
0100
0010
0100
0010
0001
1000
,  // measure 30
0100
0010
0001
2000
0000
3000
1001
0000
0100
0001
0000
1000
,  // measure 31
0010
0000
1000
0002
0000
0000
1003
0100
1000
0100
0010
0100
,  // measure 32
0010
0000
0001
0000
0010
0000
0002
0000
0000
0000
0000
0003
2001
0000
0000
0000
3010
0000
0200
0000
0000
0000
0301
0000
,  // measure 33
0020
0000
0031
2000
0000
3001
0100
0001
1000
0010
1000
0001
,  // measure 34
0010
0001
1000
0100
1000
0001
1000
0010
0100
0001
1000
0001
,  // measure 35
0020
0000
0031
0100
0000
0010
1000
0000
0001
1000
0000
0011
,  // measure 36
0000
0000
0100
0010
0000
1100
0000
0000
0010
0100
0000
0101
,  // measure 37
0000
0000
1000
0001
0000
1010
0000
0000
0001
1000
0000
1000
,  // measure 38
0001
0000
0100
0010
0000
0010
0100
0001
1000
0010
0000
1001
,  // measure 39
0000
0000
1000
0010
0000
0100
0001
0000
1000
0100
0000
0011
,  // measure 40
0000
0000
0001
0010
0000
1100
0000
0000
0010
1000
0000
0101
,  // measure 41
0000
0000
0100
0001
0000
1010
0000
0000
0001
1000
0000
0010
,  // measure 42
0100
0000
0100
0010
0000
1000
0001
1000
0010
0100
0000
0110
,  // measure 43
0000
0000
0100
0001
0000
1000
0010
0000
1000
0100
0000
0100
,  // measure 44
1000
0000
0001
0010
0000
0010
0001
0000
1000
0020
0000
0100
,  // measure 45
0000
0000
0130
0010
0000
0000
0110
0000
0001
0100
0000
0100
,  // measure 46
0001
0000
1000
0010
0000
0010
1000
0000
0010
2000
0000
0001
,  // measure 47
0000
0000
3001
1000
0000
0010
0100
0000
0001
1000
0000
1001
,  // measure 48
0000
0000
0100
0010
0000
0110
0000
0000
0010
0100
0000
0110
,  // measure 49
0000
0000
1000
0001
0000
1001
0000
0000
1000
0001
0000
1000
,  // measure 50
0010
0000
1000
0100
0010
0001
1000
0000
0001
0010
0000
0001
,  // measure 51
0100
0000
0001
1000
0010
0100
0001
0000
1000
0010
0000
1000
,  // measure 52
0100
0000
0010
0001
0000
1000
0002
0000
0010
0000
0013
0000
,  // measure 53
2000
0000
0100
0000
3100
0000
1001
0000
1000
0100
0000
0100
,  // measure 54
0010
0000
0010
0001
0000
0001
0100
0000
0100
0010
0000
0010
,  // measure 55
1000
0000
1000
0001
0100
0010
1000
0000
0001
1000
0000
0010
,  // measure 56
0100
0000
0100
0010
0000
1000
2002
0000
0000
3003
0000
0000
;
