#TITLE:PEACE BREAKER;
#SUBTITLE:;
#ARTIST:Omnipotenx;
#TITLETRANSLIT:;
#SUBTITLETRANSLIT:;
#ARTISTTRANSLIT:;
#GENRE:;
#CREDIT:Meseki;
#MENUCOLOR:1.0,0.0,0.8,1.0;
#BANNER:PEACE BREAKER-bn.png;
#BACKGROUND:PEACE BREAKER-bg.png;
#LYRICSPATH:;
#CDTITLE:cdtitle.png;
#MUSIC:PEACE BREAKER.mp3;
#OFFSET:0.000;
#SAMPLESTART:78.000;
#SAMPLELENGTH:12.000;
#SELECTABLE:YES;
#LISTSORT:;
#BPMS:0.000=160.000;
#STOPS:;
#TICKCOUNT:0.000=2;
#BGCHANGES:1.333=PEACE BREAKER.mpg=1.000=1=1=0,
99999=-nosongbg-=1.000=0=0=0 // don't automatically add -songbackground-
;
#KEYSOUNDS:;
#ATTACKS:;

//---------------dance-single - ----------------
#NOTES:
     dance-single:
     :
     Medium:
     7:
     0.364,0.418,0.075,0.328,0.000:
0000
0000
0000
0000
,
0000
0000
0000
0000
,
0000
0000
0000
0000
,
0000
0000
0000
0000
,
0000
0000
0000
0000
,
0000
0000
0000
0000
,
0000
0000
0000
0000
,
0000
0000
0000
0000
,
0000
0000
0000
0000
,
0000
0000
0000
0000
,
0000
0000
0000
0000
,
0000
0000
0000
0000
,
1000
0100
1000
0010
,
1000
0100
0002
0203
,
1300
0010
0100
0010
,
1000
0000
0100
0010
0001
1000
0010
0000
,
0100
0001
0100
0010
,
1000
0001
0010
0000
2000
0000
3020
0000
,
0031
0000
0100
0000
0010
1000
0100
0010
,
0001
0000
0100
0010
1000
0000
0000
0001
,
0010
0000
0002
0000
0000
0000
0013
0100
,
2000
0000
0000
0000
0200
3000
0000
0300
,
1000
0000
0020
0000
0000
0000
0130
0001
,
0020
0000
0000
0000
0002
0030
0000
0003
,
0100
0000
0020
0000
0000
0000
1030
0001
,
0020
0000
0032
0203
,
0310
2000
0000
0100
,
0200
3000
0000
0000
0000
0000
0300
0001
,
0100
1000
0010
0001
,
0010
0000
0100
0001
0010
0000
1000
0000
,
0010
0200
1300
0001
,
0100
0020
0000
1030
0100
0000
0002
0000
,
0103
1000
0010
0200
,
1300
0100
0010
0000
1000
0000
0100
0000
,
0001
0100
0010
0001
,
1000
0100
1000
0100
0010
0001
0010
0001
,
0000
0000
1000
0000
0000
0010
0000
0000
,
0100
0000
0000
0100
0000
0010
0000
1000
,
0000
0000
0100
0000
0000
0010
0000
0000
,
0001
0000
0000
0001
0000
1000
0000
0010
,
0000
0000
0100
0000
0000
0001
0000
0000
,
0010
0000
0000
0010
0000
0100
0000
1000
,
0000
0000
0001
0000
0000
1000
0000
0000
,
0010
0000
0000
0010
0000
0100
0000
0001
,
1000
0000
0010
0000
0100
0001
0100
0000
,
0010
0000
1000
0100
0000
0010
0000
0001
,
1000
0000
0100
0000
0010
0001
0010
0000
,
0100
0000
1000
0010
0000
0100
0000
0001
,
0010
0000
0100
0000
1000
0010
1000
0000
,
0100
0000
0001
0100
0000
0010
0000
0001
,
2000
0000
0000
0000
,
0002
0000
3000
0000
,
1003
0000
0010
0000
0100
0001
0010
0000
,
0100
0000
0010
0001
0000
0100
0000
0010
,
1000
0000
0100
0000
0010
0001
0100
0000
,
0010
0000
1000
0100
0000
0010
0000
0001
,
0100
0000
0010
0000
1000
0100
0010
0000
,
0100
0000
1000
0010
0000
0100
0000
0001
,
0010
0000
0100
0000
1000
0010
0000
0010
,
0100
0000
0100
0001
0000
0100
0000
0001
,
1001
0100
0010
1000
,
0100
0000
0010
0002
0000
0100
0003
1000
,
0100
0001
0100
1000
,
0010
0000
0100
0002
0000
0010
0003
1000
,
0010
0200
1000
0301
,
0010
0000
0100
2000
0000
0010
3000
0001
,
1001
0010
1001
0100
,
0020
0000
0000
0030
,
1001
2000
0100
0000
,
3002
0000
0103
0010
,
1010
2000
0001
0000
,
3002
0000
0000
0000
0103
0000
0010
1000
,
0100
0020
0100
0000
,
0032
0000
0103
0010
,
2010
0000
3200
0000
,
0310
0001
0010
0000
0001
0100
0010
1000
,
0100
0012
1000
0000
,
0203
0000
0310
1000
,
0001
2010
0100
0000
,
3002
0000
0000
0000
0103
0000
0010
1000
,
0001
0020
1000
0000
,
0032
0000
0203
0010
,
0301
0000
1000
0100
0001
0000
1000
0010
,
0001
0000
0000
1001
0000
1000
0010
0001
,
0000
0220
0000
0000
,
0000
0000
0000
0000
,
0000
0330
0000
0000
;

//---------------dance-single - ----------------
#NOTES:
     dance-single:
     :
     Easy:
     5:
     0.280,0.354,0.067,0.306,0.000:
0000
0000
0000
0000
,
0000
0000
0000
0000
,
0000
0000
0000
0000
,
0000
0000
0000
0000
,
0000
0000
0000
0000
,
0000
0000
0000
0000
,
0000
0000
0000
0000
,
0000
0000
0000
0000
,
0000
0000
0000
0000
,
0000
0000
0000
0000
,
0000
0000
0000
0000
,
0000
0000
0000
0000
,
1000
0000
0010
0000
,
0100
0000
0002
0203
,
0301
0000
0010
0000
,
0100
1000
0010
1000
,
0100
0000
0010
0000
,
0001
0000
0020
2030
,
3010
0000
0001
0100
,
0001
0010
0100
0000
,
1000
0002
0000
0103
,
0020
0000
0000
0000
0200
0030
0000
0300
,
0001
0020
0000
0130
,
2000
0000
0000
0000
0002
3000
0000
0003
,
0100
0020
0000
1030
,
0002
0000
0023
0230
,
1300
0020
0000
0100
,
0200
0030
0000
0000
0000
0000
0300
0000
,
0001
0010
1000
0000
,
0010
0002
0103
0000
,
0010
2000
3001
0010
,
0100
0000
1000
0002
,
0103
1000
0100
0020
,
1030
0001
0010
0001
,
0100
0000
0010
0000
,
1000
0100
0010
0001
,
0000
0000
1000
0000
0000
0010
0000
0000
,
0100
0000
0000
0001
0000
0000
0000
0010
,
0000
0000
0100
0000
0000
1000
0000
0000
,
0010
0000
0000
0100
0000
0000
0000
0001
,
0000
0000
0010
0000
0000
0001
0000
0000
,
0100
0000
0000
0010
0000
0000
0000
1000
,
0000
0000
0100
0000
0000
0010
0000
0000
,
0100
0000
0000
1000
0000
0000
0000
0001
,
0000
0100
0010
1000
,
0001
0000
0000
0010
0000
0001
0000
0010
,
0000
0100
1000
0001
,
0100
0000
0000
0010
0000
1000
0000
0010
,
0000
0100
0001
0010
,
0100
0000
0000
1000
0000
0001
0000
0020
,
0000
0000
0000
0000
,
0002
0030
0000
0000
0000
0000
0000
0000
,
1003
0010
0100
1000
,
0100
0000
0000
0010
0000
1000
0000
0001
,
0000
0010
1000
0010
,
0100
0000
0000
1000
0000
0010
0000
0100
,
0000
0001
0100
0010
,
0100
0000
0000
1000
0000
0100
0000
0001
,
0000
0000
0010
0000
0000
0001
0000
0000
,
1000
0000
0000
0010
0000
0100
0000
0010
,
0100
0001
1000
0010
,
1000
0000
0000
0200
0000
0010
0000
0310
,
0000
0001
1000
0010
,
0001
0000
0000
0020
0000
0100
0000
0130
,
0000
0000
0002
0000
0000
0013
0000
0000
,
0100
0000
0000
2000
0000
0001
3000
0001
,
1000
0000
1010
0000
,
0002
0000
0000
0003
,
0011
0020
0100
0000
,
0032
0000
1003
0000
,
0010
0200
0001
0000
,
0320
0000
1030
0100
,
0010
0002
0100
0000
,
2003
0000
3100
0010
,
0110
0000
1001
0000
,
0001
0100
0010
1000
,
0001
0012
1000
0000
,
0203
0000
0310
1000
,
0100
1200
0010
0000
,
2300
0000
3001
0100
,
0110
0020
1000
0000
,
0230
0000
0301
0010
,
0100
0001
0100
1000
,
0010
0000
0000
1001
0000
0000
1000
0001
,
0000
0220
0000
0000
,
0000
0000
0000
0000
,
0000
0330
0000
0000
;

//---------------dance-single - ----------------
#NOTES:
     dance-single:
     :
     Hard:
     9:
     0.489,0.579,0.164,0.395,0.063:
0000
0000
0000
0000
,
0000
0000
0000
0000
,
0000
0000
0000
0000
,
0000
0000
0000
0000
,
0000
0000
0000
0000
,
0000
0000
0000
0000
,
0000
0000
0000
0000
,
0000
0000
0000
0000
,
0000
0000
0000
0000
,
0000
0000
0000
0000
,
0000
0000
0000
0000
,
0000
0000
0000
0000
,
1000
0000
0000
0010
0000
0000
1000
0000
0001
0000
0000
0010
0000
0000
0001
0000
,
1000
0000
0000
0010
0000
0000
0100
0000
0001
0000
0100
0010
0100
0000
1000
0000
,
0100
0000
0000
0010
0000
0000
1000
0000
0100
0000
0000
0010
0000
0000
0001
0000
,
0100
0010
1000
0010
0001
1000
0100
0002
,
1003
0000
0000
0001
0000
0000
0100
0000
0001
0000
0000
0010
0000
0000
0100
0000
,
0010
0001
1000
0000
2020
3030
0202
0303
,
2000
0000
3100
0010
0100
0001
0100
1000
,
0010
0000
0100
0001
0010
0000
0000
0001
,
0100
0000
0020
0000
0000
0000
1030
0001
,
0020
0000
0001
0000
0200
0030
0000
2300
,
3001
0000
0200
0000
0000
0000
0310
1000
,
0002
0000
0010
0000
2000
0003
0000
3020
,
0130
0000
0002
0000
0000
0000
1003
0001
,
0020
0000
0000
0030
2002
3003
0220
0330
,
1000
0000
0010
1000
0010
0100
0010
0001
,
0010
1000
0001
0010
0100
0000
0000
0001
,
0100
0000
1000
0000
1010
0000
0010
0100
,
0001
0000
0010
0000
0200
0000
0000
0300
1000
0000
0010
0000
0100
0000
0010
0000
,
1000
0000
0200
0000
0310
0001
1000
0000
,
0010
0002
0000
0013
1000
0100
0002
0000
,
0103
1000
1010
0020
,
0130
0001
0010
0100
0001
0000
0100
0000
,
0110
1000
0110
0001
,
1000
0000
0100
0010
0100
0000
0010
0000
0001
0000
0100
0010
0100
0000
0010
0000
,
1000
0000
0001
0000
0000
0010
0000
0000
,
0100
0000
0000
1000
0000
0010
0000
0001
,
0000
0000
0010
0000
0000
1000
0000
0000
,
0100
0000
0000
0001
0000
0100
0000
0010
,
0000
0000
0001
0000
0000
1000
0000
0000
,
0010
0000
0000
0100
0000
0001
0000
0010
,
0000
0000
0100
0000
0000
0001
0000
0000
,
0100
0000
0000
1000
0000
0010
0000
0100
,
0001
1000
0100
1000
0010
0100
1000
0000
,
0100
0010
1000
0100
0010
0001
1000
0010
,
0000
0100
0001
0010
0100
0001
0100
0000
,
1000
0010
1000
0001
0000
0100
1000
0100
,
0000
0001
0010
0100
0010
0001
2000
3000
,
0100
0010
0001
0100
0010
1000
0010
0000
,
0200
0000
1000
0000
0000
0010
0000
0000
,
0002
0300
0000
0010
0000
0000
0100
0000
,
1003
0000
0010
1000
0001
0010
0100
0001
,
0100
0000
1000
0010
0000
0110
0000
0100
,
0001
0000
0010
0100
0001
0100
1000
0010
,
0100
0000
0001
0010
0000
0110
0000
0100
,
1000
0000
0001
0100
0010
0001
0010
1000
,
0100
0000
0010
0001
0000
1001
0000
1000
,
0200
0300
0010
0001
1000
0020
0030
0100
,
0001
0010
0100
0010
1000
0010
0001
1000
,
1001
0000
0001
0000
0100
0010
1000
0000
,
0001
0000
1000
0200
0000
0001
0000
0310
,
0001
0000
0100
0000
0010
1000
0100
0000
,
0001
0000
0100
0020
0000
0100
0000
0031
,
1000
0000
0020
0000
0000
0001
0000
0000
,
1030
0000
0100
0020
0000
1000
0030
0001
,
0101
0010
1100
0001
,
0200
0000
0000
0010
0000
0000
0301
0000
,
1001
0000
2000
0000
3100
0001
0100
1000
,
0002
0000
0100
0000
0013
0100
1000
0000
,
1010
0000
0020
0000
0130
1000
0100
0001
,
2000
0000
0100
0000
3010
0100
0001
0100
,
0001
0000
0020
0000
1030
0010
0001
0100
,
0020
0000
0001
0000
1030
0000
0100
0010
,
0012
0000
0000
0003
2100
0000
0000
3000
,
0100
0000
0010
0001
0010
0000
0001
0000
0100
0000
0010
1000
0010
0000
1000
0000
,
0001
0000
0000
0000
0201
0000
0000
0000
0310
0000
0000
0000
1000
0001
0000
0000
,
0020
0000
1000
0000
0031
0100
1000
0100
,
0010
0000
0000
0000
2010
0000
0000
0000
3001
0000
0000
0000
0010
0100
0000
0000
,
2000
0000
0001
0000
3010
0100
0001
0100
,
1000
0000
0000
0000
0200
0000
0000
0000
0301
0000
0010
0000
0100
1000
0000
1000
,
0020
0100
0230
1000
,
0301
0000
0010
0000
0100
0020
0030
0000
1000
0000
0010
0000
0001
0000
1000
0000
,
0010
0000
0000
1001
0000
0001
0010
1000
,
0000
0220
0000
0000
,
0000
0000
0000
0000
,
0000
0330
0000
0000
;

//---------------dance-single - ----------------
#NOTES:
     dance-single:
     :
     Beginner:
     3:
     0.132,0.225,0.030,0.142,0.000: // measure 1
0000
0000
0000
0000
,  // measure 2
0000
0000
0000
0000
,  // measure 3
0000
0000
0000
0000
,  // measure 4
0000
0000
0000
0000
,  // measure 5
0000
0000
0000
0000
,  // measure 6
0000
0000
0000
0000
,  // measure 7
0000
0000
0000
0000
,  // measure 8
0000
0000
0000
0000
,  // measure 9
0000
0000
0000
0000
,  // measure 10
0000
0000
0000
0000
,  // measure 11
0000
0000
0000
0000
,  // measure 12
0000
0000
0000
0000
,  // measure 13
0001
0000
0001
0000
,  // measure 14
1000
0000
0010
0000
,  // measure 15
0100
0000
0100
0000
,  // measure 16
0001
0000
0010
0000
,  // measure 17
0100
0000
0100
0000
,  // measure 18
1000
0000
0020
0030
,  // measure 19
1000
0000
0000
0000
,  // measure 20
0000
0000
0000
0000
,  // measure 21
0002
0000
0003
0000
,  // measure 22
0020
0000
0030
0000
,  // measure 23
0200
0000
0300
0000
,  // measure 24
2000
0000
3000
0000
,  // measure 25
0002
0000
0003
0000
,  // measure 26
0200
0000
0310
0000
,  // measure 27
2000
0000
0000
0000
,  // measure 28
3000
0000
0000
0000
,  // measure 29
0001
0000
0100
0000
,  // measure 30
0001
0000
0100
0000
,  // measure 31
0010
0000
1000
0000
,  // measure 32
0010
0000
1000
0000
,  // measure 33
0100
0000
0010
0000
,  // measure 34
0100
0000
0010
0000
,  // measure 35
0001
0000
0000
0000
,  // measure 36
1000
0000
0000
0000
,  // measure 37
0000
0100
0000
0000
,  // measure 38
0010
0000
0000
0000
,  // measure 39
0000
0001
0000
0000
,  // measure 40
0100
0000
0000
0000
,  // measure 41
0000
0010
0000
0000
,  // measure 42
1000
0000
0000
0000
,  // measure 43
0000
0100
0000
0000
,  // measure 44
0010
0000
0000
0000
,  // measure 45
0001
0000
1000
0000
,  // measure 46
0001
0000
0000
0000
,  // measure 47
0100
0000
0010
0000
,  // measure 48
0100
0000
0001
0000
,  // measure 49
1000
0000
0100
0000
,  // measure 50
1000
0000
0001
0000
,  // measure 51
0000
0000
0000
0000
,  // measure 52
0000
0000
0000
0000
,  // measure 53
0000
1000
0000
0000
,  // measure 54
0010
0000
0000
0010
0000
0000
0000
0000
,  // measure 55
0000
0100
0000
0000
,  // measure 56
0001
0000
0000
0001
0000
0000
0000
0000
,  // measure 57
0000
0010
0000
0000
,  // measure 58
0100
0000
0000
0100
0000
0000
0000
0000
,  // measure 59
0000
1000
0000
0000
,  // measure 60
0001
0000
0000
0001
0000
0000
0000
0000
,  // measure 61
0000
1000
0000
0000
,  // measure 62
0100
0000
0000
1000
0000
0000
0000
0000
,  // measure 63
0000
0001
0000
0000
,  // measure 64
0010
0000
0000
0001
0000
0000
0000
0000
,  // measure 65
0000
2000
0000
3000
,  // measure 66
0010
0000
0000
0100
0000
0000
0000
0000
,  // measure 67
0001
0000
1000
0000
,  // measure 68
0000
0000
0000
0000
,  // measure 69
1002
0000
0003
0000
,  // measure 70
2000
0000
3000
0000
,  // measure 71
0200
0000
0300
0000
,  // measure 72
0020
0000
0030
0000
,  // measure 73
0002
0000
0003
0000
,  // measure 74
0200
0000
0300
0000
,  // measure 75
0010
0000
1000
0000
,  // measure 76
0010
0000
0000
0000
,  // measure 77
2000
0000
3010
0000
,  // measure 78
0100
0000
0001
0000
,  // measure 79
0020
0000
0130
0000
,  // measure 80
1000
0000
0001
0000
,  // measure 81
1001
0000
0000
0000
,  // measure 82
0100
0000
0010
0000
,  // measure 83
0110
0000
0000
0000
,  // measure 84
1000
0000
0000
0001
0000
0000
0000
0000
,  // measure 85
0000
0220
0000
0000
,  // measure 86
0000
0000
0000
0000
,  // measure 87
0000
0330
0000
0000
;
