#TITLE:MIDNIGHT RUNNER;
#SUBTITLE:;
#ARTIST:PENDULUM;
#TITLETRANSLIT:;
#SUBTITLETRANSLIT:;
#ARTISTTRANSLIT:;
#GENRE:;
#CREDIT:;
#BANNER:Midnight Runner-bn.png;
#BACKGROUND:Midnight Runner-bg.png;
#LYRICSPATH:;
#CDTITLE:;
#MUSIC:Midnight Runner.mp3;
#OFFSET:-5.550;
#SAMPLESTART:27.593;
#SAMPLELENGTH:11.080;
#SELECTABLE:YES;
#BPMS:0.000=174.000
,160.000=87.000
,168.000=174.000
;
#STOPS:
;
#BGCHANGES:;
#KEYSOUNDS:;
#ATTACKS:;

//---------------dance-single - xRGTMx----------------
#NOTES:
     dance-single:
     :
     Hard:
     8:
     0.500,0.502,0.267,0.620,0.019,274.000,28.000,65.000,0.000,0.000,0.000,0.500,0.502,0.267,0.620,0.019,274.000,28.000,65.000,0.000,0.000,0.000:
2001
0000
0000
3001
1000
0020
0000
0200
,
0000
0030
0000
0000
0001
0000
0000
0000
,
0302
0000
0000
1003
0001
0020
0000
0230
,
0000
1000
0001
1300
,
1002
0000
0000
1003
0001
0020
0000
0230
,
0000
0000
1000
0000
,
2300
0000
0000
3001
1000
0020
0000
0230
,
0000
0001
1000
0301
,
0100
0000
0020
0000
0030
1000
0010
0000
,
0100
0000
0020
0000
0030
0001
0010
0000
,
1000
0000
0002
0000
0003
0100
0001
0000
,
1000
0000
0002
0000
0003
0010
0001
0000
,
1000
0100
0020
0000
0030
0100
1000
0000
,
0001
0100
0020
0000
0030
0100
0001
0000
,
1000
0100
0002
0000
0003
1000
0010
0000
,
0001
0100
0010
1000
0100
0000
0110
0000
,
2001
0000
0010
0000
0000
3010
1000
0100
,
0010
0000
0011
0000
0001
0100
0010
0000
,
1002
0000
0010
0000
0000
0013
0001
0100
,
0010
0000
1010
0000
1000
0100
0010
0000
,
2001
0000
0100
0000
0000
3100
1000
0010
,
0100
0000
0101
0000
0001
0010
0100
0000
,
1002
0000
0100
0000
0000
0103
0001
0010
,
0100
0000
1100
0000
1000
0010
0100
0000
,
2010
0000
3200
0000
0310
0100
1000
0000
,
0201
0000
0310
0100
0001
0000
1000
0001
,
0012
0000
0203
0000
0310
0100
0001
0000
,
1200
0000
0310
0100
1000
0000
0001
1000
,
2001
0000
3200
0000
0301
0100
1000
0000
,
1001
0000
0001
0100
0010
0000
0110
0010
,
0200
0000
1000
0000
0300
1000
0200
0000
,
0301
0010
0100
0001
0100
1000
0010
0000
,
0210
0000
0302
0000
0013
0100
1000
0000
,
1020
0000
0031
0010
1000
0000
0100
0010
,
0120
0000
0032
0000
0103
0010
1000
0000
,
1200
0000
0301
0100
1000
0000
0001
0100
,
0120
0000
2030
0000
3100
0001
0100
0000
,
1200
0000
0310
0001
0100
0000
0110
0100
,
0002
1000
2003
0001
,
3001
0010
1000
0001
0100
1000
0001
0000
,
2000
0000
0000
0000
,
0000
0000
0000
0000
,
3002
0000
0103
0010
1000
0100
0010
0000
,
0120
0000
0000
0032
0000
0000
1003
0000
,
0002
0000
0103
0001
1000
0010
0001
0000
,
0021
0000
0000
2030
0000
0000
3200
0000
,
0310
0000
0100
1000
0010
0100
0001
0000
,
0201
0000
0000
2300
0000
0000
3100
0000
,
0002
0000
0013
0100
0001
1000
0010
0000
,
0010
0001
0100
1000
0001
0010
2000
0000
,
0001
0000
3200
0000
0300
0010
0100
0000
,
1000
0000
0000
0000
0100
0000
0010
0000
0000
0001
1000
0000
0010
0000
0000
0000
,
0200
0000
0302
2003
,
3001
0000
0000
0000
0010
0000
0100
0000
0000
1000
0001
0000
0100
0000
0000
0000
,
0020
0000
1000
0000
0030
1000
0001
0000
,
0001
0000
0000
0000
1000
0000
0010
0000
0000
0100
0010
0000
0100
0000
0000
0000
,
0002
0000
0023
0230
,
1300
0000
0100
0000
0010
0000
0001
0000
0000
0100
0001
0000
1000
0000
0000
0000
,
0002
0000
0000
0000
,
0000
0000
0000
0000
,
0000
0000
0000
0000
,
0000
0000
0000
0000
,
0003
0000
0000
0000
;

//---------------dance-single - xRGTMx----------------
#NOTES:
     dance-single:
     :
     Medium:
     5:
     0.255,0.207,0.010,0.210,0.000,164.000,1.000,22.000,0.000,0.000,0.000,0.255,0.207,0.010,0.210,0.000,164.000,1.000,22.000,0.000,0.000,0.000:
0100
0000
0000
0000
0020
0000
0000
0031
,
0000
0000
1000
0000
,
0001
0000
0000
0000
0200
0000
0000
0310
,
0000
0000
1000
0000
,
0010
0000
0000
0000
0200
0000
0000
0301
,
0000
0000
1000
0000
,
0001
0000
0000
0000
0020
0000
0000
0130
,
0000
0000
1000
0000
,
0000
0000
0010
0000
0000
0100
0010
0000
,
0000
0000
1000
0000
0000
0001
1000
0000
,
0000
0000
0100
0000
0000
0010
0100
0000
,
0000
0000
1000
0000
0000
0001
1000
0000
,
0000
0000
0100
0000
0000
1000
0100
0000
,
0000
0000
0010
0000
0000
0100
0010
0000
,
0000
0000
0001
0000
0000
0010
0001
0000
,
0000
1000
0001
1001
,
2000
0010
0000
3010
,
0100
0001
1000
0000
,
0002
0010
0000
0013
,
0100
1000
0001
0000
,
2000
0100
0000
3100
,
0010
0001
1000
0000
,
0002
0100
0000
0103
,
0010
1000
0001
0000
,
1000
0020
0000
0130
,
0100
0000
0001
1000
,
0001
0020
0000
0130
,
0100
0000
1000
0001
,
1000
0200
0000
0310
,
0010
0000
0001
1000
,
0001
0200
0000
0310
,
0010
0000
1000
0001
,
1000
0002
0000
0103
,
0100
0000
0010
0100
,
0001
2000
0000
3100
,
0100
0000
0010
0100
,
1000
0002
0000
0013
,
0010
0000
0100
0010
,
0001
2000
0000
3010
,
0010
0000
0100
0010
,
2000
0000
0000
0000
,
0000
0000
0000
0000
,
3001
1000
0010
0100
,
0002
0000
0000
1003
0000
0000
0000
0000
,
1000
0001
0010
0100
,
2000
0000
0000
3001
0000
0000
0000
0000
,
0001
1000
0100
0010
,
0002
0000
0000
1003
0000
0000
0000
0000
,
1000
0001
0100
0010
,
2000
0000
0000
3001
0000
0000
0000
0000
,
1000
0100
0001
0000
,
0001
0100
1000
0000
,
1000
0010
0001
1000
,
0100
0001
1000
0000
,
0001
0100
1000
0000
,
1000
0100
0001
0000
,
0001
0010
1000
0001
,
0100
1000
0001
0000
,
2000
0000
0000
0000
,
0000
0000
0000
0000
,
0000
0000
0000
0000
,
0000
0000
0000
0000
,
3000
0000
0000
0000
;

//---------------dance-single - xRGTMx----------------
#NOTES:
     dance-single:
     :
     Easy:
     3:
     0.196,0.172,0.000,0.210,0.000,122.000,0.000,22.000,0.000,0.000,0.000,0.196,0.172,0.000,0.210,0.000,122.000,0.000,22.000,0.000,0.000,0.000:
0010
0000
0000
0000
2000
0000
0000
3000
,
0000
0000
0100
0000
,
0010
0000
0000
0000
0002
0000
0000
0003
,
0000
0000
1000
0000
,
0001
0000
0000
0000
0200
0000
0000
0300
,
0000
0000
0010
0000
,
1000
0000
0000
0000
0200
0000
0000
0300
,
0000
0000
0010
0000
,
0000
0001
0000
0001
,
0000
1000
0000
1000
,
0000
0010
0000
0010
,
0000
0100
0000
0100
,
0000
0001
0000
1000
,
0000
0001
0000
1000
,
0000
0010
0000
0100
,
0000
0001
0000
1000
,
1000
0002
0000
0003
,
0100
0000
0100
0000
,
0010
0200
0000
0300
,
0001
0000
1000
0000
,
0001
2000
0000
3000
,
0010
0000
0100
0000
,
0010
0200
0000
0300
,
0001
0000
1000
0000
,
0020
0000
1030
0000
,
1000
1000
1000
0000
,
0200
0000
0310
0000
,
0001
0001
0001
0000
,
0002
0000
1003
0000
,
0010
0010
0010
0000
,
2000
0000
3001
0000
,
0100
0100
0100
0000
,
0020
0000
1030
0000
,
0100
0010
0100
0000
,
0020
0000
0031
0000
,
0100
0010
0100
0000
,
0200
0000
0301
0000
,
0010
0100
0010
0000
,
0200
0000
1300
0000
,
0010
0100
0010
0000
,
2000
0000
0000
0000
,
0000
0000
0000
0000
,
3001
0010
0000
0010
,
0100
0000
1000
0000
,
0001
0100
0000
0100
,
0010
0000
1000
0000
,
1000
0010
0000
0010
,
0100
0000
0001
0000
,
1000
0100
0000
0100
,
0010
0000
0001
0000
,
2000
0010
3000
0000
,
0010
0000
0100
0000
,
0002
0010
0003
0000
,
0010
0000
0100
0000
,
2000
0100
3000
0000
,
0100
0000
0010
0000
,
0002
0100
0003
0000
,
0100
0000
0010
0000
,
2000
0000
0000
0000
,
0000
0000
0000
0000
,
3000
0000
0000
0000
;

//---------------dance-single - xRGTMx----------------
#NOTES:
     dance-single:
     :
     Beginner:
     2:
     0.147,0.143,0.000,0.057,0.000,102.000,0.000,6.000,0.000,0.000,0.000,0.147,0.143,0.000,0.057,0.000,102.000,0.000,6.000,0.000,0.000,0.000: // measure 0
1000
0000
0000
0000
,  // measure 1
1000
0000
0000
0000
,  // measure 2
0001
0000
0000
0000
,  // measure 3
0001
0000
0000
0000
,  // measure 4
0100
0000
0000
0000
,  // measure 5
0100
0000
0000
0000
,  // measure 6
0010
0000
0000
0000
,  // measure 7
0010
0000
0000
0000
,  // measure 8
0000
1000
0000
1000
,  // measure 9
0000
0001
0000
0001
,  // measure 10
0000
1000
0000
1000
,  // measure 11
0000
0001
0000
0001
,  // measure 12
0000
0100
0000
0100
,  // measure 13
0000
0010
0000
0010
,  // measure 14
0000
0100
0000
0100
,  // measure 15
0000
0010
0000
0010
,  // measure 16
0010
0000
0000
1000
,  // measure 17
1000
0000
0100
0000
,  // measure 18
0010
0000
0000
0001
,  // measure 19
0001
0000
0100
0000
,  // measure 20
0010
0000
0000
1000
,  // measure 21
1000
0000
0010
0000
,  // measure 22
0100
0000
0000
0001
,  // measure 23
0001
0000
0010
0000
,  // measure 24
0100
0000
0000
0000
,  // measure 25
1000
0000
0001
0000
,  // measure 26
0100
0000
0000
0000
,  // measure 27
0001
0000
1000
0000
,  // measure 28
0010
0000
0000
0000
,  // measure 29
1000
0000
0001
0000
,  // measure 30
0010
0000
0000
0000
,  // measure 31
0001
0000
1000
0000
,  // measure 32
0001
0000
0000
0000
,  // measure 33
0100
0000
0010
0000
,  // measure 34
1000
0000
0000
0000
,  // measure 35
0100
0000
0010
0000
,  // measure 36
0001
0000
0000
0000
,  // measure 37
1000
0000
0010
0000
,  // measure 38
0100
0000
0000
0000
,  // measure 39
0001
0000
0001
0000
,  // measure 40
2000
0000
0000
0000
,  // measure 41
3000
0000
0000
0000
,  // measure 42
0001
0000
0001
0000
,  // measure 43
2000
0000
3001
0000
,  // measure 44
1000
0000
1000
0000
,  // measure 45
0002
0000
1003
0000
,  // measure 46
0010
0000
0010
0000
,  // measure 47
0200
0000
0310
0000
,  // measure 48
0100
0000
0100
0000
,  // measure 49
0020
0000
0130
0000
,  // measure 50
0001
0001
0000
1000
,  // measure 51
1000
0000
0001
0000
,  // measure 52
1000
1000
0000
0001
,  // measure 53
0001
0000
1000
0000
,  // measure 54
0010
0010
0000
0100
,  // measure 55
0100
0000
0010
0000
,  // measure 56
0100
0100
0000
0010
,  // measure 57
0100
0000
0100
0000
,  // measure 58
0002
0000
0000
0000
,  // measure 59
0000
0000
0000
0000
,  // measure 60
0003
0000
0000
0000
;
