#TITLE:KUNG FU FIGHTING;
#SUBTITLE:;
#ARTIST:BUSā˜…STOP featuring CARL DOUGLAS;
#TITLETRANSLIT:;
#SUBTITLETRANSLIT:;
#ARTISTTRANSLIT:BUS STOP featuring CARL DOUGLAS;
#GENRE:;
#CREDIT:;
#BANNER:KUNG FU FIGHTING.png;
#BACKGROUND:KUNG FU FIGHTING-bg.png;
#LYRICSPATH:KUNG FU FIGHTING.lrc;
#CDTITLE:./CDTITLES/DANCEMANIA 11.PNG;
#MUSIC:KUNG FU FIGHTING.mp3;
#OFFSET:-9.256;
#SAMPLESTART:50.580;
#SAMPLELENGTH:12.000;
#SELECTABLE:YES;
#DISPLAYBPM:116.000;
#BPMS:0.000=116.079;
#STOPS:;
#BGCHANGES:;
#KEYSOUNDS:;

//---------------dance-single - ----------------
#NOTES:
     dance-single:
     :
     Medium:
     5:
     0.275,0.305,0.194,0.108,0.000:
0000
0000
0000
0000
,
0000
0000
0000
0000
,
1000
0000
0001
0000
1000
0001
1000
0000
,
2002
0000
0000
3003
,
0100
0010
0100
1001
,
0001
0100
0100
0110
,
1000
0001
1000
0001
1000
0001
1000
0000
,
0010
0100
0010
0100
0010
0100
0010
0000
,
1001
0010
0100
0010
,
1010
1000
0001
0001
,
0010
1000
0010
1000
0010
1000
0010
0000
,
0100
0001
0100
0001
0100
0001
0100
0000
,
0010
0100
0010
0100
,
1000
0001
1000
0001
,
0110
0110
0110
0110
,
0010
0000
0100
0000
0100
0001
1000
0000
,
1001
0100
0001
0100
,
0010
0000
0100
0000
1000
0000
0100
0001
,
1000
1000
0010
0100
,
0020
0000
0000
0030
,
1000
0000
0001
0000
1000
0010
1000
0000
,
0110
0000
0000
0010
0100
0000
0000
0000
,
0001
0000
0100
0000
0010
0100
0010
0000
,
0101
0000
0000
1000
0010
0000
0000
0000
,
0001
0000
0100
0000
1000
0001
1000
0000
,
0101
0000
0000
0010
0010
0000
0000
0000
,
0100
0000
0010
0000
0001
0010
1000
0000
,
1100
0000
0000
0000
,
1000
0100
1000
0001
,
0100
0000
0010
0000
0001
0100
0001
0000
,
0010
1000
0001
0100
,
1000
0000
0010
0000
1000
0001
1000
0000
,
0002
0000
0000
0000
,
2003
0000
0000
0000
,
3020
0000
0000
0030
,
0220
0000
0000
0330
,
0010
0010
0100
0100
,
0001
1000
0001
1000
,
0100
0100
0010
0010
,
1001
0000
1001
0000
0001
1000
0001
0000
,
2002
0000
3003
0000
;

//---------------dance-couple - ----------------
#NOTES:
     dance-couple:
     :
     Easy:
     2:
     0.286,0.344,0.839,0.000,0.000:
00000000
00000000
00000000
00000000
,
00000000
00000000
00000000
00000000
,
00000000
00000000
00100010
00100010
,
00000000
00000000
01000100
01000100
,
00000000
00000000
10001000
10001000
,
00000000
00000000
00010001
00010001
,
00000000
00000000
00100010
00100010
,
00000000
00000000
01000100
01000100
,
00000000
00100010
10000001
10000001
,
00000000
01000100
00011000
00011000
,
00000000
00100010
01000100
10011001
,
00000000
00100010
01000100
10011001
,
00000000
00000000
00100010
01000100
,
00000000
00000000
10000001
00011000
,
00000000
01000100
10000001
10000001
,
00000000
00100010
00011000
00011000
,
00000000
00100000
00010000
01000000
,
00000000
00000010
00001000
00000100
,
00000000
10000000
00100000
01000000
,
00000000
00000001
00000010
00000100
,
00000000
00000000
00100010
01000100
,
10011001
00000000
00000000
00000000
,
00000000
00000000
00100010
01000100
,
10011001
00000000
00000000
00000000
,
00000000
00100000
01000000
00010000
,
10010000
01000100
01000100
00000000
,
00000000
00000010
00000100
00001000
,
00001001
01000100
01000100
00000000
,
00000000
00100010
00000000
00011000
,
00000000
00100010
01000100
00011000
,
00000000
00100010
00000000
10000001
,
00000000
00100010
01000100
10000001
,
00000000
00010001
00000000
01000100
,
00000000
10001000
00000000
10011001
,
00000000
10001000
00000000
00100010
,
00000000
00100010
00000000
00000000
,
00000000
10001000
01000100
10001000
,
00100010
01000100
00100010
01000100
,
00000000
00010001
01000100
00010001
,
00100010
01000100
00100010
01000100
,
10011001
00000000
00000000
00000000
;

//---------------dance-couple - ----------------
#NOTES:
     dance-couple:
     :
     Medium:
     3:
     0.415,0.430,1.000,0.000,0.000:
00000000
00000000
00000000
00000000
,
00000000
00000000
00000000
00000000
,
00000000
10001000
00100010
00100010
,
00000000
00010001
01000100
01000100
,
00000000
00100010
10001000
10001000
,
00000000
01000100
00010001
00010001
,
00000000
10001000
00100010
10001000
,
00000000
00010001
01000100
00010001
,
10011001
00010001
10001000
10001000
,
10011001
10001000
00010001
00010001
,
00100010
01000100
00100010
10011001
,
00100010
01000100
00100010
10011001
,
00000000
10010100
00100000
01000100
,
00000000
01000110
00000001
01001000
,
00011000
10000001
00011000
00011000
,
10000001
00011000
10000001
10000001
,
01100110
10001000
00010001
01000100
,
01100110
00010001
10001000
01000100
,
00000000
10001000
00100010
01000100
,
00100010
00010001
00100010
01000100
,
00000000
00000000
00100010
01000100
,
10011001
00000000
00000000
00000000
,
00000000
01000010
00000100
01000001
,
00000101
10001000
01000100
10001000
,
00000000
00100100
01000000
10000100
,
11000000
00010001
01000100
00010001
,
00000000
10000001
01000100
00011000
,
10011001
01000100
10000001
00000000
,
00000000
00100000
00000010
00010000
,
00000001
00100000
01000010
00010100
,
00000001
00100000
00000010
10000000
,
00001000
00100010
01000100
10001000
,
00000000
00010001
00100010
10001000
,
00000000
10001000
01000100
10011001
,
10000000
00001000
00000100
01000000
,
00010000
00000001
01100110
00000000
,
11001100
00010001
01000100
10001000
,
00100010
01000100
10001000
01000100
,
01010101
10001000
01000100
00010001
,
00100010
01000100
00010001
01000100
,
10011001
00000000
00000000
00000000
;

//---------------dance-couple - ----------------
#NOTES:
     dance-couple:
     :
     Hard:
     5:
     0.489,0.602,1.000,0.000,0.000:
00000000
00000000
00000000
00000000
,
00000000
00000000
00000000
00000000
,
00000000
00000000
00000000
00000000
,
00000000
00000000
00000000
00000000
,
01000100
00100010
10001000
10001000
,
00100010
01000100
00010001
00010001
,
01000100
10001000
00100010
11001100
,
00100010
00010001
01000100
00110011
,
01100110
00010001
10001000
01000100
,
01100110
10001000
00010001
01000100
,
00100010
01000100
10101010
00010001
,
00100010
01000100
00110011
10001000
,
00100010
00010001
01000100
10001000
,
00100010
10001000
01000100
00010001
,
10011001
00000000
01100110
00000000
00010001
01000100
00010001
00000000
,
10011001
00000000
01100110
00000000
10001000
01000100
10001000
00000000
,
00100010
10001000
00110011
01000100
,
00100010
00000000
00010001
00000000
10101010
00000000
01000100
00010001
,
00100010
10001000
00100010
01000100
,
00100010
00010001
00100010
01000100
,
00000000
00000000
00100010
01000100
,
10011001
00000000
00100010
00000000
01000100
10000001
00011000
00000000
,
00000000
00000000
00100010
01000100
,
10011001
00000000
00100010
00000000
01000100
00011000
10000001
00000000
,
00000000
00000000
00100000
00000000
01000000
10000000
00010000
00000000
,
01010000
00000000
10001000
00010001
01000100
00010001
10001000
00000000
,
00000000
00000010
00000101
00001000
,
00001100
00000000
00010001
10001000
01000100
10001000
00010001
00000000
,
00001000
00100010
00001000
00010001
,
00001000
00000000
00100010
00000000
00000100
00001000
00010001
00000000
,
00010000
00100010
00010000
10001000
,
00010000
00000000
00100010
00000000
01000000
00010000
10001000
00000000
,
00000000
10000001
00100010
00011000
,
00000000
00011000
01000100
10011001
,
00000000
00011000
00100010
10000001
,
00000000
01000100
00000000
00000000
,
11001100
00000000
00010001
00000000
01000100
00010001
10001000
00000000
,
00100010
00000000
01000100
10001000
00010001
00000000
01000100
00000000
,
01010101
00000000
10001000
00000000
01000100
10001000
00010001
00000000
,
00100010
00000000
01000100
00010001
10001000
00000000
01000100
00000000
,
10011001
00000000
00000000
00000000
;

//---------------dance-couple - ----------------
#NOTES:
     dance-couple:
     :
     Challenge:
     4:
     0.473,0.473,0.957,0.000,0.000:
00000000
00000000
00000000
00000000
,
00000000
00000000
00000000
00000000
,
00010000
00000000
10000000
00000000
10000000
10000000
00010000
00000000
,
00000001
00000000
00001000
00000000
00001000
00001000
00000001
00000000
,
10010000
00000000
01000001
00000000
10010000
10010000
01000001
00000000
,
00100000
10000000
00100001
10000000
10000000
10000000
01000001
00000000
,
00010000
00010000
00010001
00010000
00010000
10000000
01000001
00000000
,
10000000
00010000
10000001
00010000
10000000
10000000
01000001
00000000
,
00001001
00000000
10000100
00000000
00001001
00001001
10000100
00000000
,
00000010
00001000
10000010
00001000
00001000
00001000
10000100
00000000
,
00000001
00000001
10000001
00000001
00000001
00001000
10000100
00000000
,
00001000
00000001
10001000
00000001
00001000
00001000
10000100
00000000
,
10010000
00000000
00100001
00000000
10000000
01000000
00100001
00000000
,
00100000
10000000
00100001
10000000
00010000
00010000
01000001
00000000
,
00001001
00000000
10000010
00000000
00001000
00000100
10000010
00000000
,
00000010
00001000
10000010
00001000
00000001
00000001
10000100
00000000
,
10001000
00000000
01000100
00010001
00010001
00000000
01000100
00000000
,
00100010
00000000
00100010
00000000
00000000
00000000
01100110
10011001
,
00000000
01000100
00000000
01000100
,
00000000
00000000
00000000
00000000
00100010
00100010
00100010
00000000
,
00010000
00010000
10000001
10000000
00010000
10000000
00010001
10000000
,
10010000
00000000
01000001
01000000
00010000
01000000
01000001
00000000
,
00100000
10000000
01000001
01000000
00100000
10000000
01000001
00000000
,
10010000
00000000
01000001
01000000
00010000
01000000
01000001
00000000
,
00000001
00000001
10001000
00001000
00000001
00001000
10000001
00001000
,
00001001
00000000
10000100
00000100
00000001
00000100
10000100
00000000
,
00000010
00001000
10000100
00000100
00000010
00001000
10000100
00000000
,
00001001
00000000
10000100
00000100
00000001
00000100
10000100
00000000
,
10010000
00001001
10010000
00001001
,
10010000
00000000
00001001
00000000
00100010
01000100
01000100
00000000
,
00010000
00010000
01000000
00000000
10000000
10000000
01000000
00000000
,
00000001
00000001
00000100
00000000
00001000
00001000
00000100
00000000
,
10010000
00000000
01000000
00000000
00100000
01000000
00100000
00000000
,
00001001
00000000
00000100
00000000
00000010
00000100
00000010
00000000
,
00010000
00010000
00010000
00000000
00001000
00001000
00001000
00000000
,
11000101
00000000
00000000
00000000
,
11000000
00000000
00010001
00000000
01000000
00010000
10000001
00000000
,
00100000
00000000
01000001
00000000
00010000
10000000
01000001
00000000
,
00001100
00000000
10000001
00000000
00000100
00000001
10001000
00000000
,
00000010
00000000
10000100
00000000
00000001
00001000
10000100
00000000
,
00010001
00000000
00000000
00000000
;

//---------------dance-solo - ----------------
#NOTES:
     dance-solo:
     :
     Easy:
     3:
     0.186,0.194,0.108,0.000,0.000:
000000
000000
000000
000000
,
000000
000000
000000
000000
,
000100
000100
000000
000000
,
001000
001000
000000
000000
,
000100
000100
000001
000000
,
100000
100000
001000
000000
,
010000
100000
001000
000000
,
000010
000001
001000
000000
,
100000
000100
000001
000000
,
000001
100000
000001
000000
,
000001
000100
100000
000000
,
100000
000001
001000
000000
,
000100
100000
001000
000001
,
000001
001000
100000
000100
,
010000
000010
001000
000100
,
100000
000001
010000
000010
,
000100
000001
001000
100000
,
100000
001000
000001
000100
,
001000
000000
100001
000000
,
010000
000010
001000
000100
,
000000
000000
000001
100000
,
010010
000010
000010
000000
,
000000
000000
100000
000001
,
010010
010000
010000
000000
,
000000
000100
001000
000001
,
100001
001000
001000
000000
,
000000
000100
001000
100000
,
100001
001000
001000
100001
,
000000
000010
000000
010000
,
000000
000010
000000
010000
,
000000
010010
000000
000100
,
000000
000001
000000
100000
,
000000
000010
000000
010000
,
000000
100001
000000
000100
,
000000
000010
000000
010000
,
100001
000000
000000
000000
,
100000
001000
100000
000100
,
001000
000100
001000
000000
,
000001
001000
000001
000100
,
001000
000100
001000
000000
,
100001
000000
000000
000000
;

//---------------dance-solo - ----------------
#NOTES:
     dance-solo:
     :
     Medium:
     5:
     0.320,0.301,0.215,0.000,0.000:
000000
000000
000000
000000
,
000000
000000
000000
000000
,
000010
000100
000100
000000
,
100000
000001
000001
000000
,
001000
000000
001000
000001
001000
000010
000010
000000
,
000100
000000
000100
100000
000100
010000
010000
000000
,
000001
000010
000001
000100
001000
000000
001000
000000
,
100000
010000
100000
000100
001000
000000
001000
000000
,
100000
000000
100000
000001
100000
001000
001000
000000
,
000001
000000
000001
100000
000001
001000
001000
000000
,
000100
001000
000100
100000
000100
010000
010000
000000
,
000100
001000
000100
000001
000100
000010
000010
000000
,
000100
100000
000000
001000
000001
000000
000001
000000
,
000001
001000
100000
000000
000100
000000
000100
000000
,
000100
100000
001000
000000
000001
000010
000001
000000
,
000100
000001
001000
000000
100000
010000
100000
000000
,
000100
100000
001000
000000
000001
000000
000001
000000
,
000001
001000
100000
000000
000100
000000
000100
000000
,
000100
001000
000100
000000
100000
000001
100000
000000
,
010010
000000
100001
000000
001000
001000
001000
000000
,
000100
000010
100000
000000
000100
010000
000001
000000
,
100001
000000
000000
001001
001001
000000
000000
000000
,
000100
010000
000001
000000
000100
000010
100000
000000
,
100001
000000
000000
000000
101000
101000
000000
000000
,
001000
010000
001000
100000
001000
010000
001000
000000
,
100001
000000
000000
000000
,
001000
000010
001000
000001
001000
000010
001000
000000
,
100001
000000
000000
000000
,
001000
000001
000010
000000
001000
100000
010000
000000
,
001000
000000
000010
000000
000001
001000
100000
000000
,
100000
001000
000001
000000
001001
000000
101000
000000
,
000001
001000
100000
000000
101000
000000
001001
000000
,
001000
000001
000010
000000
001000
100000
010000
000000
,
001000
000000
000010
000000
000001
001000
100000
000000
,
100000
001000
000001
000000
001001
000000
101000
000000
,
100001
000000
000000
000000
,
101000
000001
010000
000010
,
000100
001000
100000
000001
,
001001
000100
100000
000001
,
010000
000010
001000
000100
,
100001
000000
000000
000000
;

//---------------dance-solo - ----------------
#NOTES:
     dance-solo:
     :
     Hard:
     7:
     0.384,0.387,0.258,0.000,0.043:
000000
000000
000000
000000
,
000000
000000
000000
000000
,
000000
000000
000000
000000
,
000000
000000
000000
000000
,
100000
000001
000100
000000
000001
100000
000100
000000
,
100000
000001
001000
000000
000001
100000
001000
000000
,
001000
100000
001000
100000
001000
000000
001000
000000
001000
000000
010000
000000
010000
000000
000000
000000
,
001000
100000
001000
100000
001000
000000
001000
000000
001000
000000
010000
000000
010000
000000
000000
000000
,
000100
001000
000001
000001
,
000100
001000
100000
100000
,
001000
000001
001000
000001
001000
000000
001000
000000
001000
000000
000010
000000
000010
000000
000000
000000
,
001000
000001
001000
000001
001000
000000
001000
000000
001000
000000
000010
000000
000010
000000
000000
000000
,
001000
000100
100000
000010
001000
000100
100000
000010
,
001000
000100
100000
000010
001000
000100
100000
000010
,
001000
000100
000001
010000
001000
000100
000001
010000
,
001000
000100
000001
010000
001000
000100
000001
000000
,
100000
010000
100000
000000
100000
000010
100000
000000
,
000001
000010
000001
000000
000001
010000
000001
000000
,
000001
100000
001000
000100
000010
010000
001000
000100
,
100001
010000
000010
000010
000010
000010
000010
000000
,
000011
110000
000110
010100
,
100001
000000
000000
001000
001000
000000
000000
000000
,
000011
110000
001010
011000
,
100001
000000
000000
000100
000100
000000
000000
000000
,
011000
100001
001100
100001
,
010010
000000
001000
000001
100000
000000
000000
000000
,
000101
101000
001100
100000
,
100001
000000
000001
001000
100000
000000
100001
000000
,
001000
000100
100000
000010
001000
000100
100000
000010
,
001000
000100
100000
000001
000100
001000
010000
000000
,
000001
000100
001000
010000
000001
000100
001000
010000
,
000001
000100
001000
010000
000001
100000
000100
000000
,
001000
000010
100000
000100
001000
000010
100000
000100
,
001000
000010
100000
000100
001000
000001
100000
000000
,
001000
010000
000001
000100
001000
010000
000001
000100
,
001000
010000
000001
000100
001000
100000
000001
000000
,
101000
000000
000001
000000
010000
000001
001000
000000
,
000100
000000
100000
000010
001000
000000
100000
000000
,
001001
000000
100000
000000
000100
001000
000010
000000
,
100000
000000
001000
010000
000001
000000
001000
000000
,
100001
000000
000000
000000
;

//---------------dance-single - Hard----------------
#NOTES:
     dance-single:
     Hard:
     Challenge:
     8:
     0.410,0.479,0.398,0.172,0.086:
0000
0000
0000
0000
,
0000
0000
0000
0000
,
0000
0000
0000
0000
0000
0000
0010
0100
,
2002
0000
0000
0000
3003
0000
0000
0010
,
0001
0010
0001
0000
0100
1000
0010
0000
,
1000
0010
0100
0001
0010
0001
0100
0000
,
1000
0010
1000
0010
1000
0000
0010
0000
0010
0000
1001
0000
1001
0000
0000
0000
,
0010
0100
0010
0100
0010
0000
1000
0000
1000
0000
0101
0000
0101
0000
0000
0000
,
1001
0000
0110
0000
1000
0001
0100
0000
,
1010
0000
1001
0000
0001
1000
0100
0000
,
0010
1000
0010
1000
0010
0000
1000
0000
1000
0000
0101
0000
0101
0000
0000
0000
,
1000
0001
1000
0001
1000
0000
0100
0000
0101
0000
0100
0000
0110
0000
0000
0000
,
0001
0010
0100
1000
0100
0010
0001
0100
,
0001
0010
0100
1000
0010
0100
0001
0000
,
1010
0010
0110
0000
1001
0001
0011
0000
,
1000
0100
0010
0100
1000
1000
0001
0000
,
1000
0000
0100
0000
1001
0001
1000
0000
,
0010
0000
1000
0000
0001
0001
1010
1010
,
1000
1000
1000
1100
,
1010
0000
0100
0010
0100
1000
0100
1000
,
0010
0000
0000
0001
0000
0000
0010
0000
0000
0000
1010
0000
0000
0000
0000
0000
,
0202
0000
0303
1000
0001
0000
0100
0010
,
0100
0000
0000
0001
0000
0000
0010
0000
0000
0000
1100
0000
0000
0000
0000
0000
,
2020
0000
0000
0000
3030
0000
1000
0000
0001
0000
0010
0000
0100
0010
0100
0010
,
0100
0000
0000
0010
0000
0000
0100
0000
0000
0000
0010
0000
0000
0000
0000
0000
,
0202
0000
0303
0100
0010
0100
0010
0010
,
0100
0000
0000
0010
0000
0000
0100
0000
0000
0000
0110
0000
0000
0000
0000
0000
,
2002
0000
3003
1000
0001
0000
0000
0000
,
0010
0000
0000
0000
0100
0000
0000
0000
1000
0010
1000
0000
0000
0000
0000
0000
,
1000
0010
0100
0010
1000
0010
0100
0000
,
1010
1010
1001
1001
,
0010
0100
0010
0100
0010
1000
0010
1000
,
0200
1000
0000
0310
,
0002
1000
0000
0103
,
1000
0000
0001
0000
0010
0100
0010
0100
,
0202
0000
0000
0000
0303
0000
0000
0000
0000
0000
1000
0000
0010
0100
0010
0000
,
0100
0000
1000
0000
0001
0010
0100
0000
,
0010
0000
0100
0000
1000
0010
0100
0000
,
0001
0000
0100
0000
0001
1000
0100
0000
,
0101
0000
1010
0000
0010
0100
0010
0100
,
0220
0000
0330
0000
;

//---------------dance-single - Expert----------------
#NOTES:
     dance-single:
     Expert:
     Hard:
     7:
     0.375,0.414,0.215,0.172,0.075:
0000
0000
0000
0000
,
0000
0000
0000
0000
,
1000
0000
0001
0000
0010
0100
0010
0000
,
0220
0000
0330
0000
,
0001
0000
0100
0000
0010
1000
0010
0000
,
0010
0000
0100
0000
0001
1000
0001
0000
,
0100
0010
0100
0010
0100
0000
0010
0000
0010
0000
1000
0000
1000
0000
0000
0000
,
0001
0100
0001
0100
0001
0000
0100
0000
0100
0000
0010
0000
0110
0000
0000
0000
,
0101
0000
0001
0000
1000
0001
0100
0000
,
1010
0000
1001
0000
0001
1000
0100
0000
,
0010
1000
0010
1000
0010
0000
0100
0000
0100
0000
0001
0000
0001
0000
0000
0000
,
0010
0100
0010
0100
0010
0000
0000
0000
0011
0000
0000
0000
0101
0000
0000
0000
,
1000
0010
0100
0001
0100
0010
1000
0000
,
0001
0010
0100
1000
0010
0100
0001
0000
,
1010
1010
0101
0101
,
0010
0100
0001
0100
0010
1000
0100
0000
,
0010
0001
0110
1010
,
0100
0000
0001
0000
1000
0010
0100
0100
,
0010
0000
1000
0000
0010
0000
0100
1000
,
0010
0000
0000
0100
0001
0000
0100
0000
0010
0000
1000
0000
0100
0000
1000
0000
,
0010
0000
0000
0100
0000
0000
0010
0000
0000
0000
0100
0000
0000
0000
0000
0000
,
2002
0000
3003
0010
0100
0000
1000
0010
,
0100
0000
0000
0001
0000
0000
0100
0000
0000
0000
0001
0000
0000
0000
0000
0000
,
0202
0000
0000
0000
0303
0000
0010
0000
0001
0000
0010
0000
0100
0010
0100
0000
,
1000
0000
0000
0001
0000
0000
1000
0000
0000
0000
0001
0000
0000
0000
0000
0000
,
2002
0000
3003
0001
0100
0001
1000
0010
,
0100
0000
0000
0010
0000
0000
0100
0000
0000
0000
0110
0000
0000
0000
0000
0000
,
0220
0000
0330
0010
0100
0000
0001
0100
,
1000
0000
0100
0000
1000
0001
1000
0000
,
0001
0000
0100
0000
0010
0100
0010
0100
,
0010
0100
0001
1000
,
0100
0001
1000
0100
0010
0001
0010
0000
,
0002
0100
0000
0100
,
0203
0010
0000
0310
,
1000
0000
0001
0000
0010
0100
0010
0000
,
0202
0000
0303
0000
0000
1000
0010
1000
,
0001
0000
1000
0000
0010
0001
0010
0001
,
0010
0000
0100
0000
0001
0010
0100
0010
,
0001
0000
1000
0000
0100
1000
0100
1000
,
0100
0000
1000
0000
0010
0100
0010
0000
,
2002
0000
3003
0000
;

//---------------dance-single - Blank----------------
#NOTES:
     dance-single:
     Blank:
     Easy:
     3:
     0.223,0.196,0.204,0.161,0.000:
0000
0000
0000
0000
,
0000
0000
0000
0000
,
0000
0000
0001
1000
,
2002
0000
3003
0000
,
0010
0100
0001
0000
,
1000
0010
0001
0000
,
0100
0010
0001
1000
,
0010
0100
0010
0100
,
0110
0000
1001
0000
,
1100
0000
0101
0000
,
0010
1000
0001
0100
,
0010
1000
0001
0100
,
0110
0000
1001
0000
,
1100
0000
0101
0000
,
0101
0101
0000
0000
,
1100
1100
0000
0000
,
0010
0100
0010
0000
,
1000
0010
0100
0000
,
0001
1000
0010
0001
,
0200
0000
0300
0000
,
0010
0001
0010
0100
,
2002
3003
0000
0000
,
0001
0100
0010
1000
,
2002
3003
0000
0000
,
0100
0001
0010
0100
,
2002
3003
0000
0000
,
0010
0100
1000
0010
,
0220
0330
0000
0000
,
1000
0001
0100
0000
,
0001
1000
0010
0000
,
0010
0010
0100
0000
,
0100
0100
0001
0000
,
1000
0001
1000
0010
,
1000
0100
1000
0001
,
0100
0010
1000
0001
,
0220
0000
0000
0330
,
0001
0001
0100
0100
,
1000
1000
0010
0010
,
0100
0100
0001
0001
,
1000
0000
0010
0000
0100
0010
0100
0000
,
2002
0000
3003
0000
;

//---------------dance-single - Blank----------------
#NOTES:
     dance-single:
     Blank:
     Beginner:
     1:
     0.108,0.129,0.065,0.065,0.000:
0000
0000
0000
0000
,
0000
0000
0000
0000
,
0000
0000
0000
0000
,
0010
0000
0000
0000
,
0100
0000
0100
0000
,
0010
0000
0010
0000
,
1000
0001
1000
0000
,
0010
0000
0000
0010
,
0010
0000
1000
0000
,
0001
0000
1000
0000
,
0001
1000
0001
0000
,
0010
0000
0000
0100
,
0100
0000
0000
0000
,
0100
0000
0000
0000
,
1000
0000
0000
0000
,
1000
0000
0000
0000
,
0001
0000
0000
0000
,
0001
0000
0000
0010
,
0010
0000
0000
0100
,
1001
0000
0000
0000
,
0100
0000
0000
0000
,
0110
0000
0000
0000
,
0010
0000
0000
0000
,
0220
0330
0000
0000
,
1000
0000
0000
0000
,
2002
3003
0000
0000
,
0001
0000
0000
0000
,
0110
0000
0000
0000
,
0010
0000
0000
0000
,
1000
0000
0000
0100
,
0001
0000
0000
0000
,
0010
0000
0000
0100
,
2000
0000
0000
0000
,
0000
0000
0000
0000
,
3200
0000
0000
0000
,
0300
0000
0000
0000
,
0010
0010
0010
0000
,
1000
1000
1000
0000
,
0001
0001
0001
0000
,
0010
0010
0010
0000
,
1001
0000
0000
0000
;
