#TITLE:恋はどう?モロ◎波動OK☆方程式!!;
#SUBTITLE:;
#ARTIST:あべにゅうぷろじぇくと feat.佐倉沙織 produced by ave,new;
#TITLETRANSLIT:KOI WA DOU? MORO HADOU OK*HOUTEISHIKI!!;
#SUBTITLETRANSLIT:;
#ARTISTTRANSLIT:AVE NEW PROJECT feat. SAORI SAKURA produced by ave,new;
#CREDIT:DigiMindAxel;
#BANNER:KOI WA DOU MORO HADOU OK HOUTEISHIKI!!.png;
#BACKGROUND:KOI WA DOU MORO HADOU OK HOUTEISHIKI!!-bg.png;
#LYRICSPATH:;
#CDTITLE:pop'n music.png;
#MUSIC:KOI WA DOU MORO HADOU OK HOUTEISHIKI!!.mp3;
#OFFSET:-9.460;
#SAMPLESTART:9.458;
#SAMPLELENGTH:12.000;
#SELECTABLE:YES;
#BPMS:0.000=256.000;
#STOPS:;
#BGCHANGES:;

//---------------dance-single - ----------------
#NOTES:
     dance-single:
     :
     Easy:
     4:
     0.252,0.340,0.097,0.088,0.000:
1001
0000
0100
0000
,
0100
0000
0000
0000
,
0100
0000
0010
0000
,
0100
0000
0000
0000
,
0001
0000
0010
0000
,
0100
0000
1000
0000
,
0010
0000
0100
0000
,
0010
0000
0000
0000
,
1001
0000
1000
0000
,
0001
0000
0000
0000
,
0100
0000
0010
0000
,
0100
0000
0000
0000
,
0001
0000
0010
0000
,
0100
0000
1000
0000
,
0001
0000
1000
0000
,
0100
0000
0010
0000
,
1001
0000
0000
1000
,
0000
0000
0000
0000
,
0001
0000
0010
0000
,
0001
0000
0010
0000
,
0001
0000
1000
0000
,
0001
0000
1000
0000
,
0100
0000
1000
0000
,
0100
0000
1000
0000
,
0100
0000
0010
0000
,
0100
0000
0010
0000
,
0001
0000
0000
0000
,
1000
0000
0000
0000
,
0001
0000
0000
0000
,
0000
0100
0000
0000
,
0010
0000
0000
0000
,
1000
0000
0000
0000
,
0100
0000
0000
0000
,
0010
0000
0001
0000
,
1000
0000
0001
0000
,
0001
0000
1001
0000
,
1000
0000
1000
0000
,
0010
0000
0100
0000
,
0001
0000
0001
0000
,
0100
0000
0010
0000
,
1000
0000
0001
0000
,
1000
0000
0000
0000
,
1001
0000
0100
0000
,
0010
0000
0001
0000
,
0100
0000
0001
0000
,
0100
0000
0000
0000
,
0010
0000
1000
0000
,
0010
0000
1000
0000
,
0100
0000
0010
0000
,
0001
0000
0000
0000
,
2002
0000
0000
0000
,
0000
3003
0000
0000
,
0200
0000
0000
0000
,
0000
0000
0300
0000
,
0020
0000
0000
0000
,
0000
0000
0030
0000
,
0200
0000
0000
0000
,
0000
0300
0000
0000
,
0001
0000
1000
0000
,
0001
0000
0001
0000
,
1000
0000
0001
0000
,
1000
0000
1000
0000
,
0010
0000
0100
0000
,
0010
0000
0010
0000
,
0100
0000
0010
0000
,
0110
0000
0000
0000
,
1000
0000
0001
0000
,
1001
0000
0000
0000
,
0000
0000
1000
0000
,
1000
0000
1000
0000
,
1001
0000
0010
0000
,
0100
0000
0010
0000
,
1000
0000
0100
0000
,
0010
0000
0001
0000
,
0100
0000
0010
0000
,
0100
0000
0010
0000
,
1000
0000
0100
0000
,
0010
0000
0000
0000
,
0001
0000
1000
0000
,
0001
0000
0010
0000
,
0100
0000
1000
0000
,
0010
0000
0100
0000
,
0001
0000
0001
0000
,
1000
0000
1000
0000
,
0100
0000
0010
0000
,
0001
0000
0000
0000
,
1001
0000
0000
1000
,
0000
0000
0000
0000
,
1001
0000
0000
0001
,
0000
0000
0000
0000
,
0100
0000
0100
0000
,
0100
0000
0100
0000
,
0010
0000
0010
0000
,
0010
0000
0010
0000
,
0100
0000
0100
0000
,
0100
0000
0100
0000
,
0001
0000
1000
0000
,
0001
0000
1000
0000
,
0010
0000
0100
0000
,
0001
0000
0010
0000
,
0100
0000
1000
0000
,
0001
0000
1000
0000
,
0100
0000
0010
0000
,
0001
0000
0100
0000
,
0010
0000
0100
0000
,
0001
0000
0001
0000
,
2000
0000
0000
3200
,
0000
0000
0320
0000
,
0032
0000
0000
0003
,
0002
0000
0000
0000
,
0000
0003
0000
0000
;

//---------------dance-single - ----------------
#NOTES:
     dance-single:
     :
     Hard:
     9:
     0.789,0.777,0.396,0.361,0.000: // measure 1
1002
0000
0000
0000
0203
0000
0000
0301
,  // measure 2
0000
1000
0000
0100
0010
0000
0000
0000
,  // measure 3
1001
0000
1000
0100
1000
0001
0100
0001
,  // measure 4
0000
0100
0000
0001
1000
0000
0000
0000
,  // measure 5
1001
0000
0001
0100
0001
1000
0100
1000
,  // measure 6
0000
0001
0000
0100
0000
0000
0001
1000
,  // measure 7
0002
0000
0000
0000
1003
0100
1000
0001
,  // measure 8
0000
1001
0000
0110
0000
1001
0000
0000
,  // measure 9
2000
0000
0000
0000
3020
0000
0000
1030
,  // measure 10
0000
0001
0000
0100
0010
0000
0000
0000
,  // measure 11
1001
0000
1000
0000
0001
0100
0010
1000
,  // measure 12
0000
0001
0000
1000
0010
0100
0010
0000
,  // measure 13
1001
0000
0001
0100
0001
1000
0100
1000
,  // measure 14
0000
0100
0010
0001
0010
0100
1000
0000
,  // measure 15
1001
0000
0001
0010
0001
1000
0000
1001
,  // measure 16
0000
0001
0010
0100
0000
1000
0001
0000
,  // measure 17
1000
0010
0100
0001
0000
0000
0010
0100
,  // measure 18
1000
0010
0000
0000
0100
0010
0100
0010
,  // measure 19
0100
0000
0001
0000
1000
0000
0100
1000
,  // measure 20
0000
0002
0000
0000
0103
0010
0100
0000
,  // measure 21
0001
1000
0001
0000
0100
0000
0001
1000
,  // measure 22
0000
0020
0000
0000
0130
0010
0100
0000
,  // measure 23
0001
0202
0303
2200
,  // measure 24
3300
0220
0330
0001
,  // measure 25
1001
0000
1000
0000
0001
1000
0001
0000
,  // measure 26
0100
0001
0100
0001
0100
0010
1000
0100
,  // measure 27
1000
0001
0010
0100
,  // measure 28
1000
0001
0000
0100
0000
0001
0010
0100
,  // measure 29
1000
0010
0100
0001
,  // measure 30
1000
1000
0001
0001
,  // measure 31
1001
1000
0100
0010
,  // measure 32
0001
1000
0000
0010
0000
1000
0100
0010
,  // measure 33
0001
0100
0010
1000
,  // measure 34
0010
1000
0010
1000
0010
0100
0001
0010
,  // measure 35
0000
1001
0100
0010
,  // measure 36
0001
1000
0100
0000
1100
0000
0000
0000
,  // measure 37
0010
0000
0001
0000
1000
0000
0010
0100
,  // measure 38
0010
0000
1000
0100
0010
0001
2000
0000
,  // measure 39
0000
3010
0100
0001
,  // measure 40
0100
0001
1000
0100
1000
0000
0000
0000
,  // measure 41
0001
0000
0010
0000
0100
0000
1000
0001
,  // measure 42
1000
0000
0001
0010
0100
1000
0001
0000
,  // measure 43
1001
0000
0001
0000
1000
0100
1000
0000
,  // measure 44
0001
0000
1000
0000
0001
0010
0001
0000
,  // measure 45
1000
0000
0001
0000
1000
0100
1000
0010
,  // measure 46
0000
0100
0002
0000
1000
0000
1003
0000
,  // measure 47
1001
0000
1000
0000
0001
0100
0001
0000
,  // measure 48
1000
0000
0001
0000
1000
0010
1000
0000
,  // measure 49
0001
0010
0100
1000
0000
0100
0010
0100
,  // measure 50
0000
1000
0010
0100
0001
1000
0001
0000
,  // measure 51
1000
0100
2000
0000
0001
0000
3001
0000
,  // measure 52
0010
0001
0020
0000
0100
0000
0130
0000
,  // measure 53
1000
0001
2000
0000
0010
0000
3010
0000
,  // measure 54
0100
0010
0100
0010
0100
0010
0100
0000
,  // measure 55
0001
1000
0002
0000
0010
0000
0013
0000
,  // measure 56
0100
0010
0200
0000
1000
0000
1300
0000
,  // measure 57
0010
0100
0020
0000
1000
0000
1030
0000
,  // measure 58
0001
0100
0001
1000
0100
1000
0010
0100
,  // measure 59
0001
0100
1000
0100
,  // measure 60
0001
0010
0110
0000
,  // measure 61
1000
0010
0001
0010
,  // measure 62
1000
0100
0110
0000
,  // measure 63
1001
0001
1000
1000
,  // measure 64
0001
0010
0100
1000
0001
0000
0100
0010
,  // measure 65
0100
0000
0010
1000
0001
0010
0100
0000
,  // measure 66
1001
0000
0000
0000
0010
0100
0010
0000
,  // measure 67
1000
0000
0001
0010
0100
0000
1000
0000
,  // measure 68
0001
0100
0010
0000
1000
0000
0001
0000
,  // measure 69
1000
0010
0100
0000
0001
1000
0001
0000
,  // measure 70
1001
0100
0010
0001
,  // measure 71
0202
0000
0303
0000
2010
0000
0000
3001
,  // measure 72
0000
1000
0000
0010
0200
0000
0310
0000
,  // measure 73
1001
0000
0001
0010
0100
1000
0001
0100
,  // measure 74
0000
0001
0000
1000
0020
0000
0130
0000
,  // measure 75
1001
0000
0001
0100
0001
1000
0100
1000
,  // measure 76
0000
0100
0010
0001
1000
0000
0001
0000
,  // measure 77
1001
0000
1000
0100
0010
0001
0000
1001
,  // measure 78
0000
0110
0000
1001
0000
1001
0000
0000
,  // measure 79
2200
0000
3300
0000
0012
0000
0000
1003
,  // measure 80
0000
0001
0000
1000
0010
0100
0010
0000
,  // measure 81
1001
0000
1000
0100
0010
0001
1000
0100
,  // measure 82
0000
1000
0000
0001
0100
0010
0100
0000
,  // measure 83
1001
0000
1000
0100
1000
0001
0100
0001
,  // measure 84
0000
0010
0100
1000
0001
0000
1000
0000
,  // measure 85
1001
0000
0001
0010
0100
1000
0000
1001
,  // measure 86
0000
1000
0010
0100
0000
0001
1000
0000
,  // measure 87
0010
1000
0100
0010
0000
0000
0100
1000
,  // measure 88
0001
0010
0000
0000
0001
1000
0001
1000
,  // measure 89
0001
0010
0100
1000
0000
0000
0100
0010
,  // measure 90
0001
0200
0000
0000
0000
0000
0300
0000
,  // measure 91
1001
0000
0100
0001
0000
1000
0000
0100
,  // measure 92
0000
1000
0100
0010
0002
0000
0000
0000
,  // measure 93
1003
0000
0010
1000
0000
0001
0000
0010
,  // measure 94
0000
0001
0010
0100
2000
0000
0000
0000
,  // measure 95
3001
0000
1000
0100
0000
1000
0000
0001
,  // measure 96
0000
1000
0100
0010
0002
0000
0000
0000
,  // measure 97
1003
0000
0001
0010
0000
0001
0000
1000
,  // measure 98
0000
0001
0010
0100
1000
0001
1000
0000
,  // measure 99
0001
0202
0303
2200
,  // measure 100
3300
0220
0330
1001
,  // measure 101
1000
0010
0100
0001
0000
0100
0000
0001
,  // measure 102
0100
0010
1000
0001
1000
0001
1000
0000
,  // measure 103
0001
0100
0010
1000
0000
0010
0000
1000
,  // measure 104
0000
0010
1000
0100
0010
0000
1001
0000
,  // measure 105
1000
0100
0010
0001
0000
1000
0000
0010
,  // measure 106
1000
0100
0010
0000
0001
0100
0001
1000
,  // measure 107
0100
0001
0100
1000
0000
0000
0100
0010
,  // measure 108
0001
0100
0000
0000
0010
1000
0100
0010
,  // measure 109
0002
0000
0000
0000
,  // measure 110
0200
0000
0000
0000
,  // measure 111
0000
0303
0000
0000
;

//---------------dance-single - ----------------
#NOTES:
     dance-single:
     :
     Medium:
     6:
     0.531,0.631,0.141,0.520,0.000:
0002
0000
0000
0000
2003
0000
0000
0002
,
0000
0000
3003
0000
,
1001
0000
0100
0000
0010
0000
0002
2000
,
0000
0000
3003
0000
,
0001
1000
0001
0000
0010
0000
0100
0000
,
1000
0001
0001
0000
,
1000
0001
1000
0000
0010
0000
0100
0001
,
0000
1000
0000
0001
0000
1000
0000
0000
,
0002
0000
0000
0000
2003
0000
0000
0002
,
0000
0000
3003
0000
,
1000
0000
0100
0000
0010
0000
0002
2000
,
0000
0000
3003
0000
,
1000
0001
1000
0000
0100
0000
0010
0000
,
0001
0100
0010
0100
,
0001
1000
0001
0000
0100
0000
0010
1000
,
0000
0001
0100
0001
0000
1000
0001
0000
,
2002
0000
3003
0220
,
0000
0000
0330
0000
,
1000
0100
0010
0001
,
2000
0000
3001
0010
,
0100
1000
0010
0100
,
0002
0000
0000
1003
,
1001
0002
0000
0203
,
0000
0320
0000
1030
,
0001
0010
0100
0000
,
1000
0010
0100
0001
,
1000
0100
1000
0010
,
0200
0000
0000
0301
,
1000
0001
0010
0100
,
2000
0000
0001
3001
,
0100
0010
1000
0100
,
0020
0000
0031
1000
,
1001
0010
0100
1000
,
0001
0000
0000
0000
0100
0010
0100
0010
,
0000
1000
0100
0001
,
0100
0000
1001
0000
,
0001
0010
1000
0010
,
0001
0100
0010
0000
,
1000
0100
0001
0100
,
1000
0010
0100
0000
,
0001
0010
1000
0010
,
0001
0100
0010
0000
,
1000
0000
0001
0000
0100
0001
0000
0000
,
1000
0000
0001
0000
0100
0001
0000
0000
,
0010
0000
0100
0000
1000
0001
0000
0000
,
0010
0000
0100
0000
1000
0001
0000
0000
,
1001
0000
0010
0000
0100
0010
0000
0000
,
0001
0000
0010
0000
0100
0010
0000
0000
,
0001
0000
0000
0101
0000
0000
1000
0100
,
0000
1000
0001
1000
0001
0000
0000
0000
,
2000
0000
3200
0000
,
0310
0001
0010
0000
,
0002
0000
0023
0000
,
0130
1000
0100
0000
,
2000
0000
3020
0000
,
0130
0001
0100
0000
,
0002
0000
0203
0000
,
0310
1000
0002
0000
,
1003
0100
0010
0001
,
1000
0000
1000
0000
,
0001
0010
0100
1000
,
0001
0000
0001
0000
,
0100
0001
0010
0100
,
1000
0000
1000
0000
,
0010
1000
0100
0010
,
0002
0000
1003
0000
,
0010
1000
0100
0010
,
1002
0000
1003
0001
,
1000
0000
0010
0000
,
0010
0100
0010
0000
,
2001
0000
0000
0000
3200
0000
0000
2300
,
0000
0000
3000
0001
,
1000
0000
0100
0000
0010
0000
0002
2000
,
0000
0000
3003
0000
,
0010
0100
0010
1000
,
0100
0010
0001
0000
,
1000
0000
0100
0000
0010
0000
0001
0100
,
0000
0010
0000
0100
0000
0001
0000
0000
,
0200
0000
0000
0000
0302
0000
0000
0203
,
0000
0000
0310
0000
,
0010
0000
0100
0000
0001
0000
1000
0002
,
0000
1003
1000
1000
,
1001
0010
0100
1000
,
0001
0000
0100
0010
0100
0000
0000
0000
,
1001
0000
0100
0000
0010
0000
0001
1000
,
0000
0010
0100
0010
0000
0000
0000
0000
,
2002
0000
3003
2002
,
0000
3003
0010
0100
,
0220
0000
0330
0220
,
0000
0330
0000
0000
,
0001
0000
0100
0001
0000
1000
0000
0200
,
0000
0000
1300
0000
,
1000
0000
0100
1000
0000
0001
0000
0200
,
0000
0000
0301
0000
,
0001
0000
1000
0100
0000
1000
0000
0002
,
0000
0000
0103
0000
,
0001
0000
1000
0010
0000
0100
0000
0002
,
0000
0000
1003
0010
,
0100
0002
0000
0023
,
0000
0230
0000
1300
,
0001
0100
0010
0100
,
0001
0000
1000
0001
1000
0000
0000
0000
,
0010
0100
0001
0010
,
0100
1000
0010
0000
,
0100
0001
0010
0100
,
1000
0000
0010
0000
0100
0010
0100
0000
,
0001
0000
0100
0000
0001
1000
0001
0000
,
0100
0000
0010
0000
1000
0100
1000
0000
,
0002
0000
0000
0000
,
2000
0000
0000
0000
,
0000
3003
0000
0000
;

//---------------dance-single - ----------------
#NOTES:
     dance-single:
     :
     Beginner:
     2:
     0.094,0.240,0.062,0.000,0.000:
1000
0000
0000
0000
,
0000
0000
0000
0000
,
0001
0000
0000
0000
,
0000
0000
0000
0000
,
1000
0000
0000
0000
,
1000
0000
0000
0000
,
0001
0000
0000
0000
,
0001
0000
0000
0000
,
0100
0000
0000
0000
,
0000
0000
0000
0000
,
0010
0000
0000
0000
,
0000
0000
0000
0000
,
0100
0000
0000
0000
,
0100
0000
0000
0000
,
0010
0000
0000
0000
,
0010
0000
0000
0000
,
0110
0000
0000
0000
,
0000
0000
0000
0000
,
1000
0000
0000
0000
,
0000
0000
0000
0000
,
0000
0001
0000
0000
,
0000
0000
0000
0000
,
1000
0000
0000
0000
,
0000
0000
0000
0000
,
0001
0000
0000
0000
,
0000
0000
0000
0000
,
1001
0000
0000
0000
,
0000
0000
0000
0000
,
0000
0000
0000
0000
,
0000
0000
0000
0000
,
1000
0000
0000
0000
,
0000
0000
0000
0000
,
0001
0000
0000
0000
,
1000
0000
0000
0000
,
0000
0001
0000
0000
,
0000
0000
0000
0000
,
0010
0000
0000
0000
,
0000
0000
0000
0000
,
0100
0000
0000
0000
,
0000
0000
0000
0000
,
1000
0000
0000
0000
,
0000
0000
0000
0000
,
0001
0000
0000
0000
,
0001
0000
0000
0000
,
0001
0000
0000
0000
,
0001
0000
0000
0000
,
1000
0000
0000
0000
,
1000
0000
0000
0000
,
1000
0000
0000
0000
,
0000
1000
0000
0000
,
1001
0000
0000
0000
,
0000
0000
0000
0000
,
0010
0000
0000
0000
,
0000
0000
0000
0000
,
0010
0000
0000
0000
,
0000
0000
0000
0000
,
0100
0000
0000
0000
,
0000
0000
0000
0000
,
0010
0000
0000
0000
,
0000
0000
0000
0000
,
0010
0000
0000
0000
,
0000
0000
0000
0000
,
0100
0000
0000
0000
,
0000
0000
0000
0000
,
0100
0000
0000
0000
,
0000
0000
0000
0000
,
0010
0000
0000
0000
,
0000
0000
0000
0000
,
0000
0000
0000
0000
,
0000
0000
0000
0000
,
1001
0000
0000
0000
,
0001
0000
0000
0000
,
1000
0000
0000
0000
,
0000
0000
0000
0000
,
0001
0000
0000
0000
,
1000
0000
0000
0000
,
0001
0000
0000
0000
,
0100
0000
0000
0000
,
0010
0000
0000
0000
,
0000
0000
0000
0000
,
0010
0000
0000
0000
,
0000
0000
0000
0000
,
1000
0000
0000
0000
,
0000
0000
0000
0000
,
0001
0000
0000
0000
,
0000
0000
0000
0000
,
1000
0000
0000
0000
,
0000
0000
0000
0000
,
1001
0000
0000
0000
,
0000
0000
0000
0000
,
0010
0000
0000
0000
,
0000
0000
0000
0000
,
0010
0000
0000
0000
,
0000
0000
0000
0000
,
0010
0000
0000
0000
,
0000
0000
0000
0000
,
0010
0000
0000
0000
,
0000
0000
0000
0000
,
0110
0000
0000
0000
,
0000
0000
0000
0000
,
0100
0000
0000
0000
,
0000
0000
0000
0000
,
0100
0000
0000
0000
,
0000
0000
0000
0000
,
0100
0000
0000
0000
,
0000
0000
0000
0000
,
1001
0000
0000
0001
,
0000
0000
1000
0000
,
0001
0000
0000
0000
,
0001
0000
0000
0000
;
