#TITLE:Hypris;
#SUBTITLE:;
#ARTIST:Doin vs. Tempa T [TakaTDM mix];
#TITLETRANSLIT:;
#SUBTITLETRANSLIT:;
#ARTISTTRANSLIT:;
#CREDIT:TakaTDM/TaroNuke;
#BANNER:Hypris-bn.png;
#BACKGROUND:Hypris.png;
#LYRICSPATH:Hypris.lrc;
#CDTITLE:Nonsense.png;
#MUSIC:Hypris.ogg;
#OFFSET:-0.050;
#SAMPLESTART:13.206;
#SAMPLELENGTH:16.000;
#SELECTABLE:YES;
#BPMS:0.000=144.880,128.000=72.440,144.000=144.880,240.000=72.440;
#STOPS:;
#BGCHANGES:;

//---------------dance-single - NEXT HYPE----------------
#NOTES:
     dance-single:
     NEXT HYPE:
     Hard:
     8:
     0.560,0.693,0.193,0.531,0.246:
0000
0000
0000
0000
,
0000
0000
0000
0000
,
0000
0000
0000
0000
,
0000
0000
0000
0000
,
1000
0000
0000
0100
0000
0000
0010
0000
0000
0000
1001
0000
0000
0000
0000
0000
,
0001
0000
0000
0100
0000
0000
0010
0000
0000
0000
1001
0000
0000
0000
0000
0000
,
1000
0000
0000
0100
0000
0000
0010
0000
0000
0000
1001
0000
0000
0000
0000
0000
,
0001
0000
0000
0100
0000
0000
0010
0000
0000
0000
1001
0000
0000
0000
0000
0000
,
2000
0000
3002
0203
2300
0000
3200
0302
,
0023
0000
0230
2300
3002
0000
2003
3200
,
0302
0000
0203
2300
3020
0000
0032
0000
,
0103
1001
1001
0000
,
0000
2000
0000
3200
0302
0000
0203
0320
,
0032
0000
0000
2003
3002
0000
0203
0320
,
2030
0000
3200
2300
3020
0000
0032
0000
,
0103
1001
1001
0000
,
2000
0000
0000
0000
3001
0100
0001
0100
,
0020
0000
0000
0130
0001
0000
0001
0000
,
2000
3200
0302
0023
,
2030
0001
3001
0000
,
2000
0000
0000
3100
0010
0100
1000
0001
,
0200
0000
0000
0301
1000
0010
0100
0010
,
2000
0000
0000
3001
0010
0100
1000
0001
,
0200
0000
0300
0000
,
0001
0000
0100
0000
0010
0000
1000
0000
0010
0100
0000
0100
0010
0000
1000
0000
,
0001
0100
0010
0100
0001
1000
1001
0000
,
1000
0000
0100
0000
0010
0000
0001
0000
0100
0010
0000
0010
0100
0000
0001
0000
,
1000
0100
0010
0100
1000
0001
0010
0001
,
1000
0000
0010
0000
0100
0000
0001
0000
0100
0010
0000
0010
0100
0000
0001
0000
,
1000
0000
0000
0000
0000
0000
0000
0000
0010
0000
0000
0000
0000
0000
0000
0000
0100
0000
0000
0000
0000
0000
0000
0000
0010
0000
0000
0000
0000
0000
0000
0000
1000
0000
0000
0000
0000
0000
0000
0000
0001
0000
0000
0000
0000
0000
0000
0000
2002
3003
0000
0000
0000
0000
0000
0000
0000
0000
0000
0000
0000
0000
0000
0000
,
0001
0000
0010
0000
0100
0000
1000
0000
0010
0100
0000
0100
0010
0000
1000
0000
,
0001
0010
0100
0010
0001
1000
1001
0000
,
1000
0000
0001
0100
0010
0000
1000
0100
0010
0000
0001
0100
0010
0000
1000
0100
,
0010
0000
0001
0100
0010
0000
1000
0000
0010
0000
1001
0000
1001
0000
0000
0000
,
1000
0000
0001
0100
1000
0000
0001
0010
1000
0000
0001
0010
1000
0000
0001
0100
,
1000
0000
0001
0100
0010
0000
1000
0000
0010
0000
1001
0000
1001
0000
0000
0000
,
2000
0000
3020
0000
,
0230
0000
0302
0000
,
0023
0000
0032
0000
2003
0000
3020
0000
0130
0000
0001
0100
0010
0000
1000
0000
,
0002
0000
2003
0000
,
3002
0000
0000
0000
0000
2003
3200
2300
,
3020
0000
0000
0000
0000
0230
0302
2003
,
3200
0000
2300
0000
,
3200
0000
0310
0000
,
0001
0000
0100
0000
0010
0000
1000
0000
0010
0100
0000
0100
0010
0000
1000
0000
,
0001
0100
0010
0100
0001
1000
1001
0000
,
1000
0000
0100
0000
0010
0000
0001
0000
0100
0010
0000
0010
0100
0000
0001
0000
,
1000
0100
0010
0100
1000
0001
0010
0001
,
1000
0000
0010
0000
0100
0000
0001
0000
0100
0010
0000
0010
0100
0000
0000
0000
,
0001
0000
0010
0000
0100
0000
1000
0000
0010
0100
0000
0100
0010
0000
1000
0000
,
0001
0000
0100
0000
0010
0000
1000
0000
0010
0100
0000
0100
0010
0000
1000
0000
,
0001
0010
0100
0010
0001
1000
1001
0000
,
1000
0000
0100
0000
0001
0000
0100
0000
1000
0010
0000
0010
0100
0000
0001
0000
,
1000
0000
0010
0000
0001
0000
0010
0000
1000
0100
0000
0100
0010
0000
0001
0000
,
1000
0000
0010
0000
0100
0001
0100
0000
0001
0010
0000
0010
0100
0000
1000
0000
,
0001
0000
0010
0000
0100
0000
1000
0000
0010
0000
0100
0001
0100
0000
0010
0000
,
1000
0000
0100
0000
0001
0000
0100
0000
0010
0001
0000
0001
1000
0000
0000
0000
,
0010
0000
0100
0000
1000
0000
0100
0000
0010
1000
0000
1000
0001
0000
0000
0000
,
1000
0000
0010
0000
0001
0000
0010
0000
0100
0001
0000
0001
1000
0000
0000
0000
,
0010
0000
1000
0000
0010
0000
1000
0000
0001
0000
0100
0001
0100
0000
0000
0000
,
0001
0000
0100
1000
0010
0000
0001
0100
1000
0000
0010
0001
0100
0000
1000
0010
,
0001
0000
0100
1000
0010
0000
0001
0000
0100
0000
1000
0000
1001
0000
0000
0000
,
1010
0000
0010
0000
0000
0000
0100
0000
0101
0000
0000
0000
0010
0000
1000
0000
1100
0000
0000
0000
0000
0000
0001
0000
0100
0000
0001
0100
0001
0000
0010
0000
,
0100
0000
1000
0100
0010
0000
0001
0000
0110
0000
1001
0000
1001
0000
0000
0000
;

//---------------dance-single - TaroNuke----------------
#NOTES:
     dance-single:
     TaroNuke:
     Challenge:
     10:
     0.697,0.988,0.225,0.290,0.688: // measure 1
0000
0000
0000
0000
,  // measure 2
0000
0000
0000
0000
,  // measure 3
0000
0000
0000
0000
,  // measure 4
0000
0000
0000
0000
,  // measure 5
0100
0000
0000
0100
0000
0000
0010
0000
0000
0000
1001
0000
0000
0000
0000
0000
,  // measure 6
0100
0000
0000
0100
0000
0000
0010
0000
0000
0000
1001
0000
0000
0000
0000
0000
,  // measure 7
1000
0000
0000
1000
0000
0000
0010
0000
0000
0000
1001
0000
0000
0000
0000
0000
,  // measure 8
0001
0000
0000
0001
0000
0000
0010
0000
0000
0000
1001
0000
0000
0000
0000
0000
,  // measure 9
2000
0000
3200
0320
0032
0000
0203
0320
,  // measure 10
2030
0000
3200
0320
0032
0000
0023
0230
,  // measure 11
2300
0000
3020
0230
0302
0000
0023
0000
,  // measure 12
0130
1001
1001
0000
,  // measure 13
1000
0200
0000
0320
0032
0000
2003
3020
,  // measure 14
0230
0000
0000
2300
3200
0000
0320
2030
,  // measure 15
3200
0000
2300
3002
0023
0000
0230
0000
,  // measure 16
0310
1001
1001
0000
,  // measure 17
1001
0000
0000
0000
0000
0000
1000
0100
1000
0000
0001
0100
0001
0000
0000
0000
,  // measure 18
1001
0000
0000
0000
0000
0000
1000
0010
1000
0000
0001
0010
0001
0000
0000
0000
,  // measure 19
0110
0000
0000
0000
0000
0000
1000
0100
0010
0000
0001
0100
0010
0000
0000
0000
,  // measure 20
1001
0000
1000
0100
0001
0100
0010
0000
,  // measure 21
1001
0000
0001
0100
1000
0100
0010
0000
,  // measure 22
1000
0000
0100
0000
1000
0100
1000
0000
1010
0000
0101
0000
1001
0000
0000
0000
,  // measure 23
1000
0100
0000
0100
1000
0000
0001
0000
0100
0000
0010
1000
0001
0000
0010
0001
,  // measure 24
0000
0001
1000
0000
0010
0000
0100
0000
0001
0000
1000
0100
0010
0000
0000
0000
,  // measure 25
0001
0000
1000
0100
0000
0100
0010
0000
0001
0100
0000
0100
0010
0000
1000
0100
,  // measure 26
0000
0100
0010
0000
0001
0000
1000
0100
1000
0000
0010
0000
0100
0000
0001
0000
,  // measure 27
1000
0000
0001
0100
0000
0100
0010
0000
1000
0100
0000
0100
0010
0000
0001
0100
,  // measure 28
0000
0100
0010
0000
1000
0000
0001
0100
0001
0000
0010
0000
0100
0000
1000
0000
,  // measure 29
0001
0000
1000
0010
0000
0010
0100
0000
0001
0010
0000
0010
0100
0000
1000
0010
,  // measure 30
0000
0000
0000
0000
0010
0000
0000
0000
0100
0000
0000
0000
0000
0000
0000
0000
0001
0000
0000
0000
0000
0000
0000
0000
0010
0000
0000
0000
0100
0000
0000
0000
1000
0000
0000
0000
0000
0000
0000
0000
0001
0000
0000
0000
0000
0000
0000
0000
0220
0330
0000
0000
0000
0000
0000
0000
0000
0000
0000
0000
0000
0000
0000
0000
,  // measure 31
1000
0000
0001
0010
0000
0010
0100
0000
1000
0010
0000
0010
0100
0000
0001
0010
,  // measure 32
0000
0010
0100
0000
1000
0000
0001
0100
0001
0000
1000
0000
0010
0100
0010
0100
,  // measure 33
0001
0000
0010
0001
0010
0000
1000
0010
1000
0000
0100
1000
0100
0000
0001
0100
,  // measure 34
0001
0000
0010
0001
0010
0000
0100
0000
0110
0000
1001
0000
1001
0000
0000
0000
,  // measure 35
1000
0000
0010
1000
0010
0000
0001
0010
0001
0000
0100
0001
0100
0000
1000
0100
,  // measure 36
1000
0000
0010
1000
0010
0000
0100
0000
0110
0000
1001
0000
1000
0001
1001
0000
,  // measure 37
1000
0000
0010
0000
0100
0010
0100
0000
0001
0000
1000
0000
1001
0000
0000
0000
,  // measure 38
0001
0000
0010
0000
0100
0000
1000
0010
1000
0000
0001
0100
0001
0000
0000
0000
,  // measure 39
1000
0000
0100
0010
0001
0000
0100
0000
0010
0000
1000
0100
1000
0000
0010
0100
,  // measure 40
0001
0000
0000
0000
1000
0010
1000
0000
0001
0000
0100
0010
0100
0000
0001
0000
,  // measure 41
1000
0100
0000
0100
0010
0000
0001
0100
0001
0000
1000
0010
1000
0000
0000
0000
,  // measure 42
0001
0000
0100
0000
0010
1000
0001
0000
0010
0000
0100
1000
0001
0000
0000
0000
,  // measure 43
1000
0000
0001
0000
0100
0000
0010
1000
0001
0000
0010
0001
1000
0000
0100
0000
,  // measure 44
0010
0000
0001
1000
0010
0000
1000
0001
0010
0000
0001
1000
0010
0000
0000
0000
,  // measure 45
1000
0000
0001
0100
0000
0100
0010
0000
1000
0100
0000
0100
0010
0000
0001
0100
,  // measure 46
0000
0100
0010
0000
1000
0000
0001
0100
0001
0000
0010
0000
0100
0000
1000
0000
,  // measure 47
0001
0000
1000
0100
0000
0100
0010
0000
0001
0100
0000
0100
0010
0000
1000
0100
,  // measure 48
0000
0100
0010
0000
0001
0000
1000
0100
1000
0000
0010
0000
0100
0000
0001
0000
,  // measure 49
1000
0000
0001
0100
0000
0100
0010
0000
1000
0100
0000
0100
0010
0000
0001
0100
,  // measure 50
0000
0100
0010
0000
1000
0000
0100
0010
0001
0000
0100
0000
0010
0000
1000
0000
,  // measure 51
0001
0000
1000
0100
0000
0100
0010
0000
0001
0100
0000
0100
0010
0000
1000
0100
,  // measure 52
0000
0100
0010
0000
0001
0000
1000
0010
1000
0000
0001
0000
0100
0010
0100
0010
,  // measure 53
1000
0000
0001
0100
0000
1000
0100
0000
0001
0010
0000
1000
0010
0000
0001
0100
,  // measure 54
0000
0100
0010
0000
1000
0000
0001
0100
0001
0000
0010
0000
0100
1000
0100
1000
,  // measure 55
0001
0000
1000
0100
0000
0001
0100
0000
1000
0010
0000
0001
0010
0000
1000
0100
,  // measure 56
0000
0100
0010
0000
0001
0000
1000
0100
1000
0000
0010
0000
0100
0001
0100
0001
,  // measure 57
1000
0000
0001
0100
0000
1000
0100
0000
0001
0010
0000
1000
0010
0000
0001
0100
,  // measure 58
0000
0100
0010
0000
1000
0000
0100
0010
0001
0000
0100
0000
0010
0100
0010
1000
,  // measure 59
0001
0000
1000
0100
0000
0001
0100
0000
1000
0010
0000
0001
0010
0000
1000
0100
,  // measure 60
1000
0010
1000
0010
0100
0001
0100
0001
1000
0000
0001
0000
0100
0010
0100
0010
,  // measure 61
1000
0000
0010
1000
0010
0000
0001
0010
0001
0000
0100
0001
0100
0000
1000
0100
,  // measure 62
1000
0000
0010
1000
0010
0000
0100
0000
0110
0000
1001
0000
1001
0000
0000
0000
,  // measure 63
0001
0000
1000
0000
0001
0000
0100
0010
0100
0000
0001
1000
0001
0000
0000
0000
1000
0000
0100
0000
0010
0000
0001
0100
0010
0000
1000
0010
0100
0000
0000
0000
,  // measure 64
0001
0000
1000
0000
0010
0000
0100
0001
1000
0000
0100
1000
0001
0000
0000
0000
0010
0000
0100
0000
1000
0000
0001
0100
0010
0000
1000
0000
2002
0000
3003
0000
,  // measure 65
0000
0000
0000
0000
0000
0000
0000
0000
0000
0000
0000
0000
0000
0000
0000
0MM0
0000
0000
M00M
0000
0000
0000
0000
0000
0000
0000
0000
0000
0000
0000
0000
0000
;

//---------------dance-single - TaroNuke----------------
#NOTES:
     dance-single:
     TaroNuke:
     Beginner:
     2:
     0.132,0.230,0.032,0.032,0.000:
0000
0000
0000
0000
,
0000
0000
0000
0000
,
0000
0000
0000
0000
,
0000
0000
0000
0000
,
1000
0000
0000
0000
,
1000
0000
0000
0000
,
0001
0000
0000
0000
,
0001
0000
0000
0000
,
1000
0000
0100
0000
,
0100
0000
0010
0000
,
0001
0000
0001
0000
,
0010
0000
1001
0000
,
0001
0000
0100
0000
,
0100
0000
0010
0000
,
0010
0000
1000
0000
,
0010
0000
1001
0000
,
1000
0000
0000
0000
,
0001
0000
0000
0000
,
0010
0000
0000
0000
,
0100
0000
0000
0000
,
1000
0000
0000
0000
,
0001
0000
0000
0000
,
0100
0000
0000
0000
,
0010
0000
0000
0000
,
1000
0000
1000
0000
,
0001
0000
0001
0000
,
1000
0000
1000
0000
,
0001
0000
0001
0000
,
1000
0000
1000
0000
,
0001
0000
0001
0000
,
1000
0000
1000
0000
,
0010
0010
0010
0000
,
1000
0000
0100
0000
,
0001
0000
0010
0000
,
1000
0000
0010
0000
,
0001
0000
0100
0000
,
1000
0000
0010
0000
,
0100
0000
0001
0000
,
0010
0000
0100
0000
,
1000
0000
0000
0000
,
0001
0000
0100
0000
,
0010
0000
1000
0000
,
0100
0000
0010
0000
,
0001
0000
0000
0000
,
1000
0000
1000
0000
,
0001
0000
0001
0000
,
1000
0000
1000
0000
,
0001
0000
0001
0000
,
0000
0000
2002
3003
,
0000
0000
2002
3003
,
1000
0000
1000
0000
,
0001
0000
0000
0000
,
0100
0000
0100
0000
,
0010
0000
0010
0000
,
0100
0000
0100
0000
,
0010
0000
0000
0000
,
1000
1000
1000
0000
,
0001
0001
0001
0000
,
0100
0100
0100
0000
,
0010
0010
0010
0000
,
1000
0000
0100
0000
,
0001
0000
0010
0000
,
1000
0000
0100
0000
,
0001
0000
0010
0000
;

//---------------dance-single - TaroNuke----------------
#NOTES:
     dance-single:
     TaroNuke:
     Easy:
     3:
     0.248,0.257,0.129,0.064,0.000:
0000
0000
0000
0000
,
0000
0000
0000
0000
,
0000
0000
0000
0000
,
0000
0000
0000
0000
,
1000
0100
1000
0000
,
0001
0100
0001
0000
,
1000
0010
1000
0000
,
0001
0010
0001
0000
,
1000
0100
0010
0001
,
1000
0010
0100
0001
,
1000
0100
0010
0001
,
0010
0100
0100
0000
,
0001
0010
0100
1000
,
0001
0100
0010
1000
,
0001
0010
0100
1000
,
0010
0100
0100
0000
,
1001
0000
1000
1000
,
1001
0000
0001
0001
,
0110
0000
1000
0010
,
1001
0000
0001
0010
,
1001
0000
1000
0010
,
1000
0100
1000
0010
,
0100
0000
0001
0000
,
1000
0000
0000
0000
,
0001
0010
0100
1000
,
0001
0100
0010
1000
,
0001
0010
0100
1000
,
0001
1000
0001
0000
,
1000
0100
0010
0001
,
1000
0010
0100
0001
,
1000
0100
0010
0001
,
1000
0001
1000
0000
,
1001
0000
0110
0000
,
1001
0000
0110
0000
,
1000
0100
0001
0010
,
1000
0001
0100
0010
,
2000
0000
3020
0000
,
0230
0000
0302
0000
,
1003
0000
1000
0000
,
0001
0000
0001
0000
,
2000
0000
3200
0000
,
0320
0000
0032
0000
,
1003
0000
0110
0000
,
1001
0000
0000
0000
,
0001
0010
0100
1000
,
0001
0100
0010
1000
,
0001
0010
0100
1000
,
0001
1000
0001
0000
,
1000
0100
0010
0001
,
1000
0010
0100
0001
,
1000
0100
0010
0001
,
1000
0001
1000
0000
,
0001
0001
1000
1000
,
0010
0010
0100
0100
,
0001
0010
0100
1000
,
0001
1000
0001
0000
,
1000
1000
0010
0010
,
0100
0100
0001
0001
,
1000
0100
0001
0100
,
1000
0000
1001
0000
,
1001
0000
0110
0000
,
1001
0000
0110
0000
,
1000
0100
0010
0001
,
0100
0010
1000
0010
;

//---------------dance-single - TaroNuke----------------
#NOTES:
     dance-single:
     TaroNuke:
     Medium:
     6:
     0.396,0.667,0.234,0.121,0.020:
0000
0000
0000
0000
,
0000
0000
0000
0000
,
0000
0000
0000
0000
,
0000
0000
0000
0000
,
1000
0100
0010
0000
,
0001
0100
0010
0000
,
1000
0100
0001
0000
,
0001
0100
1000
0000
,
0001
0000
1000
0100
0010
0000
0001
0100
,
0010
0000
0100
0001
0010
0000
0100
1000
,
0010
0000
0100
0010
1000
0000
0001
0000
,
0010
0100
0100
0000
,
0000
1000
0000
0100
0010
0000
0001
0010
,
0100
0000
0010
0001
0100
0000
0010
1000
,
0100
0000
1000
0100
0010
0000
0001
0000
,
1000
0100
0100
0000
,
1001
0000
0000
0000
1000
0100
1000
0000
,
1001
0000
0000
0000
0001
0100
0001
0000
,
1001
0000
0000
0000
1000
0010
0100
0000
,
1001
0000
0000
0000
0001
0100
0010
0000
,
1001
0000
0000
0000
1000
0010
1000
0000
,
0001
0100
0001
0000
0100
0100
0100
0000
,
0010
1000
0001
0100
,
0010
0000
0010
0000
1000
1000
1000
0000
,
0001
0100
0001
0000
1000
0100
1000
0000
,
0001
0100
0001
0000
0100
0100
0100
0000
,
0001
0010
0001
0000
1000
0010
1000
0000
,
0001
0010
0001
0000
0010
0010
0010
0000
,
0100
1000
0001
0000
0100
0001
1000
0000
,
0100
1000
0001
0000
0010
0010
0010
0000
,
0001
0010
0100
0000
1000
0010
0100
0000
,
0001
0001
0001
0000
1000
1000
1000
0000
,
1001
0110
1001
0110
,
1001
0110
1001
0110
,
1000
0100
0001
0100
,
1000
0010
0001
0010
,
2000
0000
3020
0000
,
0230
0000
0302
0000
,
0023
0000
0230
0000
,
2300
0000
3020
0000
,
2030
0000
3200
0000
,
0320
0000
0230
0000
,
2300
0000
3002
0000
,
0203
0000
0300
0000
,
0001
0100
0001
0000
1000
0100
1000
0000
,
0001
0100
0001
0000
0100
0100
0100
0000
,
0001
0010
0001
0000
1000
0010
1000
0000
,
0001
0010
0001
0000
0010
0010
0010
0000
,
0100
1000
0001
0000
0100
0001
1000
0000
,
0100
1000
0001
0000
0010
0010
0010
0000
,
0001
0010
0100
0000
1000
0010
0100
0000
,
0001
0001
0001
0000
1000
1000
1000
0000
,
0001
0100
0001
0100
0010
1000
0010
1000
,
0001
0010
0001
0010
0100
0100
0100
0000
,
1000
0100
1000
0100
0010
0001
0010
0001
,
1000
0010
1000
0010
0100
0100
0100
0000
,
0001
0100
0001
0100
0010
1000
0010
1000
,
0100
0010
0100
0010
0001
0001
0001
0000
,
1000
0010
1000
0010
0100
0001
0100
0001
,
1000
0100
1000
0100
0010
0001
0010
0001
,
1001
0101
0011
0101
,
1001
1010
1100
1001
,
0101
0000
0000
0010
1010
0000
1000
0001
0011
0000
0000
1000
1010
0000
0010
0100
,
0110
0000
0100
0001
0101
0000
0010
0000
1010
0000
0100
0000
1001
0000
0000
0000
;
