#TITLE:Bubbly Time;
#SUBTITLE:;
#ARTIST:Fantastic Bubbly9;
#TITLETRANSLIT:;
#SUBTITLETRANSLIT:;
#ARTISTTRANSLIT:;
#GENRE:;
#CREDIT:;
#MENUCOLOR:;
#METERTYPE:DDR;
#BANNER:Bubbly Time.png;
#BACKGROUND:Bubbly Time-bg.png;
#LYRICSPATH:;
#CDTITLE:;
#MUSIC:Bubbly Time.mp3;
#OFFSET:-1.715;
#SAMPLESTART:61.590;
#SAMPLELENGTH:14.000;
#SELECTABLE:YES;
#LISTSORT:;
#BPMS:0.000=138.000;
#STOPS:128.000=0.870
;
#BGCHANGES:;
#ATTACKS:;

//---------------dance-single - ----------------
#NOTES:
     dance-single:
     :
     Hard:
     8:
     0.565,0.539,0.862,0.000,0.374: // measure 1
0000
0000
0000
0000
,  // measure 2
0000
0000
0000
0000
,  // measure 3
0000
0000
0000
0000
,  // measure 4
0000
0000
0000
0000
,  // measure 5
0110
0010
1000
0001
,  // measure 6
1000
0000
0000
0010
0000
0000
0100
0000
0010
0000
0000
0100
0000
0000
0000
0000
,  // measure 7
1001
0001
0100
0010
,  // measure 8
0100
0000
0000
0010
0000
0000
1000
0000
0001
0000
0000
0100
0000
0000
0000
0000
,  // measure 9
0101
0000
0100
0000
0010
0000
1000
0100
,  // measure 10
0000
0010
0100
0000
1000
0010
0100
0000
,  // measure 11
0110
0000
0010
0000
1000
0000
0001
0010
,  // measure 12
0000
0000
0100
0000
0010
0000
0000
0000
0100
0000
1000
0000
0001
1000
0001
1000
,  // measure 13
0001
0000
0100
0000
0010
0000
1000
0100
,  // measure 14
0000
0010
0100
0000
0010
0001
0100
0000
,  // measure 15
0101
0001
1001
1000
,  // measure 16
1010
0000
0000
0000
0110
0000
0000
0000
0101
0000
0000
1001
0000
0000
1010
0000
,  // measure 17
1000
0000
1100
0000
0110
0000
0010
0011
,  // measure 18
0000
0001
0101
0000
0100
0010
1000
0000
,  // measure 19
1100
0000
0110
0000
0011
0000
0001
0101
,  // measure 20
0000
0000
1000
0000
1001
0000
0000
0000
1000
0000
0010
0000
0100
0010
0100
0010
,  // measure 21
0100
0000
0101
0000
1001
0000
0001
0101
,  // measure 22
0000
0001
0011
0000
0010
0100
1000
0000
,  // measure 23
1100
0000
1010
0000
0110
0000
0100
0001
,  // measure 24
0011
0000
0000
0000
1001
0000
0000
0000
1010
0000
0000
0110
0000
0000
0101
0000
,  // measure 25
0001
0000
0000
1000
0000
0000
0010
0000
0100
0010
0000
0100
0010
0000
0000
0000
,  // measure 26
1010
0000
0000
1000
0000
0000
0100
0000
0010
0100
0000
0010
0100
0000
0000
0000
,  // measure 27
0011
0000
0000
0001
0000
0000
1000
0000
0010
1000
0000
0010
1000
0000
0000
0000
,  // measure 28
0110
0000
0000
0010
0000
0000
1000
0000
0001
0100
0000
0001
0100
0000
0000
0000
,  // measure 29
0110
0000
0000
0010
0000
0000
1000
0000
0100
0010
0000
0001
0000
0000
1000
0000
,  // measure 30
1010
0000
0000
0010
0000
0000
0100
0000
0001
0010
0000
0100
0000
0000
0010
0000
,  // measure 31
0110
1100
1010
1001
,  // measure 32
0001
0000
0100
0000
0010
0000
1000
0000
0100
0000
0010
0000
0001
1000
0001
1000
,  // measure 33
0001
0000
0000
0000
0000
0000
0000
0000
1001
0000
0001
0000
0100
0001
0000
0010
,  // measure 34
0000
0100
1000
0000
0010
0000
1000
0000
0001
0100
0000
0101
0000
0000
0000
0000
,  // measure 35
1000
0010
0000
1010
0000
0000
0000
0000
0010
0000
0100
0000
0001
0010
0000
0100
,  // measure 36
0000
0010
0001
0000
0100
0000
0010
0000
0110
0000
0000
0000
0101
0000
0000
0000
,  // measure 37
1001
0000
0000
0000
1010
0000
0000
0000
1001
0000
0001
0000
0100
0010
0000
0100
,  // measure 38
0000
0001
0100
0000
0010
0000
0100
0000
0001
1000
0000
1001
0000
0000
0000
0000
,  // measure 39
0100
0010
0000
0110
0000
0000
0000
0000
0101
0000
0100
0000
0001
0100
0000
0010
,  // measure 40
0000
1000
0100
0000
0010
0000
0001
0000
0011
0000
0000
0000
1001
0000
0000
0000
,  // measure 41
1010
0000
0000
0000
0110
0000
0010
0100
0010
0000
1000
0000
0100
0010
0000
0100
,  // measure 42
0000
0001
0100
0000
1000
0000
0010
0000
0100
0001
0000
0011
0000
0000
0000
0000
,  // measure 43
0001
1000
0000
1010
0000
0000
0000
0000
0110
0000
0100
0000
0001
0010
0000
0100
,  // measure 44
0000
1000
0100
0000
0010
0000
0001
0000
0101
0000
0000
0000
1001
0000
0000
0000
,  // measure 45
1010
0000
0000
0000
0110
0000
0000
0000
1001
0000
1000
0000
0010
0100
0000
0001
,  // measure 46
0000
0100
1000
0000
0100
0000
0010
0000
1000
0100
0000
0110
0000
0000
0000
0000
,  // measure 47
0010
0001
0000
0101
0000
0000
0000
0000
0001
0000
1000
0000
0010
0001
0000
0010
,  // measure 48
0000
1000
0100
0000
0010
0000
0001
0000
0101
0000
0000
0000
1010
0000
0000
0000
,  // measure 49
0110
0000
0000
0000
0011
0000
0001
1000
0001
0000
0100
0000
0010
0000
1000
0000
,  // measure 50
0100
0000
0010
0000
0001
0000
0000
0000
0011
0000
0000
0001
0000
0000
0100
0000
,  // measure 51
0110
0000
0000
1010
0000
0000
0000
0000
1100
0000
0100
0000
0010
0000
0100
0000
,  // measure 52
1000
0000
0001
0000
0100
0000
0000
0000
0101
0000
0000
1001
0000
0000
1010
0000
,  // measure 53
1010
0000
0000
0110
0000
0000
0000
0000
1010
0000
1000
0000
0010
0000
0001
0000
,  // measure 54
0010
0000
1000
0000
0100
0000
0000
0000
0110
0000
0000
1100
0000
0000
1001
0000
,  // measure 55
1001
0000
0000
0110
0000
0000
0000
0000
0011
0000
0001
0000
0010
0000
0100
0000
,  // measure 56
1000
0001
0100
0000
1001
0000
0101
0000
,  // measure 57
1010
0110
0000
0000
;

//---------------dance-single - ----------------
#NOTES:
     dance-single:
     :
     Medium:
     6:
     0.419,0.458,0.488,0.000,0.148: // measure 1
0000
0000
0000
0000
,  // measure 2
0000
0000
0000
0000
,  // measure 3
0000
0000
0000
0000
,  // measure 4
0000
0000
0000
0000
,  // measure 5
1001
0001
0100
0010
,  // measure 6
0100
0000
0000
0010
0000
0000
1000
0000
0001
0000
0000
1000
0000
0000
0000
0000
,  // measure 7
1001
1000
0010
0100
,  // measure 8
0010
0000
0000
0100
0000
0000
0001
0000
1000
0000
0000
0001
0000
0000
0000
0000
,  // measure 9
0110
0000
0100
0000
0001
0000
0010
0100
,  // measure 10
0000
0010
0001
0000
0100
0000
0010
0000
,  // measure 11
0100
0000
0001
0000
1000
0000
0100
0010
,  // measure 12
0000
0100
1000
0000
0010
0100
0010
0000
,  // measure 13
0101
0000
0001
0000
1000
0000
0100
0010
,  // measure 14
0000
0100
1000
0000
0001
0000
0100
0000
,  // measure 15
0110
0010
0110
0100
,  // measure 16
0110
0000
0000
0000
1001
0000
0000
0000
0001
0000
0000
1000
0000
0000
0010
0000
,  // measure 17
0100
0000
0010
0000
0100
0000
0001
0010
,  // measure 18
0000
0100
0010
0000
0001
0100
0010
0000
,  // measure 19
0100
0000
0001
0000
1000
0000
0100
0010
,  // measure 20
0000
0100
0010
0000
0001
1000
0010
1000
,  // measure 21
0010
0000
0100
0000
0001
0000
0010
0100
,  // measure 22
0000
0010
0001
0000
0100
0010
0100
0000
,  // measure 23
1001
0001
1001
1000
,  // measure 24
1001
0000
0000
0000
0110
0000
0000
0000
0100
0000
0000
0010
0000
0000
1000
0000
,  // measure 25
1001
0000
0000
0000
0001
1000
0010
0000
,  // measure 26
1010
0000
0000
0000
0010
0100
0001
0000
,  // measure 27
0101
0000
0001
0000
0100
0010
1000
0000
,  // measure 28
1100
0000
1000
0000
0001
0100
0010
0000
,  // measure 29
0100
0000
0000
0010
0000
1000
0000
0000
0001
0000
0000
0000
1000
0000
0000
0000
,  // measure 30
0001
0000
0000
0010
0000
0000
0100
0000
0010
0000
0000
0000
0001
0000
0000
0000
,  // measure 31
0101
1010
0101
1010
,  // measure 32
1000
0100
0010
0001
1000
0001
1000
0001
,  // measure 33
1000
0000
0000
0000
0000
0000
0000
0000
0001
0000
0100
0000
0001
0000
0000
1000
,  // measure 34
0000
0000
0010
0000
1000
0000
0000
0000
0010
0000
0000
0110
0000
0000
0000
0000
,  // measure 35
0001
0000
0000
0011
0000
0000
0000
0000
0010
0000
0100
0000
1000
0000
0000
0010
,  // measure 36
0000
0100
0001
0000
1001
0000
0110
0000
,  // measure 37
1001
0000
0000
0000
0110
0000
0000
0000
0100
0000
0010
0000
0100
0000
0000
0001
,  // measure 38
0000
0000
1000
0000
0001
0000
0000
0000
0010
0000
0000
0011
0000
0000
0000
0000
,  // measure 39
0001
0000
0000
1001
0000
0000
0000
0000
1000
0000
0010
0000
1000
0000
0000
0010
,  // measure 40
0000
0100
0001
0000
0101
0000
1010
0000
,  // measure 41
0101
0000
0000
0000
1010
0000
0000
0000
1000
0000
0001
0000
0100
0000
0000
0001
,  // measure 42
0000
0000
0010
0000
0100
0000
0000
0000
0010
0000
0000
0011
0000
0000
0000
0000
,  // measure 43
0001
0000
0000
1001
0000
0000
0000
0000
1000
0000
0010
0000
0100
0000
0000
0010
,  // measure 44
0000
0100
0010
0000
1010
0000
0101
0000
,  // measure 45
1010
0000
0000
0000
0101
0000
0000
0000
0100
0000
0001
0000
0010
0000
0000
0100
,  // measure 46
0000
0000
0010
0000
0001
0000
0000
0000
1000
0000
0000
1010
0000
0000
0000
0000
,  // measure 47
0010
0000
0000
0110
0000
0000
0000
0000
0100
0000
0001
0000
0010
0000
0000
0100
,  // measure 48
0000
0010
0001
0000
0011
0000
1100
0000
,  // measure 49
0011
1100
1001
0001
,  // measure 50
0100
0000
0010
0000
1000
0000
0000
0000
0001
0000
0000
0010
0000
0000
0100
0000
,  // measure 51
0010
0000
0000
0001
0000
0000
0000
0000
1001
0000
0000
0000
1000
0000
0000
0000
,  // measure 52
0010
0000
0100
0000
0010
0000
0000
0000
0100
0000
0000
0001
0000
0000
0010
0000
,  // measure 53
0100
0000
0000
0010
0000
0000
0000
0000
0011
0000
0000
0000
0001
0000
0000
0000
,  // measure 54
0100
0000
0010
0000
1000
0000
0000
0000
0010
0000
0000
1000
0000
0000
0001
0000
,  // measure 55
0100
0000
0000
0010
0000
0000
0000
0000
0110
0000
0000
0000
0010
0000
0000
0000
,  // measure 56
1000
0001
0100
0000
0110
0000
0010
0000
,  // measure 57
1010
1001
0000
0000
;

//---------------dance-single - ----------------
#NOTES:
     dance-single:
     :
     Easy:
     3:
     0.323,0.350,0.613,0.038,0.000: // measure 1
0000
0000
0000
0000
,  // measure 2
0000
0000
0000
0000
,  // measure 3
0000
0000
0000
0000
,  // measure 4
0000
0000
0000
0000
,  // measure 5
1000
0010
1000
0001
,  // measure 6
1001
0000
0110
0000
,  // measure 7
0100
0001
0010
0100
,  // measure 8
0110
0000
1001
0000
,  // measure 9
1001
0001
0100
0010
,  // measure 10
0000
0100
0000
0000
0001
0000
0000
0000
,  // measure 11
1000
0100
0010
0100
,  // measure 12
0000
0010
0000
0000
0001
0000
0000
0000
,  // measure 13
1010
0010
0100
0010
,  // measure 14
0000
0100
0000
0000
0001
0000
0000
0000
,  // measure 15
0101
0000
1010
0000
,  // measure 16
0110
0110
0110
0000
,  // measure 17
1001
0001
1000
0010
,  // measure 18
0000
0100
0000
0000
0001
0000
0010
0000
,  // measure 19
0100
0010
0001
0100
,  // measure 20
0000
0010
0000
0000
0100
0000
0001
0000
,  // measure 21
1000
0100
0010
0100
,  // measure 22
0000
0010
0000
0000
0001
0000
0010
0000
,  // measure 23
0110
0000
1001
0000
,  // measure 24
0110
0110
0110
0000
,  // measure 25
1001
0000
0101
0000
,  // measure 26
1010
0000
0110
0000
,  // measure 27
0001
0010
0100
0010
,  // measure 28
0001
1000
0010
0100
,  // measure 29
0101
0000
1010
0000
,  // measure 30
1001
0000
0011
0000
,  // measure 31
0001
0010
0100
1000
,  // measure 32
0002
0023
0230
2300
,  // measure 33
3001
0000
1000
0001
,  // measure 34
0100
0010
0101
0000
,  // measure 35
1010
0000
1000
0001
,  // measure 36
0100
0001
0011
0011
,  // measure 37
1100
1100
1000
0010
,  // measure 38
0100
0001
0011
0000
,  // measure 39
1100
0000
1000
0010
,  // measure 40
0100
0001
0101
0101
,  // measure 41
1010
1010
1001
0001
,  // measure 42
0100
0010
0110
0000
,  // measure 43
0101
0000
0001
1000
,  // measure 44
0010
1000
1010
0101
,  // measure 45
1010
0101
1001
0001
,  // measure 46
0100
0010
1010
0000
,  // measure 47
1001
0000
0001
0010
,  // measure 48
0100
0010
1001
0110
,  // measure 49
1001
0110
1001
0001
,  // measure 50
1000
0010
1010
0000
,  // measure 51
0101
0000
0110
0010
,  // measure 52
0100
0001
1100
0000
,  // measure 53
0011
0000
1001
1000
,  // measure 54
0001
0100
0110
0000
,  // measure 55
1001
0000
0110
0100
,  // measure 56
0001
1000
1100
1000
,  // measure 57
1001
0110
0000
0000
;
