#TITLE:redraw lots;
#SUBTITLE:;
#ARTIST:マロンちゃん;
#TITLETRANSLIT:;
#SUBTITLETRANSLIT:;
#ARTISTTRANSLIT:MARON-CHAN;
#CREDIT:DMAxel;
#BANNER:redraw lots.png;
#BACKGROUND:redraw lots-bg.png;
#LYRICSPATH:;
#CDTITLE:pop'n music.png;
#MUSIC:redraw lots.mp3;
#OFFSET:-9.200;
#SAMPLESTART:41.153;
#SAMPLELENGTH:12.000;
#SELECTABLE:YES;
#BPMS:0.000=180.000,129.000=178.000,130.000=175.000,132.000=171.000,133.000=166.000,134.000=160.000,135.000=150.000,136.000=140.000,137.000=130.000,138.000=120.000,139.000=110.000,140.000=100.000,141.000=90.000,142.000=80.000,143.000=70.000,144.000=180.000,256.000=178.000,256.979=174.000,257.979=169.000,258.979=163.000,259.979=156.000,260.979=148.000,261.979=139.000,262.979=129.000,263.979=118.000,264.979=106.000,265.979=93.000,266.979=89.000,267.979=90.000;
#STOPS:;
#BGCHANGES:;

//---------------dance-single - ----------------
#NOTES:
     dance-single:
     :
     Hard:
     9:
     0.682,0.665,0.473,0.312,0.095: // measure 1
0001
0100
0001
0100
0010
1000
0010
1000
,  // measure 2
0001
1001
1000
1001
,  // measure 3
1000
0100
1000
0100
0010
0001
0010
0001
,  // measure 4
1000
1001
0001
1001
,  // measure 5
0001
0100
2000
0000
3100
0020
0000
1030
,  // measure 6
0001
0101
0100
1100
,  // measure 7
1000
0100
0002
0000
0103
0020
0000
0031
,  // measure 8
1000
1100
0100
0101
,  // measure 9
0001
0010
2000
0000
3010
0200
0000
1300
,  // measure 10
0001
0101
0100
1100
,  // measure 11
1000
0010
0002
0000
0013
0200
0000
0301
,  // measure 12
1000
0000
1100
0000
0010
0001
1000
1000
,  // measure 13
0001
0010
1000
0010
0001
1000
0010
0100
,  // measure 14
0101
1100
0011
1100
,  // measure 15
1000
0010
0001
0010
1000
0001
0100
0010
,  // measure 16
1010
0011
1100
0011
,  // measure 17
0100
1000
0020
0000
1030
0002
0000
0013
,  // measure 18
0100
1100
1001
0001
,  // measure 19
0010
0002
0000
0203
0000
1300
0100
0001
,  // measure 20
0010
0100
1000
0000
0010
1000
0100
0000
,  // measure 21
0010
0001
0200
0000
0301
2000
0000
3100
,  // measure 22
0010
0011
1001
1000
,  // measure 23
0100
2000
0000
3200
0000
0301
0100
1000
,  // measure 24
0001
0000
0100
0001
0100
0000
0001
0000
1000
0000
0001
0000
0001
0000
0001
0000
,  // measure 25
1000
0100
0010
0001
1000
0100
0001
0100
,  // measure 26
1100
0101
1010
1001
,  // measure 27
0001
0010
0100
1000
0001
0100
1000
0100
,  // measure 28
0001
0100
0001
0100
0001
0100
0001
0100
0010
0000
1000
0000
0010
0000
1000
0000
,  // measure 29
0100
0000
0100
0010
0100
0000
0100
1000
,  // measure 30
0100
0000
1000
0100
0010
0001
0100
0001
,  // measure 31
0010
0000
0010
0100
0010
0001
0100
0010
,  // measure 32
1000
1000
1001
0000
0010
0010
0110
0000
,  // measure 33
0001
0010
0100
1000
0010
0100
0001
0000
,  // measure 34
0001
0010
0100
0010
0001
1000
0100
0000
,  // measure 35
0010
0001
0100
1000
0100
0001
0010
0100
,  // measure 36
1000
0010
0100
0100
0001
0001
0010
0100
,  // measure 37
1000
0000
1000
0000
0000
1000
1000
0000
,  // measure 38
0001
0100
0001
1000
0100
0001
0100
0010
,  // measure 39
0001
0000
1000
0000
0010
0000
0100
0000
0010
1000
0010
1000
0010
0000
1000
0000
,  // measure 40
0001
0010
0100
1000
0100
0001
0100
0010
,  // measure 41
0011
1100
1001
1000
,  // measure 42
0001
0000
0000
0000
0001
0000
0000
0000
0001
0000
0100
0010
0100
0010
0100
0010
,  // measure 43
0100
0001
0020
0000
1030
0010
0002
0000
,  // measure 44
1003
0000
0000
1000
0001
0000
0010
0000
0200
0000
0000
0000
1300
0000
0010
0000
,  // measure 45
0200
0000
0000
0000
0000
0000
0301
1000
0001
0000
0100
0000
0010
0000
0000
0000
,  // measure 46
0100
0000
0001
0000
0010
0000
0100
1000
0100
0000
1000
0000
0001
0000
0100
0000
,  // measure 47
0020
0000
0000
1000
1030
0000
0001
0010
,  // measure 48
0100
1000
0001
0100
1000
0100
0001
1000
,  // measure 49
0020
1000
0001
1030
,  // measure 50
0101
1010
0101
1010
,  // measure 51
0010
1000
0200
0000
0301
0100
2000
0000
,  // measure 52
3001
0000
0000
0001
1000
0000
0010
0000
2000
0000
0000
0000
3001
0000
0010
0000
,  // measure 53
0200
0000
0000
0000
0000
0000
1300
0001
1000
0000
0010
0000
0100
0000
0000
0000
,  // measure 54
0001
0000
1000
0000
0100
0000
0010
0001
0010
0000
0001
0000
1000
0000
0001
0000
,  // measure 55
0200
0000
0000
0001
0301
0000
1000
0100
,  // measure 56
0010
0000
0001
0000
1000
0000
0100
0000
0001
0000
0100
1000
0100
0000
1000
0000
,  // measure 57
0020
1000
0001
1030
,  // measure 58
0011
1100
0011
1100
,  // measure 59
0001
0000
1000
0000
0001
0000
0100
0000
0010
0000
0100
0000
0001
0010
0100
0000
,  // measure 60
1000
0010
1000
1001
0000
0102
0000
0000
,  // measure 61
1003
0000
0001
0000
1000
0000
0010
0000
0100
0000
0010
0000
1000
0100
0010
0000
,  // measure 62
0001
0100
0001
1001
0000
2100
0000
0000
,  // measure 63
3001
0000
0100
0000
0001
0000
1000
0000
0100
0000
1000
0000
0001
0010
0100
0000
,  // measure 64
1000
0001
0100
0101
0000
1001
0000
0000
,  // measure 65
2001
0100
0001
3100
,  // measure 66
1002
0100
1000
0103
,  // measure 67
0210
0001
1000
0301
,  // measure 68
1100
0000
0000
0000
;

//---------------dance-single - ----------------
#NOTES:
     dance-single:
     :
     Medium:
     7:
     0.504,0.475,0.265,0.246,0.000:
1000
0100
0010
0000
0001
0100
0010
0000
,
1000
0100
0001
0100
,
1000
0100
0010
0000
0001
0100
0010
0000
,
1000
0100
0001
0100
,
1000
0010
0100
0000
0010
0100
0000
0001
,
0020
0130
0200
0310
,
0001
0100
0010
0000
0100
0010
0000
1000
,
0200
0310
0020
0130
,
1000
0010
0100
0000
0010
0100
0000
0001
,
0020
0130
0200
0310
,
0001
0100
0010
0000
0100
0010
0000
1000
,
0200
0000
0310
0000
0001
1000
0001
1000
,
0001
0101
0100
0110
,
2000
0001
0001
3001
,
1000
1010
0010
0110
,
0002
1000
1000
1003
,
0010
0100
0001
0000
0100
0001
0000
1000
,
0200
0010
0310
1000
,
0010
0100
0000
0001
0000
0100
0001
0000
,
0100
0010
0100
0000
0001
1000
0001
0000
,
0100
0010
1000
0000
0010
1000
0000
0001
,
0020
0100
0130
0001
,
0100
0010
0000
1000
0000
0010
1000
0000
,
0010
0100
0010
1000
0001
1000
0001
1000
,
0001
0101
0101
1010
,
0120
0100
0100
0130
,
1010
1010
0101
0101
,
0210
0010
0010
0310
,
2000
0000
0100
0000
0001
0000
3100
0010
,
0002
0000
0100
0000
1000
0000
0103
0010
,
2000
0000
0100
0000
0001
0000
3100
0010
,
0001
1000
0001
0000
0100
0010
0100
0000
,
0001
0100
1000
0100
,
0001
0010
1000
0010
,
0001
0100
1000
0100
,
0010
0100
0010
0001
,
2000
0000
0000
3000
,
0001
0010
0100
0000
0010
0100
1000
0000
,
0001
1000
0001
0000
0100
0010
0100
0010
,
1000
0100
0010
0000
0100
0010
0001
0000
,
0100
0100
0110
0000
,
1000
1000
2000
0000
,
3001
0010
0100
0000
0010
0100
1000
0000
,
0001
0000
0001
0100
0010
0000
0100
0010
,
2000
0000
0000
0001
3002
0000
0000
0000
,
1003
0000
0010
0000
0100
0010
0100
0000
,
0002
0000
0000
1000
1003
0000
0000
0001
,
1000
0010
0100
0000
0001
0100
0010
1000
,
0002
1000
1000
1003
,
1001
1001
0110
0110
,
1000
0100
0010
0000
0100
0010
0001
0000
,
1000
0000
1000
0010
0100
0000
0010
0100
,
0002
0000
0000
1000
2003
0000
0000
0000
,
3001
0000
0100
0000
0010
0100
0010
0000
,
2000
0000
0000
0001
3001
0000
0000
1000
,
0010
0100
0001
0000
0010
0100
1000
0001
,
2000
0001
0001
3001
,
1001
1001
0110
0110
,
1000
0010
0100
0000
0010
1000
0100
0000
,
0100
0000
1001
0000
0000
0110
0000
0000
,
0001
0100
0010
0000
0100
0001
0010
0000
,
0010
0000
1001
0000
0000
0110
0000
0000
,
1000
0100
0010
0000
0100
1000
0010
0000
,
0010
0000
1001
0000
0000
0110
0000
0000
,
1000
0100
1000
0100
,
0010
0001
0010
0100
,
1000
0100
0001
0100
,
1000
0000
0000
0000
;

//---------------dance-single - ----------------
#NOTES:
     dance-single:
     :
     Easy:
     3:
     0.259,0.285,0.104,0.236,0.000:
1000
0000
1000
0000
,
2000
0000
0000
0000
,
3001
0000
0001
0000
,
0002
0000
0000
0000
,
0203
0000
0000
0000
,
0310
0100
0010
0000
,
2000
0000
0000
0000
,
3001
1000
0001
0000
,
0020
0000
0000
0000
,
0031
1000
0001
0000
,
0200
0000
0000
0000
,
0310
1000
0010
0000
,
1000
0000
0100
0000
,
1000
0001
1000
0001
,
1000
0000
0010
0000
,
0100
0010
0100
0010
,
0100
0000
0001
0000
,
0010
0100
1000
0000
,
0010
0000
1000
0000
,
0100
0010
0001
0000
,
1000
0001
1000
0000
,
0010
0100
0010
0000
,
0100
0001
0100
0000
,
0010
1000
0010
0000
,
1000
0001
1000
0001
,
1000
0000
1000
0000
,
0001
1000
0001
1000
,
0001
0000
0001
0000
,
0110
0000
0100
0000
,
0010
0000
0100
0000
,
0110
0000
1000
0000
,
1001
0000
0110
0000
,
0002
0000
2003
0000
,
3002
0000
2003
0000
,
3200
0000
0320
0000
,
0032
0000
0000
0000
,
2003
0000
0000
0000
,
3001
0000
0100
0000
,
0010
1000
0100
0000
,
1000
0000
0100
0000
,
0010
0001
0010
0000
,
0002
0000
0000
0000
,
1003
0100
1000
0100
,
0010
0000
0001
0000
,
0200
0000
0310
0000
,
1001
0000
0001
0010
,
0002
0000
1003
0000
,
0001
0010
0001
0010
,
0100
0000
1000
0000
,
0010
0100
0010
0100
,
0020
0000
2030
0000
,
3001
0100
0001
1000
,
0200
0000
1300
0000
,
0010
0000
0100
0001
,
0020
0000
0031
0000
,
1000
0100
0010
0001
,
2000
0000
0000
0000
,
3001
1000
0001
1000
,
0010
0000
0110
0000
,
0000
0000
1000
0000
0000
1001
0000
0000
,
0100
0000
0110
0000
,
0000
0000
0001
0000
0000
1001
0000
0000
,
0010
0000
0110
0000
,
0000
0000
1000
0000
0000
1001
0000
0000
,
0002
0000
0000
0000
,
2003
0000
0000
0000
,
3020
0000
0000
0030
,
0010
0000
0000
0000
;

//---------------dance-single - ----------------
#NOTES:
     dance-single:
     :
     Beginner:
     2:
     0.128,0.182,0.142,0.000,0.000:
1000
0000
1000
0000
,
1000
0000
0000
0000
,
1000
0000
1000
0000
,
1000
0000
0000
0000
,
1001
0000
0000
0000
,
0001
0000
0001
0000
,
0001
0000
0000
0000
,
0001
0000
0001
0000
,
0001
0000
0000
0000
,
0100
0000
0100
0000
,
0100
0000
0000
0000
,
0010
0000
0010
0000
,
0010
0000
0000
0000
,
0110
0000
0000
0000
,
1000
0000
0000
0000
,
1001
0000
0000
0000
,
0001
0000
1000
0000
,
0001
0000
0000
0000
,
1000
0000
0001
0000
,
1000
0000
0000
0000
,
0010
0000
0100
0000
,
0010
0000
0000
0000
,
0100
0000
0010
0000
,
0100
0000
0000
0000
,
0001
0000
0001
0000
,
1001
0000
0000
0000
,
1000
0000
1000
0000
,
1001
0000
0000
0000
,
1001
0000
0000
0000
,
0000
0000
0000
0000
,
0110
0000
0000
0000
,
0100
0000
0100
0000
,
0110
0000
0000
0000
,
0000
0000
0000
0000
,
0000
0000
0000
0000
,
0000
0000
0000
0000
,
0001
0000
0000
0000
,
1001
0000
0000
0000
,
1000
0000
0000
0000
,
0001
0000
0000
0000
,
1000
0000
0000
0000
,
1000
0000
0000
0000
,
1001
0000
0001
0000
,
0001
0000
0000
0000
,
1000
0000
0001
0000
,
1000
0000
0000
0000
,
0010
0000
0100
0000
,
0010
0000
0000
0000
,
0100
0000
0000
0000
,
0110
0000
0000
0000
,
0100
0000
0010
0000
,
0100
0000
0000
0000
,
0001
0000
1000
0000
,
0001
0000
0000
0000
,
0010
0000
0100
0000
,
0010
0000
0000
0000
,
0001
0000
0000
0000
,
1000
0000
0000
0000
,
1001
0000
0000
0000
,
0000
1000
0000
0000
,
1001
0000
0000
0000
,
0000
0001
0000
0000
,
0110
0000
0000
0000
,
0000
0100
0000
0000
,
0110
0000
0000
0000
;
