#TITLE:What The Hell;
#SUBTITLE:61 Degrees Mix;
#ARTIST:Avril Lavigne;
#TITLETRANSLIT:;
#SUBTITLETRANSLIT:;
#ARTISTTRANSLIT:;
#GENRE:;
#CREDIT:;
#MENUCOLOR:;
#BANNER:;
#BACKGROUND:;
#LYRICSPATH:;
#CDTITLE:;
#MUSIC:What.mp3;
#OFFSET:0.000;
#SAMPLESTART:0.000;
#SAMPLELENGTH:12.000;
#SELECTABLE:YES;
#LISTSORT:;
#BPMS:0.000=162.000;
#STOPS:;
#TICKCOUNT:0.000=2;
#BGCHANGES:;
#KEYSOUNDS:;
#ATTACKS:;

//---------------dance-single - ----------------
#NOTES:
     dance-single:
     :
     Easy:
     3:
     0.183,0.251,0.093,0.093,0.000: // measure 1
0000
0000
0000
0000
,  // measure 2
0000
0000
0000
0000
,  // measure 3
0000
0000
0000
0000
,  // measure 4
0000
0000
0000
0000
,  // measure 5
0000
0000
0000
0000
,  // measure 6
0000
0000
0000
0000
,  // measure 7
0000
0000
0000
0000
,  // measure 8
0000
0000
0000
0000
,  // measure 9
1000
0000
0001
0000
,  // measure 10
1000
0001
1000
0100
,  // measure 11
1000
0000
0000
0000
,  // measure 12
0000
0000
0000
0000
,  // measure 13
1000
0000
0001
0000
,  // measure 14
1000
0001
1000
0100
,  // measure 15
1000
0000
0000
0000
,  // measure 16
0000
0000
0000
0000
,  // measure 17
1000
0000
0100
0000
,  // measure 18
0010
0000
0001
0000
,  // measure 19
2000
0000
3001
0000
,  // measure 20
0000
0000
0000
0000
,  // measure 21
0001
0000
0100
0000
,  // measure 22
0010
0000
1000
0000
,  // measure 23
0002
0000
1003
0000
,  // measure 24
0000
0000
0000
0000
,  // measure 25
1001
0000
0000
0000
,  // measure 26
0000
0000
0000
0000
,  // measure 27
1000
0000
0001
0000
,  // measure 28
1000
0000
0100
0000
,  // measure 29
0010
0100
0010
0100
,  // measure 30
0020
0000
0130
0000
,  // measure 31
1000
0000
0001
0000
,  // measure 32
2000
0000
3001
0000
,  // measure 33
0000
0000
0000
0000
,  // measure 34
1000
0100
1000
0100
,  // measure 35
1000
0000
0001
0000
,  // measure 36
1000
0100
1000
0001
,  // measure 37
2000
0000
3001
0000
,  // measure 38
0001
0100
0001
0100
,  // measure 39
0001
0000
1000
0000
,  // measure 40
0001
0100
0001
1000
,  // measure 41
0002
0000
1003
0000
,  // measure 42
0000
1000
0000
0000
0000
0000
0000
0000
,  // measure 43
0000
0001
0000
0000
0000
0000
0000
0000
,  // measure 44
0000
1000
0000
0000
0000
0000
0000
0000
,  // measure 45
0001
0000
0000
0000
,  // measure 46
0100
0010
0100
0010
,  // measure 47
0200
0000
0310
0000
,  // measure 48
0100
0010
0100
0010
,  // measure 49
0100
0000
0010
0000
,  // measure 50
1001
0000
0000
0000
,  // measure 51
1000
0100
1000
0010
,  // measure 52
0100
0001
1000
0000
,  // measure 53
0000
0002
0000
0000
,  // measure 54
0003
2000
0000
0000
,  // measure 55
3001
0010
0100
1000
,  // measure 56
0001
0000
1000
0000
,  // measure 57
0000
0002
0000
0000
,  // measure 58
0003
2000
0000
0000
,  // measure 59
3100
0000
0010
0000
,  // measure 60
0001
0100
0001
0000
,  // measure 61
1000
0000
0010
0000
,  // measure 62
1000
0100
1000
0000
,  // measure 63
0010
0000
0100
0000
,  // measure 64
0001
0010
0001
0000
,  // measure 65
1000
0000
0100
0000
,  // measure 66
1000
0010
1000
0001
,  // measure 67
1001
0000
1001
0000
,  // measure 68
0000
0000
0000
0000
,  // measure 69
0110
0000
0110
0000
,  // measure 70
0000
0000
0000
0000
,  // measure 71
1100
0000
1100
0000
,  // measure 72
0000
0000
0000
0000
,  // measure 73
0101
0000
0101
0000
,  // measure 74
0000
0000
0000
0000
,  // measure 75
0110
0000
0000
0000
;

//---------------dance-single - ----------------
#NOTES:
     dance-single:
     :
     Hard:
     7:
     0.416,0.502,0.195,0.119,0.000: // measure 1
0000
0000
0000
0000
,  // measure 2
0000
0000
0000
0000
,  // measure 3
0000
0000
0000
0000
,  // measure 4
0000
0000
0000
0000
,  // measure 5
0000
0000
0000
0000
,  // measure 6
0000
0000
0000
0000
,  // measure 7
0000
0000
0000
0000
,  // measure 8
0000
0000
0000
0000
,  // measure 9
0100
0000
1001
0000
,  // measure 10
0001
0000
0100
0000
0010
0000
1000
0001
,  // measure 11
0100
0001
0010
0100
,  // measure 12
1100
0000
0101
0000
1001
0000
0001
1000
,  // measure 13
0100
1000
0010
0100
,  // measure 14
0001
0010
0100
0000
1000
0010
0100
0000
,  // measure 15
0001
0100
1000
0100
,  // measure 16
0001
0000
1000
0000
0100
0010
0001
0000
,  // measure 17
0100
0000
0010
0000
1000
0001
1000
0000
,  // measure 18
0100
0000
0010
0000
0001
1000
0001
0000
,  // measure 19
0100
0010
0100
0010
,  // measure 20
1000
0100
1000
0010
0100
0001
0010
0001
,  // measure 21
0100
0000
0001
0000
1000
0100
1000
0000
,  // measure 22
0010
0000
0100
0000
0001
0010
0001
0000
,  // measure 23
1000
0100
0001
0100
,  // measure 24
1000
0100
1000
0010
0100
0001
0010
0001
,  // measure 25
2000
0000
3200
0000
,  // measure 26
0320
0000
0032
0000
,  // measure 27
0103
0010
1000
0010
0100
0001
0010
0100
,  // measure 28
2000
0000
3000
0001
0100
0000
0000
0000
,  // measure 29
0110
1000
1100
0001
,  // measure 30
0101
1000
0010
1000
,  // measure 31
0001
0010
0001
0010
0100
1000
0100
0010
,  // measure 32
0002
0000
0003
0100
0010
0000
0000
0000
,  // measure 33
1001
0000
0000
0000
,  // measure 34
1000
0100
1000
0010
0100
0000
0001
0010
,  // measure 35
0100
1000
0100
0010
0002
0000
0000
0000
,  // measure 36
0103
0010
1000
1000
0001
0100
0010
1000
,  // measure 37
0100
0000
0000
0010
0010
0000
0000
0000
,  // measure 38
0001
0100
0001
0010
0100
0000
1000
0010
,  // measure 39
0100
0001
0100
0010
2000
0000
0000
0000
,  // measure 40
3100
0010
0001
0001
1000
0100
0010
0001
,  // measure 41
0100
0000
0000
0010
0010
0000
0000
0000
,  // measure 42
0000
0100
0001
0100
0000
0000
1010
0000
,  // measure 43
0000
0100
1000
0100
0000
0000
0101
0000
,  // measure 44
0000
0010
1000
0010
0000
0000
1000
0000
,  // measure 45
0100
0010
0000
1001
0000
1001
0000
0000
,  // measure 46
1100
0000
0101
0000
0110
0000
1000
0010
,  // measure 47
0100
0001
0010
0100
1000
0000
0000
0000
,  // measure 48
0001
1000
0100
0010
0100
0010
0001
0100
,  // measure 49
0010
0000
0000
0100
0100
0000
0000
0000
,  // measure 50
1001
0000
0000
0000
,  // measure 51
1000
0100
0001
0000
0100
0000
1000
0100
,  // measure 52
0001
0000
0000
0100
0001
0000
0000
0000
,  // measure 53
0000
0110
0000
0000
,  // measure 54
0000
1001
0000
0000
,  // measure 55
0001
0100
1000
0000
0100
0000
0001
0100
,  // measure 56
1000
0000
0000
0100
1000
0000
0000
0000
,  // measure 57
0000
0001
0000
0000
,  // measure 58
0000
1000
0000
0000
,  // measure 59
0002
0000
0000
0003
2000
0000
0000
3000
,  // measure 60
0001
0100
1000
0100
0001
0010
0001
0000
,  // measure 61
2000
0000
0000
3000
0002
0000
0000
0003
,  // measure 62
1000
0100
0001
0100
1000
0010
1000
0000
,  // measure 63
0002
0000
0000
0003
2000
0000
0000
3000
,  // measure 64
0001
0100
0010
1000
0100
0010
0001
0000
,  // measure 65
1100
0000
0101
0000
,  // measure 66
1000
0001
1000
0001
0100
0000
0001
0000
,  // measure 67
1000
0100
1000
0010
0100
0001
0010
0000
,  // measure 68
0001
0100
0001
0010
0100
1000
0010
0000
,  // measure 69
1000
0010
0100
0001
0010
0100
1000
0000
,  // measure 70
0001
0100
0010
1000
0100
0010
0001
0000
,  // measure 71
1000
0100
1000
0001
0010
0001
1000
0000
,  // measure 72
0001
0100
0001
1000
0010
1000
0001
0000
,  // measure 73
0110
0000
1001
0000
,  // measure 74
0100
0010
1000
0001
0010
0000
0100
0000
,  // measure 75
1001
0000
0000
0000
;

//---------------dance-single - ----------------
#NOTES:
     dance-single:
     :
     Medium:
     5:
     0.288,0.377,0.093,0.102,0.000: // measure 1
0000
0000
0000
0000
,  // measure 2
0000
0000
0000
0000
,  // measure 3
0000
0000
0000
0000
,  // measure 4
0000
0000
0000
0000
,  // measure 5
0000
0000
0000
0000
,  // measure 6
0000
0000
0000
0000
,  // measure 7
0000
0000
0000
0000
,  // measure 8
0000
0000
0000
0000
,  // measure 9
1000
0000
1001
0000
,  // measure 10
0001
0100
0010
0100
,  // measure 11
0001
0000
0010
0000
,  // measure 12
0001
0000
1000
0000
0001
1000
0001
0000
,  // measure 13
0100
0010
1000
0000
,  // measure 14
0100
0010
0001
1000
,  // measure 15
0001
0000
0100
0000
,  // measure 16
0010
0000
1000
0001
,  // measure 17
0010
0100
1000
0100
,  // measure 18
1000
0010
0100
0001
,  // measure 19
0100
0010
1000
0010
,  // measure 20
1000
0000
1000
0000
0001
1000
0001
0000
,  // measure 21
1000
0000
0010
1000
,  // measure 22
0010
0000
0100
0001
,  // measure 23
0100
0000
0010
0000
,  // measure 24
1000
0100
0001
0100
,  // measure 25
2000
0000
0000
0000
,  // measure 26
3020
0000
0000
0000
,  // measure 27
0130
0001
0010
0100
,  // measure 28
2000
0000
3000
0001
0100
0000
0000
0000
,  // measure 29
0110
0010
1000
0000
,  // measure 30
1001
0001
0010
0000
,  // measure 31
0100
0000
1000
0010
1000
0000
0001
0010
,  // measure 32
0002
0000
0003
0100
0010
0000
0000
0000
,  // measure 33
1001
0000
0000
0000
,  // measure 34
1000
0000
0010
0000
1000
0000
0100
0010
,  // measure 35
0001
0000
0000
0010
0200
0000
0000
0000
,  // measure 36
1300
0000
0100
0010
0100
0000
1000
0000
,  // measure 37
0010
0000
0000
0100
0001
0000
0000
0000
,  // measure 38
0100
0000
0010
0000
0100
0000
0010
1000
,  // measure 39
0001
0000
0000
0010
0200
0000
0000
0000
,  // measure 40
1300
0000
0010
0000
0100
0001
0100
0000
,  // measure 41
0010
0000
0000
1000
0100
0000
0000
0000
,  // measure 42
0000
1000
0000
0010
0000
0000
0100
0000
,  // measure 43
0000
0001
0000
0010
0000
0000
0100
0000
,  // measure 44
0000
1000
0000
0001
0000
0000
0100
0000
,  // measure 45
0010
0100
0000
0001
0000
1000
0000
0000
,  // measure 46
0100
0000
0010
0000
0100
0000
1000
0001
,  // measure 47
0010
0000
0000
0100
1000
0000
0000
0000
,  // measure 48
0100
0000
0010
0000
0001
0000
0100
0010
,  // measure 49
1000
0000
0000
0001
0100
0000
0000
0000
,  // measure 50
1001
0000
0000
0000
,  // measure 51
1000
0100
0001
0100
,  // measure 52
1000
0000
0000
0010
0100
0000
0000
0000
,  // measure 53
0000
1001
0000
0000
,  // measure 54
0000
0110
0000
0000
,  // measure 55
0001
0100
1000
0100
,  // measure 56
0001
0000
0000
0010
0100
0000
0000
0000
,  // measure 57
0000
1000
0000
0000
,  // measure 58
0000
0001
0000
0000
,  // measure 59
2000
0000
0000
3000
0020
0000
0000
0030
,  // measure 60
0100
0000
0001
0000
1000
0010
1000
0000
,  // measure 61
0002
0000
0000
0003
0020
0000
0000
0030
,  // measure 62
0100
0000
1000
0000
0001
0010
0001
0000
,  // measure 63
0200
0000
0000
0300
0020
0000
0000
0030
,  // measure 64
1000
0000
0100
0000
1000
0001
0010
0000
,  // measure 65
0100
0000
1010
0000
,  // measure 66
0001
1000
0001
0000
0100
0000
0010
0000
,  // measure 67
1000
0001
0010
0100
,  // measure 68
1000
0000
0000
0010
0000
0000
0010
0000
,  // measure 69
0100
0001
0010
0001
,  // measure 70
0100
0000
0010
0000
,  // measure 71
1000
0010
0100
0001
,  // measure 72
1000
0000
0000
0100
0000
0000
0100
0000
,  // measure 73
0110
0000
1001
0000
,  // measure 74
0001
1000
0001
0000
0010
0000
0100
0000
,  // measure 75
1001
0000
0000
0000
;
