#TITLE:Umbrella;
#SUBTITLE:(Lindbergh Palace Remix);
#ARTIST:Rihanna;
#TITLETRANSLIT:;
#SUBTITLETRANSLIT:;
#ARTISTTRANSLIT:;
#CREDIT:;
#BANNER:;
#BACKGROUND:;
#LYRICSPATH:;
#CDTITLE:;
#MUSIC:Umbrella (Lindbergh Palace Remix).ogg;
#OFFSET:-0.120;
#SAMPLESTART:31.200;
#SAMPLELENGTH:12.000;
#SELECTABLE:YES;
#BPMS:0.000=124.010;
#STOPS:;
#BGCHANGES:;

//---------------dance-single - ----------------
#NOTES:
     dance-single:
     :
     Beginner:
     1:
     0.109,0.151,0.064,0.000,0.000: // measure 1
0000
0000
0000
0000
,  // measure 2
0000
0000
0000
0000
,  // measure 3
0000
0000
0000
0000
,  // measure 4
0000
0000
0000
0000
,  // measure 5
1000
0000
1000
0000
,  // measure 6
0001
0000
0001
0000
,  // measure 7
0100
0000
0100
0000
,  // measure 8
0010
0000
0010
0000
,  // measure 9
1001
0000
0000
0000
,  // measure 10
0110
0000
0000
0000
,  // measure 11
1001
0000
0000
0000
,  // measure 12
0110
0000
0000
0000
,  // measure 13
1001
0000
0000
0000
,  // measure 14
0110
0000
0000
0000
,  // measure 15
1001
0000
0000
0000
,  // measure 16
0110
0000
0000
0000
,  // measure 17
1000
0000
1000
0000
,  // measure 18
0010
0000
0010
0000
,  // measure 19
0100
0000
0100
0000
,  // measure 20
0001
0000
0001
0000
,  // measure 21
1000
0000
1000
0000
,  // measure 22
0100
0000
0100
0000
,  // measure 23
0010
0000
0010
0000
,  // measure 24
0001
0000
0001
0000
,  // measure 25
1000
0000
0010
0000
,  // measure 26
1000
0000
0010
0000
,  // measure 27
0100
0000
0001
0000
,  // measure 28
0100
0000
0001
0000
,  // measure 29
1000
0000
0100
0000
,  // measure 30
1000
0000
0100
0000
,  // measure 31
0010
0000
0001
0000
,  // measure 32
0010
0000
0001
0000
,  // measure 33
1000
0000
0000
0000
,  // measure 34
0010
0000
0000
0000
,  // measure 35
0001
0000
0000
0000
,  // measure 36
0100
0000
0000
0000
,  // measure 37
0001
0000
0000
0000
,  // measure 38
0010
0000
0000
0000
,  // measure 39
1000
0000
0000
0000
,  // measure 40
0100
0000
0000
0000
,  // measure 41
0001
0000
0000
0000
,  // measure 42
0010
0000
0000
0000
,  // measure 43
1000
0000
0000
0000
,  // measure 44
0100
0000
0000
0000
,  // measure 45
0001
0000
0000
0000
,  // measure 46
0100
0000
0000
0000
,  // measure 47
1000
0000
0000
0000
,  // measure 48
0010
0000
0000
0000
,  // measure 49
0001
0000
0001
0000
,  // measure 50
1000
0000
1000
0000
,  // measure 51
0010
0000
0010
0000
,  // measure 52
0100
0000
0100
0000
,  // measure 53
0001
0000
0001
0000
,  // measure 54
1000
0000
1000
0000
,  // measure 55
0100
0000
0100
0000
,  // measure 56
0010
0000
0010
0000
,  // measure 57
0001
0000
0000
0000
,  // measure 58
0100
0000
0000
0000
,  // measure 59
0010
0000
0000
0000
,  // measure 60
1000
0000
0000
0000
,  // measure 61
0001
0000
0000
0000
,  // measure 62
0010
0000
0000
0000
,  // measure 63
0100
0000
0000
0000
,  // measure 64
1000
0000
0000
0000
;

//---------------dance-single - ----------------
#NOTES:
     dance-single:
     :
     Hard:
     8:
     0.478,0.484,0.231,0.064,0.096:
0000
0000
0000
0000
,
0000
0000
0000
0000
,
0000
0000
0000
0000
,
0000
0000
0000
0000
,
1000
0001
0010
0001
1000
0001
0010
0001
,
1000
0100
0010
0100
1000
0100
0010
0100
,
1000
0001
0100
0001
1000
0001
0100
0001
,
1000
0010
0100
0010
1000
0010
0100
0010
,
1000
0001
0010
0000
1000
0001
0100
0010
,
1000
0001
0100
0000
1000
0100
0010
0001
,
1000
0010
0001
0000
0010
1000
0010
0100
,
0001
0010
1000
0000
0010
0001
0010
0100
,
1000
0001
0010
0000
1000
0010
0100
0001
,
1000
0001
0100
0000
1000
0001
0100
0010
,
1000
0100
0001
0000
0100
1000
0100
0010
,
0001
0100
1000
0000
0100
0001
0001
0010
,
1001
0000
0100
1000
0010
0100
0001
1000
,
0100
1000
0000
0000
0010
0000
0100
0000
0001
0000
1000
0000
0010
0000
0100
0000
,
0001
0010
0000
0000
0100
0000
1000
0000
0010
0000
0100
0000
0001
0000
1000
0000
,
0110
0000
0000
0000
0001
0100
0001
0000
1000
0100
1000
0000
0001
0000
0010
0000
,
1000
0000
0010
0001
0100
0010
1000
0100
,
1000
0010
0000
0000
0100
0000
0001
0000
0010
0000
0100
0000
1000
0000
0010
0000
,
0100
0010
0000
0000
1000
0100
1000
0000
0010
0000
0100
0000
0001
0000
0010
0000
,
0001
0100
0000
0000
0010
1000
0010
0000
0100
0000
0010
0000
1000
0000
0100
0000
,
0010
0001
0000
0000
0001
0100
0000
0000
0100
1000
0000
0000
0101
0000
0000
0000
,
0011
0000
0000
0000
1010
0000
0000
0000
0010
0001
0010
0000
0001
0000
0100
0000
,
1000
0100
0000
0000
0100
0001
0000
0000
0001
0010
0000
0000
1010
0000
0000
0000
,
0011
0000
0000
0000
0101
0000
0000
0000
0100
1000
0100
0000
0001
0000
0010
0000
,
1000
0010
0000
0000
0010
0001
0000
0000
0001
0100
0000
0000
1100
0000
0000
0000
,
0101
0000
0000
0000
0011
0000
0000
0000
0010
1000
0010
0000
0001
0000
0100
0000
,
1000
0100
0000
0000
0100
0001
0000
0000
0001
0010
0000
0000
1010
0000
0000
0000
,
0011
0000
0101
0000
1001
0000
0010
0100
,
0001
0010
0001
0010
1000
0010
0001
0010
,
1000
0010
1000
0010
0001
0010
1000
0010
,
0001
0100
0010
0000
1000
0001
0101
0000
,
1000
0010
0100
0000
0001
1000
1100
0000
,
0001
0100
0001
0100
1000
0100
0001
0100
,
1000
0100
1000
0100
0001
0100
1000
0100
,
0001
0010
0100
0000
1000
0001
0011
0000
,
1000
0100
0010
0000
0001
1000
1010
0000
,
0001
0100
1000
0000
0100
0001
0010
0000
,
1000
0010
0001
0000
0100
0010
1010
0000
,
0001
0100
0010
1000
0100
0010
0001
0000
,
0100
0010
1000
0001
0010
0100
1000
0000
,
0001
0010
1000
0000
0010
0001
0100
0000
,
1000
0100
0001
0000
0010
0100
1100
0000
,
0001
0100
0010
1000
0100
0010
0001
0000
,
0100
0010
1000
0001
0010
0100
1000
0000
,
0001
0100
0010
0000
1000
0100
0011
0000
,
1000
0010
0100
0000
0001
0010
1100
0000
,
0001
0100
0010
0000
1000
0001
0110
0000
,
1000
0010
0100
0000
0001
1000
0110
0000
,
0001
1000
0100
0000
1000
0001
1100
0000
,
0001
1000
0010
0000
1000
0001
1010
0000
,
0001
0010
0100
0000
1000
0010
0101
0000
,
1000
0100
0010
0000
0001
0100
1010
0000
,
0002
0100
1000
0103
,
2000
0100
0001
3100
,
0002
0010
1000
0013
,
2000
0010
0001
3010
,
0002
0000
0000
0000
,
0203
0000
0000
0000
,
2300
0000
0000
0000
,
3020
0000
0000
0000
,
0030
0000
0000
0000
;

//---------------dance-single - ----------------
#NOTES:
     dance-single:
     :
     Medium:
     6:
     0.417,0.433,0.271,0.287,0.000:
0000
0000
0000
0000
,
0000
0000
0000
0000
,
0000
0000
0000
0000
,
0000
0000
0000
0000
,
1000
0010
0100
0010
1000
0010
0100
0000
,
0001
0100
0010
0100
0001
0100
0010
0000
,
1000
0100
0010
0100
1000
0100
0010
0000
,
0001
0010
0100
0010
0001
0010
0100
0000
,
1000
0010
0200
0000
1000
0000
0301
0000
,
1000
0100
0020
0000
1000
0000
0031
0000
,
1000
0010
0200
0000
1000
0000
0301
0000
,
1000
0100
0020
0000
1000
0000
0130
0000
,
0001
0100
0020
0000
0001
0000
1030
0000
,
0001
0010
0200
0000
0001
0000
1300
0000
,
0001
0100
0020
0000
0001
0000
1030
0000
,
0001
0010
0200
0000
0001
0000
1300
0000
,
0010
0000
0100
0010
1000
0000
0001
0000
,
0110
0000
1000
0100
0010
0000
0001
0000
,
0110
0000
1000
0010
1000
0010
1000
0000
,
0001
0000
0100
0000
0010
1000
0001
0000
,
1100
0000
0001
0000
0100
0010
1000
0000
,
0101
0000
0010
0000
1000
0100
0010
0000
,
1001
0000
0100
0001
0100
0001
0100
0000
,
1000
0000
0001
0010
0001
0010
0001
0000
,
1010
0101
1010
0011
,
1100
0000
0011
0000
1000
0001
1000
0000
,
0101
1010
0101
1100
,
0011
0000
1100
0000
0001
1000
0001
0000
,
1010
0101
1010
0011
,
1100
0000
0011
0000
1000
0001
1000
0000
,
0101
1010
0101
1100
,
0011
0000
1100
0000
0101
0000
1000
0010
,
0100
0010
1000
0000
0001
0000
0110
0000
,
0001
0100
0010
0000
1000
0000
0110
0000
,
0001
0000
0100
0020
0000
1000
1030
0000
,
0001
0000
0010
0200
0000
1000
1300
0000
,
0001
0100
0010
0000
1000
0000
0101
0000
,
0010
1000
0100
0000
1000
0000
0011
0000
,
1000
0000
0010
0200
0000
0001
0301
0000
,
1000
0100
0010
0002
0000
1000
1003
0000
,
0010
0100
0001
0000
0010
0100
0001
0000
,
1000
0100
0010
0000
1000
0100
0010
0000
,
0002
0203
0320
1030
,
0200
0320
0032
0103
,
0010
1000
0001
0000
0010
1000
0001
0000
,
0100
0010
1000
0000
0100
0010
1000
0000
,
0002
0203
0320
1030
,
0200
0320
0032
0103
,
0010
0100
0001
0100
0010
0100
0001
0000
,
1000
0100
0010
0100
1000
0100
0010
0000
,
0001
0100
0010
0100
0001
0100
0010
0000
,
1000
0001
0010
0001
1000
0001
0010
0000
,
0100
0010
1000
0010
0100
0010
1000
0000
,
0001
1000
0100
1000
0001
1000
0100
0000
,
1000
0010
0100
0010
1000
0010
0100
0000
,
0001
0010
0100
0010
0001
0010
0100
0000
,
2000
0000
0000
3020
,
0230
0000
0000
0302
,
2003
0000
0000
3002
,
0203
0000
0000
0320
,
2030
0000
0000
0000
,
3200
0000
0000
0000
,
0302
0000
0000
0000
,
0203
0000
0000
0000
,
0300
0000
0000
0000
;

//---------------dance-single - ----------------
#NOTES:
     dance-single:
     :
     Easy:
     4:
     0.246,0.229,0.000,0.191,0.000:
0000
0000
0000
0000
,
0000
0000
0000
0000
,
0000
0000
0000
0000
,
0000
0000
0000
0000
,
1000
0100
0001
1000
,
0001
0010
1000
0001
,
1000
0100
0010
1000
,
0001
0100
0010
0001
,
1000
0020
0000
0130
,
0001
2000
0000
3100
,
0010
0002
0000
0103
,
0010
2000
0000
3010
,
0100
0002
0000
0013
,
1000
0200
0000
1300
,
0010
0200
0000
0301
,
1000
0020
0000
0130
,
0001
1000
0100
1000
,
0001
0010
0100
0010
,
0001
0100
0010
1000
,
0100
0100
1000
1000
,
0010
0100
0001
0100
,
0010
1000
0100
0010
,
0001
1000
0010
1000
,
0001
0100
0010
1000
,
0100
0100
0100
0100
,
1000
0010
1000
0010
,
0100
0100
0100
0100
,
0001
0010
0001
0010
,
0001
0001
0001
0001
,
0100
0010
0100
0010
,
1000
1000
1000
1000
,
0100
0010
0100
0010
,
0001
0100
0000
1000
,
0100
0001
0000
0100
,
1000
0010
0200
0000
,
0301
0100
0020
0000
,
1030
0010
0000
0001
,
0010
1000
0000
0010
,
0001
0100
0020
0000
,
1030
0010
0200
0000
,
0301
0100
0000
1000
,
0100
0001
0000
0100
,
1000
0010
0200
0000
,
0301
0100
0020
0000
,
1030
0010
0000
0001
,
0010
1000
0000
0010
,
0001
0100
0020
0000
,
1030
0010
0200
0000
,
0310
1000
0100
0001
,
1000
0010
0100
1000
,
0100
0001
0010
1000
,
0001
0010
1000
0001
,
0100
0001
0010
1000
,
0100
1000
0010
0001
,
0100
0010
1000
0100
,
0001
0010
1000
0010
,
0002
0000
0000
0000
,
0203
0000
0000
0000
,
0320
0000
0000
0000
,
2030
0000
0000
0000
,
3200
0000
0000
0000
,
0320
0000
0000
0000
,
0032
0000
0000
0000
,
2003
0000
0000
0000
,
3000
0000
0000
0000
;
